<?xml version="1.0" standalone="no"?>
<!DOCTYPE svg PUBLIC "-//W3C//DTD SVG 1.1//EN" "http://www.w3.org/Graphics/SVG/1.1/DTD/svg11.dtd" >
<svg xmlns="http://www.w3.org/2000/svg" xmlns:xlink="http://www.w3.org/1999/xlink" version="1.1">
<metadata>
Created by FontForge 20170924 at Mon Mar  7 10:27:18 2016
 By www-data
Copyright \(c\) 2015 by Letters from Sweden &#38; Stockholm Design Lab. All rights reserved.
</metadata>
<defs>
<font id="LabGrotesque-Medium" horiz-adv-x="590" >
  <font-face 
    font-family="Lab Grotesque Medium"
    font-weight="500"
    font-stretch="normal"
    units-per-em="1000"
    panose-1="0 0 6 0 0 0 0 0 0 0"
    ascent="750"
    descent="-250"
    x-height="502"
    cap-height="710"
    bbox="-227 -257 1742 942"
    underline-thickness="76"
    underline-position="-152"
    stemh="93"
    stemv="110"
    unicode-range="U+0020-FB02"
  />
<missing-glyph horiz-adv-x="579" 
d="M479 810v-910h-379v910h379z" />
    <glyph glyph-name="f_f.liga" unicode="ff" horiz-adv-x="687" 
d="M285 636c-47 0 -68 -21 -68 -77v-57h97v-83h-97v-419h-110v419h-89v83h89v66c0 105 56 159 158 159c31 0 62 -3 104 -18l-20 -82c-29 7 -47 9 -64 9zM619 636c-47 0 -68 -21 -68 -77v-57h118v-83h-118v-419h-110v419h-81v83h81v66c0 105 56 159 157 159
c32 0 62 -3 105 -18l-21 -82c-28 7 -46 9 -63 9z" />
    <glyph glyph-name="f_f_i.liga" unicode="ffi" horiz-adv-x="915" 
d="M285 631c-47 0 -68 -21 -68 -77v-52h97v-83h-97v-419h-110v419h-89v83h89v60c0 106 56 160 158 160c31 0 62 -3 104 -18l-20 -83c-29 8 -47 10 -64 10zM616 630c-50 0 -65 -21 -65 -76v-52h116v-83h-116v-419h-110v419h-81v83h81v60c0 106 53 160 152 160
c32 0 61 -5 86 -12l-14 -85c-22 4 -37 5 -49 5zM744 702h110v-113h-110v113zM744 0v502h110v-502h-110z" />
    <glyph glyph-name="f_f_j.liga" unicode="ffj" horiz-adv-x="915" 
d="M285 631c-47 0 -68 -21 -68 -77v-52h97v-83h-97v-419h-110v419h-89v83h89v60c0 106 56 160 158 160c31 0 62 -3 104 -18l-20 -83c-29 8 -47 10 -64 10zM667 419h-116v-419h-110v419h-81v83h81v60c0 106 53 160 152 160c32 0 61 -5 86 -12l-14 -85c-22 4 -37 5 -49 5
c-50 0 -65 -21 -65 -76v-52h116v-83zM744 702h110v-113h-110v113zM744 -29v531h110v-529c0 -112 -51 -164 -150 -164c-37 0 -70 5 -101 15l20 83c25 -6 44 -9 62 -9c43 0 59 23 59 73z" />
    <glyph glyph-name="f_j.liga" unicode="fj" horiz-adv-x="582" 
d="M334 419h-117v-419h-110v419h-89v83h89v60c0 106 53 160 153 160c31 0 60 -5 85 -12l-14 -85c-22 4 -36 5 -48 5c-51 0 -66 -21 -66 -76v-52h117v-83zM410 702h110v-113h-110v113zM410 -29v531h110v-530c0 -111 -50 -164 -150 -164c-37 0 -70 6 -101 15l21 83
c25 -6 43 -8 62 -8c42 0 58 22 58 73z" />
    <glyph glyph-name="fi" unicode="fi" horiz-adv-x="582" 
d="M283 630c-51 0 -66 -21 -66 -76v-52h117v-83h-117v-419h-110v419h-89v83h89v60c0 106 53 160 153 160c31 0 60 -5 85 -12l-14 -85c-22 4 -36 5 -48 5zM410 702h110v-113h-110v113zM410 0v502h110v-502h-110z" />
    <glyph glyph-name="fl" unicode="fl" horiz-adv-x="584" 
d="M283 630c-51 0 -66 -21 -66 -76v-52h117v-83h-117v-419h-110v419h-89v83h89v60c0 106 53 160 153 160c31 0 60 -5 85 -12l-14 -85c-22 4 -36 5 -48 5zM410 710h110v-710h-110v710z" />
    <glyph glyph-name=".notdef" horiz-adv-x="579" 
d="M479 810v-910h-379v910h379z" />
    <glyph glyph-name="A" unicode="A" horiz-adv-x="693" 
d="M557 0l-55 160h-314l-55 -160h-120l256 710h155l256 -710h-123zM222 258h246l-31 87c-34 98 -67 190 -93 275c-24 -85 -58 -178 -92 -276z" />
    <glyph glyph-name="Aacute" unicode="&#xc1;" horiz-adv-x="693" 
d="M486 923l-94 -146h-97l70 146h121zM557 0l-55 160h-314l-55 -160h-120l256 710h155l256 -710h-123zM222 258h246l-31 87c-34 98 -67 190 -93 275c-24 -85 -58 -178 -92 -276z" />
    <glyph glyph-name="Abreve" unicode="&#x102;" horiz-adv-x="693" 
d="M346 772c-88 0 -155 49 -155 140h83c0 -44 23 -76 72 -76c48 0 71 32 71 76h83c0 -91 -67 -140 -154 -140zM557 0l-55 160h-314l-55 -160h-120l256 710h155l256 -710h-123zM222 258h246l-31 87c-34 98 -67 190 -93 275c-24 -85 -58 -178 -92 -276z" />
    <glyph glyph-name="Acircumflex" unicode="&#xc2;" horiz-adv-x="693" 
d="M345 874l-78 -97h-93l102 146h138l102 -146h-94zM557 0l-55 160h-314l-55 -160h-120l256 710h155l256 -710h-123zM222 258h246l-31 87c-34 98 -67 190 -93 275c-24 -85 -58 -178 -92 -276z" />
    <glyph glyph-name="Adieresis" unicode="&#xc4;" horiz-adv-x="693" 
d="M305 903v-113h-107v113h107zM493 903v-113h-107v113h107zM557 0l-55 160h-314l-55 -160h-120l256 710h155l256 -710h-123zM222 258h246l-31 87c-34 98 -67 190 -93 275c-24 -85 -58 -178 -92 -276z" />
    <glyph glyph-name="Adieresis.ss02" horiz-adv-x="693" 
d="M250 783c-37 0 -66 29 -66 65c0 35 29 64 66 64c36 0 65 -29 65 -64c0 -36 -29 -65 -65 -65zM442 783c-36 0 -65 29 -65 65c0 35 29 64 65 64s65 -29 65 -64c0 -36 -29 -65 -65 -65zM557 0l-55 160h-314l-55 -160h-120l256 710h155l256 -710h-123zM222 258h246l-31 87
c-34 98 -67 190 -93 275c-24 -85 -58 -178 -92 -276z" />
    <glyph glyph-name="Agrave" unicode="&#xc0;" horiz-adv-x="693" 
d="M396 777h-97l-95 146h122zM557 0l-55 160h-314l-55 -160h-120l256 710h155l256 -710h-123zM222 258h246l-31 87c-34 98 -67 190 -93 275c-24 -85 -58 -178 -92 -276z" />
    <glyph glyph-name="Amacron" unicode="&#x100;" horiz-adv-x="693" 
d="M496 875v-82h-301v82h301zM557 0l-55 160h-314l-55 -160h-120l256 710h155l256 -710h-123zM222 258h246l-31 87c-34 98 -67 190 -93 275c-24 -85 -58 -178 -92 -276z" />
    <glyph glyph-name="Aogonek" unicode="&#x104;" horiz-adv-x="693" 
d="M596 -106c0 -25 19 -39 50 -39c13 0 21 2 28 4v-66c-12 -5 -31 -7 -44 -7c-73 0 -111 35 -111 89c0 39 17 81 72 125h-34l-55 160h-314l-55 -160h-120l256 710h155l256 -710c-66 -42 -84 -76 -84 -106zM222 258h246l-31 87c-34 98 -67 190 -93 275
c-24 -85 -58 -178 -92 -276z" />
    <glyph glyph-name="Aring" unicode="&#xc5;" horiz-adv-x="699" 
d="M563 0l-56 161h-318l-56 -161h-120l251 699c-28 24 -45 58 -45 97c0 70 58 126 130 126c73 0 131 -56 131 -126c0 -39 -18 -73 -45 -97l251 -699h-123zM349 865c-39 0 -69 -28 -69 -69c0 -42 30 -70 69 -70c40 0 69 28 69 70c0 41 -29 69 -69 69zM222 258h252l-31 88
c-34 100 -70 196 -96 282c-25 -86 -60 -183 -95 -284z" />
    <glyph glyph-name="Atilde" unicode="&#xc3;" horiz-adv-x="693" 
d="M280 837c-23 0 -34 -24 -34 -51h-66c0 79 44 121 97 121c62 0 96 -51 137 -51c24 0 32 23 32 51h65c0 -79 -38 -121 -91 -121c-54 0 -99 51 -140 51zM557 0l-55 160h-314l-55 -160h-120l256 710h155l256 -710h-123zM222 258h246l-31 87c-34 98 -67 190 -93 275
c-24 -85 -58 -178 -92 -276z" />
    <glyph glyph-name="AE" unicode="&#xc6;" horiz-adv-x="985" 
d="M561 100h378v-100h-497v160h-237l-81 -160h-121l366 710h117h443v-100h-368v-194h344v-99h-344v-217zM255 258h187v367z" />
    <glyph glyph-name="B" unicode="B" horiz-adv-x="675" 
d="M504 374c83 -25 135 -82 135 -174c0 -124 -87 -200 -219 -200h-344v710h327c120 0 211 -62 211 -182c0 -80 -45 -132 -110 -154zM195 617v-200h181c79 0 123 39 123 103s-43 97 -122 97h-182zM380 93c94 0 141 44 141 115c0 70 -49 116 -141 116h-185v-231h185z" />
    <glyph glyph-name="C" unicode="C" horiz-adv-x="671" 
d="M386 726c100 0 172 -30 257 -103l-69 -82c-77 66 -128 82 -189 82c-141 0 -227 -108 -227 -267c0 -161 88 -269 223 -269c80 0 129 32 204 97l70 -80c-89 -85 -165 -120 -272 -120c-217 0 -346 159 -346 372c0 211 125 370 349 370z" />
    <glyph glyph-name="Cacute" unicode="&#x106;" horiz-adv-x="671" 
d="M526 923l-94 -146h-97l70 146h121zM386 726c100 0 172 -30 257 -103l-69 -82c-77 66 -128 82 -189 82c-141 0 -227 -108 -227 -267c0 -161 88 -269 223 -269c80 0 129 32 204 97l70 -80c-89 -85 -165 -120 -272 -120c-217 0 -346 159 -346 372c0 211 125 370 349 370z
" />
    <glyph glyph-name="Ccaron" unicode="&#x10c;" horiz-adv-x="671" 
d="M556 923l-102 -146h-138l-102 146h94l78 -97l77 97h93zM386 726c100 0 172 -30 257 -103l-69 -82c-77 66 -128 82 -189 82c-141 0 -227 -108 -227 -267c0 -161 88 -269 223 -269c80 0 129 32 204 97l70 -80c-89 -85 -165 -120 -272 -120c-217 0 -346 159 -346 372
c0 211 125 370 349 370z" />
    <glyph glyph-name="Ccedilla" unicode="&#xc7;" horiz-adv-x="671" 
d="M373 -66c65 1 106 -33 106 -80c0 -56 -44 -94 -111 -94c-39 0 -75 13 -111 37l30 48c30 -18 53 -27 80 -27c28 0 49 12 49 35c0 21 -25 33 -53 33c-10 0 -21 -1 -29 -3l-31 29l34 74c-189 21 -300 172 -300 370c0 211 125 370 349 370c100 0 172 -30 257 -103l-69 -82
c-77 66 -128 82 -189 82c-141 0 -227 -108 -227 -267c0 -161 88 -269 223 -269c80 0 129 32 204 97l70 -80c-85 -81 -159 -117 -259 -120z" />
    <glyph glyph-name="Cdotaccent" unicode="&#x10a;" horiz-adv-x="671" 
d="M440 903v-113h-110v113h110zM386 726c100 0 172 -30 257 -103l-69 -82c-77 66 -128 82 -189 82c-141 0 -227 -108 -227 -267c0 -161 88 -269 223 -269c80 0 129 32 204 97l70 -80c-89 -85 -165 -120 -272 -120c-217 0 -346 159 -346 372c0 211 125 370 349 370z" />
    <glyph glyph-name="Cdotaccent.ss02" horiz-adv-x="671" 
d="M386 779c-38 0 -68 30 -68 67s30 67 68 67s68 -30 68 -67s-30 -67 -68 -67zM386 726c100 0 172 -30 257 -103l-69 -82c-77 66 -128 82 -189 82c-141 0 -227 -108 -227 -267c0 -161 88 -269 223 -269c80 0 129 32 204 97l70 -80c-89 -85 -165 -120 -272 -120
c-217 0 -346 159 -346 372c0 211 125 370 349 370z" />
    <glyph glyph-name="D" unicode="D" horiz-adv-x="711" 
d="M355 710c204 0 319 -148 319 -355s-115 -355 -319 -355h-279v710h279zM336 610h-141v-510h141c132 0 216 88 216 255s-84 255 -216 255z" />
    <glyph glyph-name="Eth" unicode="&#xd0;" horiz-adv-x="740" 
d="M384 710c204 0 319 -148 319 -355s-115 -355 -319 -355h-279v317h-79v99h79v294h279zM365 100c132 0 216 88 216 255s-84 255 -216 255h-141v-194h177v-99h-177v-217h141z" />
    <glyph glyph-name="Dcaron" unicode="&#x10e;" horiz-adv-x="711" 
d="M522 923l-102 -146h-138l-102 146h94l78 -97l77 97h93zM355 710c204 0 319 -148 319 -355s-115 -355 -319 -355h-279v710h279zM336 610h-141v-510h141c132 0 216 88 216 255s-84 255 -216 255z" />
    <glyph glyph-name="Dcroat" unicode="&#x110;" horiz-adv-x="740" 
d="M384 710c204 0 319 -148 319 -355s-115 -355 -319 -355h-279v317h-79v99h79v294h279zM365 100c132 0 216 88 216 255s-84 255 -216 255h-141v-194h177v-99h-177v-217h141z" />
    <glyph glyph-name="E" unicode="E" horiz-adv-x="619" 
d="M563 710v-100h-368v-194h344v-99h-344v-217h378v-100h-497v710h487z" />
    <glyph glyph-name="Eacute" unicode="&#xc9;" horiz-adv-x="619" 
d="M464 923l-94 -146h-97l70 146h121zM563 710v-100h-368v-194h344v-99h-344v-217h378v-100h-497v710h487z" />
    <glyph glyph-name="Ecaron" unicode="&#x11a;" horiz-adv-x="619" 
d="M494 923l-102 -146h-138l-102 146h94l78 -97l77 97h93zM563 710v-100h-368v-194h344v-99h-344v-217h378v-100h-497v710h487z" />
    <glyph glyph-name="Ecircumflex" unicode="&#xca;" horiz-adv-x="619" 
d="M400 777l-77 97l-78 -97h-93l102 146h138l102 -146h-94zM563 710v-100h-368v-194h344v-99h-344v-217h378v-100h-497v710h487z" />
    <glyph glyph-name="Edieresis" unicode="&#xcb;" horiz-adv-x="619" 
d="M283 903v-113h-107v113h107zM471 903v-113h-107v113h107zM563 710v-100h-368v-194h344v-99h-344v-217h378v-100h-497v710h487z" />
    <glyph glyph-name="Edieresis.ss02" horiz-adv-x="619" 
d="M228 783c-37 0 -66 29 -66 65c0 35 29 64 66 64c36 0 65 -29 65 -64c0 -36 -29 -65 -65 -65zM420 783c-36 0 -65 29 -65 65c0 35 29 64 65 64s65 -29 65 -64c0 -36 -29 -65 -65 -65zM563 710v-100h-368v-194h344v-99h-344v-217h378v-100h-497v710h487z" />
    <glyph glyph-name="Edotaccent" unicode="&#x116;" horiz-adv-x="619" 
d="M378 903v-113h-110v113h110zM563 710v-100h-368v-194h344v-99h-344v-217h378v-100h-497v710h487z" />
    <glyph glyph-name="Edotaccent.ss02" horiz-adv-x="619" 
d="M324 779c-38 0 -68 30 -68 67s30 67 68 67s68 -30 68 -67s-30 -67 -68 -67zM563 710v-100h-368v-194h344v-99h-344v-217h378v-100h-497v710h487z" />
    <glyph glyph-name="Egrave" unicode="&#xc8;" horiz-adv-x="619" 
d="M182 923h122l70 -146h-97zM563 710v-100h-368v-194h344v-99h-344v-217h378v-100h-497v710h487z" />
    <glyph glyph-name="Emacron" unicode="&#x112;" horiz-adv-x="619" 
d="M474 875v-82h-301v82h301zM563 710v-100h-368v-194h344v-99h-344v-217h378v-100h-497v710h487z" />
    <glyph glyph-name="Eogonek" unicode="&#x118;" horiz-adv-x="619" 
d="M573 0c-65 -42 -83 -76 -83 -106c0 -25 19 -39 50 -39c12 0 21 2 28 4v-66c-12 -5 -31 -7 -44 -7c-73 0 -111 35 -111 89c0 39 17 81 71 125h-408v710h487v-100h-368v-194h344v-99h-344v-217h378v-100z" />
    <glyph glyph-name="F" unicode="F" horiz-adv-x="602" 
d="M563 710v-100h-368v-211h343v-100h-343v-299h-119v710h487z" />
    <glyph glyph-name="G" unicode="G" horiz-adv-x="748" 
d="M363 284v100h322v-384h-91l-7 77c-46 -66 -122 -92 -211 -92c-216 0 -339 155 -339 371c0 212 131 369 352 369c120 0 205 -39 297 -133l-75 -77c-81 77 -139 107 -223 107c-137 0 -230 -100 -230 -267c0 -168 88 -267 226 -267c117 0 193 67 193 177v19h-214z" />
    <glyph glyph-name="Gbreve" unicode="&#x11e;" horiz-adv-x="748" 
d="M385 772c-88 0 -155 49 -155 140h83c0 -44 23 -76 72 -76c48 0 71 32 71 76h83c0 -91 -67 -140 -154 -140zM363 284v100h322v-384h-91l-7 77c-46 -66 -122 -92 -211 -92c-216 0 -339 155 -339 371c0 212 131 369 352 369c120 0 205 -39 297 -133l-75 -77
c-81 77 -139 107 -223 107c-137 0 -230 -100 -230 -267c0 -168 88 -267 226 -267c117 0 193 67 193 177v19h-214z" />
    <glyph glyph-name="Gcommaaccent" unicode="&#x122;" horiz-adv-x="748" 
d="M363 284v100h322v-384h-91l-7 77c-46 -66 -122 -92 -211 -92c-216 0 -339 155 -339 371c0 212 131 369 352 369c120 0 205 -39 297 -133l-75 -77c-81 77 -139 107 -223 107c-137 0 -230 -100 -230 -267c0 -168 88 -267 226 -267c117 0 193 67 193 177v19h-214zM321 -163
v97h120v-97l-65 -93h-59l60 93h-56z" />
    <glyph glyph-name="Gcommaaccent.ss02" horiz-adv-x="748" 
d="M363 284v100h322v-384h-91l-7 77c-46 -66 -122 -92 -211 -92c-216 0 -339 155 -339 371c0 212 131 369 352 369c120 0 205 -39 297 -133l-75 -77c-81 77 -139 107 -223 107c-137 0 -230 -100 -230 -267c0 -168 88 -267 226 -267c117 0 193 67 193 177v19h-214zM377 -60
c39 0 72 -28 72 -78c0 -71 -49 -119 -126 -119v41c24 2 61 15 71 48c-5 -1 -11 -2 -17 -2c-40 0 -63 18 -63 53c0 33 28 57 63 57z" />
    <glyph glyph-name="Gdotaccent" unicode="&#x120;" horiz-adv-x="748" 
d="M440 903v-113h-110v113h110zM363 284v100h322v-384h-91l-7 77c-46 -66 -122 -92 -211 -92c-216 0 -339 155 -339 371c0 212 131 369 352 369c120 0 205 -39 297 -133l-75 -77c-81 77 -139 107 -223 107c-137 0 -230 -100 -230 -267c0 -168 88 -267 226 -267
c117 0 193 67 193 177v19h-214z" />
    <glyph glyph-name="Gdotaccent.ss02" horiz-adv-x="748" 
d="M386 779c-38 0 -68 30 -68 67s30 67 68 67s68 -30 68 -67s-30 -67 -68 -67zM363 284v100h322v-384h-91l-7 77c-46 -66 -122 -92 -211 -92c-216 0 -339 155 -339 371c0 212 131 369 352 369c120 0 205 -39 297 -133l-75 -77c-81 77 -139 107 -223 107
c-137 0 -230 -100 -230 -267c0 -168 88 -267 226 -267c117 0 193 67 193 177v19h-214z" />
    <glyph glyph-name="H" unicode="H" horiz-adv-x="736" 
d="M659 710v-710h-118v321h-346v-321h-119v710h119v-289h346v289h118z" />
    <glyph glyph-name="Hbar" unicode="&#x126;" horiz-adv-x="789" 
d="M759 607v-82h-73v-525h-118v321h-346v-321h-119v525h-73v82h73v103h119v-103h346v103h118v-103h73zM568 421v104h-346v-104h346z" />
    <glyph glyph-name="I" unicode="I" horiz-adv-x="285" 
d="M202 710v-710h-119v710h119z" />
    <glyph glyph-name="IJ" unicode="&#x132;" horiz-adv-x="753" 
d="M202 710v-710h-119v710h119zM681 710v-523c0 -141 -80 -201 -204 -201c-64 0 -133 20 -184 45l37 94c48 -19 91 -34 142 -34c54 0 91 30 91 108v511h118z" />
    <glyph glyph-name="Iacute" unicode="&#xcd;" horiz-adv-x="285" 
d="M283 923l-94 -146h-97l70 146h121zM202 710v-710h-119v710h119z" />
    <glyph glyph-name="Icircumflex" unicode="&#xce;" horiz-adv-x="285" 
d="M219 777l-77 97l-78 -97h-93l102 146h138l102 -146h-94zM202 710v-710h-119v710h119z" />
    <glyph glyph-name="Idieresis" unicode="&#xcf;" horiz-adv-x="285" 
d="M102 903v-113h-107v113h107zM290 903v-113h-107v113h107zM202 710v-710h-119v710h119z" />
    <glyph glyph-name="Idieresis.ss02" horiz-adv-x="285" 
d="M47 783c-37 0 -66 29 -66 65c0 35 29 64 66 64c36 0 65 -29 65 -64c0 -36 -29 -65 -65 -65zM239 783c-36 0 -65 29 -65 65c0 35 29 64 65 64s65 -29 65 -64c0 -36 -29 -65 -65 -65zM202 710v-710h-119v710h119z" />
    <glyph glyph-name="Idotaccent" unicode="&#x130;" horiz-adv-x="285" 
d="M197 903v-113h-110v113h110zM202 710v-710h-119v710h119z" />
    <glyph glyph-name="Idotaccent.ss02" horiz-adv-x="285" 
d="M143 779c-38 0 -68 30 -68 67s30 67 68 67s68 -30 68 -67s-30 -67 -68 -67zM202 710v-710h-119v710h119z" />
    <glyph glyph-name="Igrave" unicode="&#xcc;" horiz-adv-x="285" 
d="M1 923h122l70 -146h-97zM202 710v-710h-119v710h119z" />
    <glyph glyph-name="Imacron" unicode="&#x12a;" horiz-adv-x="285" 
d="M293 875v-82h-301v82h301zM202 710v-710h-119v710h119z" />
    <glyph glyph-name="Iogonek" unicode="&#x12e;" horiz-adv-x="285" 
d="M202 0c-65 -42 -83 -76 -83 -106c0 -25 18 -39 49 -39c13 0 21 2 28 4v-66c-12 -5 -30 -7 -44 -7c-73 0 -111 35 -111 89c0 39 17 81 72 125h-30v710h119v-710z" />
    <glyph glyph-name="J" unicode="J" horiz-adv-x="468" 
d="M396 710v-523c0 -141 -80 -201 -204 -201c-64 0 -133 20 -184 45l37 94c48 -19 91 -34 142 -34c54 0 91 30 91 108v511h118z" />
    <glyph glyph-name="K" unicode="K" horiz-adv-x="676" 
d="M539 0l-226 351l-118 -123v-228h-119v710h119v-339l317 339h145l-264 -276l280 -434h-134z" />
    <glyph glyph-name="K.ss01" horiz-adv-x="676" 
d="M540 0l-225 347l-120 -115v-232h-119v710h119v-338l367 354l74 -75l-238 -226l275 -425h-133z" />
    <glyph glyph-name="Kcommaaccent" unicode="&#x136;" horiz-adv-x="676" 
d="M393 434l280 -434h-134l-226 351l-118 -123v-228h-119v710h119v-339l317 339h145zM294 -163v97h120v-97l-65 -93h-59l60 93h-56z" />
    <glyph glyph-name="Kcommaaccent.ss01" horiz-adv-x="676" 
d="M398 425l275 -425h-133l-225 347l-120 -115v-232h-119v710h119v-338l367 354l74 -75zM304 -163v97h120v-97l-65 -93h-59l60 93h-56z" />
    <glyph glyph-name="Kcommaaccent.ss01.ss02" horiz-adv-x="676" 
d="M398 425l275 -425h-133l-225 347l-120 -115v-232h-119v710h119v-338l367 354l74 -75zM360 -60c39 0 72 -28 72 -78c0 -71 -49 -119 -126 -119v41c24 2 61 15 71 48c-5 -1 -11 -2 -17 -2c-40 0 -63 18 -63 53c0 33 28 57 63 57z" />
    <glyph glyph-name="Kcommaaccent.ss02" horiz-adv-x="676" 
d="M393 434l280 -434h-134l-226 351l-118 -123v-228h-119v710h119v-339l317 339h145zM350 -60c39 0 72 -28 72 -78c0 -71 -49 -119 -126 -119v41c24 2 61 15 71 48c-5 -1 -11 -2 -17 -2c-40 0 -63 18 -63 53c0 33 28 57 63 57z" />
    <glyph glyph-name="L" unicode="L" horiz-adv-x="546" 
d="M195 710v-609h322v-101h-441v710h119z" />
    <glyph glyph-name="Lacute" unicode="&#x139;" horiz-adv-x="546" 
d="M276 923l-94 -146h-97l70 146h121zM195 710v-609h322v-101h-441v710h119z" />
    <glyph glyph-name="Lcaron" unicode="&#x13d;" horiz-adv-x="546" 
d="M195 710v-609h322v-101h-441v710h119zM414 710l-69 -207h-68l28 207h109z" />
    <glyph glyph-name="Lcommaaccent" unicode="&#x13b;" horiz-adv-x="546" 
d="M195 710v-609h322v-101h-441v710h119zM360 -66v-97l-65 -93h-59l60 93h-56v97h120z" />
    <glyph glyph-name="Lcommaaccent.ss02" horiz-adv-x="546" 
d="M195 101h322v-101h-441v710h119v-609zM296 -60c39 0 72 -28 72 -78c0 -71 -49 -119 -126 -119v41c24 2 61 15 71 48c-5 -1 -11 -2 -17 -2c-40 0 -63 18 -63 53c0 33 28 57 63 57z" />
    <glyph glyph-name="Ldot" unicode="&#x13f;" horiz-adv-x="546" 
d="M195 710v-609h322v-101h-441v710h119zM450 433v-128h-124v128h124z" />
    <glyph glyph-name="Ldot.ss02" horiz-adv-x="546" 
d="M195 710v-609h322v-101h-441v710h119zM383 295c-42 0 -76 34 -76 75s34 75 76 75c41 0 75 -34 75 -75s-34 -75 -75 -75z" />
    <glyph glyph-name="Lslash" unicode="&#x141;" horiz-adv-x="578" 
d="M225 101h324v-101h-443v272l-83 -46v101l83 45v338h119v-277l148 82v-100l-148 -82v-232z" />
    <glyph glyph-name="M" unicode="M" horiz-adv-x="891" 
d="M629 710h186v-710h-116v358c0 89 2 176 3 263c-25 -85 -53 -167 -85 -263l-119 -358h-103l-121 358c-33 97 -62 179 -87 261c2 -86 2 -173 2 -262v-357h-113v710h187l102 -300c31 -93 60 -183 82 -263c22 81 51 171 82 263z" />
    <glyph glyph-name="N" unicode="N" horiz-adv-x="738" 
d="M546 710h115v-710h-127l-194 304c-56 87 -110 172 -154 252c4 -85 5 -178 5 -277v-279h-115v710h130l201 -316c52 -82 102 -159 144 -236c-4 80 -5 166 -5 264v288z" />
    <glyph glyph-name="Nacute" unicode="&#x143;" horiz-adv-x="738" 
d="M518 923l-94 -146h-97l70 146h121zM546 710h115v-710h-127l-194 304c-56 87 -110 172 -154 252c4 -85 5 -178 5 -277v-279h-115v710h130l201 -316c52 -82 102 -159 144 -236c-4 80 -5 166 -5 264v288z" />
    <glyph glyph-name="Ncaron" unicode="&#x147;" horiz-adv-x="738" 
d="M446 777h-138l-102 146h94l78 -97l77 97h93zM546 710h115v-710h-127l-194 304c-56 87 -110 172 -154 252c4 -85 5 -178 5 -277v-279h-115v710h130l201 -316c52 -82 102 -159 144 -236c-4 80 -5 166 -5 264v288z" />
    <glyph glyph-name="Ncommaaccent" unicode="&#x145;" horiz-adv-x="738" 
d="M546 710h115v-710h-127l-194 304c-56 87 -110 172 -154 252c4 -85 5 -178 5 -277v-279h-115v710h130l201 -316c52 -82 102 -159 144 -236c-4 80 -5 166 -5 264v288zM312 -163v97h120v-97l-65 -93h-59l60 93h-56z" />
    <glyph glyph-name="Ncommaaccent.ss02" horiz-adv-x="738" 
d="M546 710h115v-710h-127l-194 304c-56 87 -110 172 -154 252c4 -85 5 -178 5 -277v-279h-115v710h130l201 -316c52 -82 102 -159 144 -236c-4 80 -5 166 -5 264v288zM368 -60c39 0 72 -28 72 -78c0 -71 -49 -119 -126 -119v41c24 2 61 15 71 48c-5 -1 -11 -2 -17 -2
c-40 0 -63 18 -63 53c0 33 28 57 63 57z" />
    <glyph glyph-name="Eng" unicode="&#x14a;" horiz-adv-x="738" 
d="M546 710h115v-710v-34c0 -108 -52 -163 -154 -163c-37 0 -73 5 -109 17l20 91c30 -8 52 -12 72 -12c41 0 61 23 61 73l-211 331c-56 87 -110 172 -154 252c4 -85 5 -177 5 -276v-279h-115v710h129l202 -315c51 -82 101 -161 144 -238c-4 80 -5 167 -5 265v288z" />
    <glyph glyph-name="Ntilde" unicode="&#xd1;" horiz-adv-x="738" 
d="M312 837c-23 0 -34 -24 -34 -51h-66c0 79 44 121 97 121c62 0 96 -51 137 -51c24 0 32 23 32 51h65c0 -79 -38 -121 -91 -121c-54 0 -99 51 -140 51zM546 710h115v-710h-127l-194 304c-56 87 -110 172 -154 252c4 -85 5 -178 5 -277v-279h-115v710h130l201 -316
c52 -82 102 -159 144 -236c-4 80 -5 166 -5 264v288z" />
    <glyph glyph-name="O" unicode="O" horiz-adv-x="763" 
d="M382 726c215 0 344 -159 344 -371s-129 -371 -344 -371c-214 0 -345 159 -345 371s131 371 345 371zM382 622c-135 0 -223 -108 -223 -267c0 -160 88 -267 223 -267s223 107 223 267c0 159 -88 267 -223 267z" />
    <glyph glyph-name="Oacute" unicode="&#xd3;" horiz-adv-x="763" 
d="M523 923l-94 -146h-97l70 146h121zM382 726c215 0 344 -159 344 -371s-129 -371 -344 -371c-214 0 -345 159 -345 371s131 371 345 371zM382 622c-135 0 -223 -108 -223 -267c0 -160 88 -267 223 -267s223 107 223 267c0 159 -88 267 -223 267z" />
    <glyph glyph-name="Ocircumflex" unicode="&#xd4;" horiz-adv-x="763" 
d="M459 777l-77 97l-78 -97h-93l102 146h138l102 -146h-94zM382 726c215 0 344 -159 344 -371s-129 -371 -344 -371c-214 0 -345 159 -345 371s131 371 345 371zM382 622c-135 0 -223 -108 -223 -267c0 -160 88 -267 223 -267s223 107 223 267c0 159 -88 267 -223 267z" />
    <glyph glyph-name="Odieresis" unicode="&#xd6;" horiz-adv-x="763" 
d="M342 903v-113h-107v113h107zM530 903v-113h-107v113h107zM382 726c215 0 344 -159 344 -371s-129 -371 -344 -371c-214 0 -345 159 -345 371s131 371 345 371zM382 622c-135 0 -223 -108 -223 -267c0 -160 88 -267 223 -267s223 107 223 267c0 159 -88 267 -223 267z" />
    <glyph glyph-name="Odieresis.ss02" horiz-adv-x="763" 
d="M287 783c-37 0 -66 29 -66 65c0 35 29 64 66 64c36 0 65 -29 65 -64c0 -36 -29 -65 -65 -65zM479 783c-36 0 -65 29 -65 65c0 35 29 64 65 64s65 -29 65 -64c0 -36 -29 -65 -65 -65zM382 726c215 0 344 -159 344 -371s-129 -371 -344 -371c-214 0 -345 159 -345 371
s131 371 345 371zM382 622c-135 0 -223 -108 -223 -267c0 -160 88 -267 223 -267s223 107 223 267c0 159 -88 267 -223 267z" />
    <glyph glyph-name="Ograve" unicode="&#xd2;" horiz-adv-x="763" 
d="M241 923h122l70 -146h-97zM382 726c215 0 344 -159 344 -371s-129 -371 -344 -371c-214 0 -345 159 -345 371s131 371 345 371zM382 622c-135 0 -223 -108 -223 -267c0 -160 88 -267 223 -267s223 107 223 267c0 159 -88 267 -223 267z" />
    <glyph glyph-name="Ohungarumlaut" unicode="&#x150;" horiz-adv-x="763" 
d="M436 923l-96 -147h-80l71 147h105zM599 923l-96 -147h-80l71 147h105zM382 726c215 0 344 -159 344 -371s-129 -371 -344 -371c-214 0 -345 159 -345 371s131 371 345 371zM382 622c-135 0 -223 -108 -223 -267c0 -160 88 -267 223 -267s223 107 223 267
c0 159 -88 267 -223 267z" />
    <glyph glyph-name="Omacron" unicode="&#x14c;" horiz-adv-x="763" 
d="M533 875v-82h-301v82h301zM382 726c215 0 344 -159 344 -371s-129 -371 -344 -371c-214 0 -345 159 -345 371s131 371 345 371zM382 622c-135 0 -223 -108 -223 -267c0 -160 88 -267 223 -267s223 107 223 267c0 159 -88 267 -223 267z" />
    <glyph glyph-name="Oslash" unicode="&#xd8;" horiz-adv-x="763" 
d="M646 607c52 -65 80 -153 80 -252c0 -212 -129 -371 -344 -371c-81 0 -150 23 -205 63l-44 -53l-62 53l47 56c-52 66 -81 153 -81 252c0 212 131 371 345 371c81 0 150 -22 205 -62l44 52l62 -53zM159 355c0 -62 13 -116 37 -158l319 380c-36 29 -81 45 -133 45
c-135 0 -223 -108 -223 -267zM382 88c135 0 223 107 223 267c0 62 -13 116 -37 159l-319 -381c36 -29 81 -45 133 -45z" />
    <glyph glyph-name="Otilde" unicode="&#xd5;" horiz-adv-x="763" 
d="M314 907c62 0 96 -51 137 -51c24 0 32 23 32 51h65c0 -79 -38 -121 -91 -121c-54 0 -99 51 -140 51c-23 0 -34 -24 -34 -51h-66c0 79 44 121 97 121zM382 726c215 0 344 -159 344 -371s-129 -371 -344 -371c-214 0 -345 159 -345 371s131 371 345 371zM382 622
c-135 0 -223 -108 -223 -267c0 -160 88 -267 223 -267s223 107 223 267c0 159 -88 267 -223 267z" />
    <glyph glyph-name="OE" unicode="&#x152;" horiz-adv-x="1148" 
d="M724 100h378v-100h-497v84c-52 -62 -128 -100 -226 -100c-215 0 -342 159 -342 371s127 371 342 371c98 0 174 -38 226 -100v84h487v-100h-368v-194h344v-99h-344v-217zM382 88c135 0 223 107 223 267c0 159 -88 267 -223 267s-223 -108 -223 -267
c0 -160 88 -267 223 -267z" />
    <glyph glyph-name="P" unicode="P" horiz-adv-x="667" 
d="M402 710c140 0 232 -84 232 -219s-92 -218 -232 -218h-207v-273h-119v710h326zM382 612h-187v-241h187c82 0 135 42 135 120c0 79 -53 121 -135 121z" />
    <glyph glyph-name="Thorn" unicode="&#xde;" horiz-adv-x="667" 
d="M402 586c140 0 232 -84 232 -219s-92 -218 -232 -218h-207v-149h-119v710h119v-124h207zM382 247c82 0 135 42 135 120c0 79 -53 121 -135 121h-187v-241h187z" />
    <glyph glyph-name="Q" unicode="Q" horiz-adv-x="763" 
d="M726 355c0 -119 -40 -221 -114 -288l59 -78l-84 -59l-62 81c-42 -18 -90 -27 -143 -27c-214 0 -345 159 -345 371s131 371 345 371c215 0 344 -159 344 -371zM382 88c27 0 53 4 76 13l-88 116l83 59l89 -117c40 47 63 114 63 196c0 159 -88 267 -223 267
s-223 -108 -223 -267c0 -160 88 -267 223 -267z" />
    <glyph glyph-name="R" unicode="R" horiz-adv-x="681" 
d="M653 0h-132l-179 273h-147v-273h-119v710h319c135 0 232 -85 232 -219c0 -109 -64 -185 -161 -209zM195 612v-241h180c82 0 135 42 135 120c0 79 -53 121 -136 121h-179z" />
    <glyph glyph-name="Racute" unicode="&#x154;" horiz-adv-x="681" 
d="M478 923l-94 -146h-97l70 146h121zM653 0h-132l-179 273h-147v-273h-119v710h319c135 0 232 -85 232 -219c0 -109 -64 -185 -161 -209zM195 612v-241h180c82 0 135 42 135 120c0 79 -53 121 -136 121h-179z" />
    <glyph glyph-name="Rcaron" unicode="&#x158;" horiz-adv-x="681" 
d="M406 777h-138l-102 146h94l78 -97l77 97h93zM653 0h-132l-179 273h-147v-273h-119v710h319c135 0 232 -85 232 -219c0 -109 -64 -185 -161 -209zM195 612v-241h180c82 0 135 42 135 120c0 79 -53 121 -136 121h-179z" />
    <glyph glyph-name="Rcommaaccent" unicode="&#x156;" horiz-adv-x="681" 
d="M466 282l187 -282h-132l-179 273h-147v-273h-119v710h319c135 0 232 -85 232 -219c0 -109 -64 -185 -161 -209zM195 612v-241h180c82 0 135 42 135 120c0 79 -53 121 -136 121h-179zM281 -163v97h120v-97l-65 -93h-59l60 93h-56z" />
    <glyph glyph-name="Rcommaaccent.ss02" horiz-adv-x="681" 
d="M466 282l187 -282h-132l-179 273h-147v-273h-119v710h319c135 0 232 -85 232 -219c0 -109 -64 -185 -161 -209zM195 612v-241h180c82 0 135 42 135 120c0 79 -53 121 -136 121h-179zM337 -60c39 0 72 -28 72 -78c0 -71 -49 -119 -126 -119v41c24 2 61 15 71 48
c-5 -1 -11 -2 -17 -2c-40 0 -63 18 -63 53c0 33 28 57 63 57z" />
    <glyph glyph-name="S" unicode="S" horiz-adv-x="638" 
d="M314 726c113 0 189 -32 277 -108l-69 -82c-81 68 -132 87 -210 87c-88 0 -144 -42 -144 -99c0 -65 57 -80 182 -109c174 -41 250 -87 250 -206c0 -133 -107 -225 -272 -225c-122 0 -204 35 -308 127l71 83c99 -85 157 -107 239 -107c88 0 153 41 153 114
c0 75 -74 88 -189 115c-184 43 -243 93 -243 204c0 119 111 206 263 206z" />
    <glyph glyph-name="Sacute" unicode="&#x15a;" horiz-adv-x="638" 
d="M459 923l-94 -146h-97l70 146h121zM314 726c113 0 189 -32 277 -108l-69 -82c-81 68 -132 87 -210 87c-88 0 -144 -42 -144 -99c0 -65 57 -80 182 -109c174 -41 250 -87 250 -206c0 -133 -107 -225 -272 -225c-122 0 -204 35 -308 127l71 83c99 -85 157 -107 239 -107
c88 0 153 41 153 114c0 75 -74 88 -189 115c-184 43 -243 93 -243 204c0 119 111 206 263 206z" />
    <glyph glyph-name="Scaron" unicode="&#x160;" horiz-adv-x="638" 
d="M489 923l-102 -146h-138l-102 146h94l78 -97l77 97h93zM314 726c113 0 189 -32 277 -108l-69 -82c-81 68 -132 87 -210 87c-88 0 -144 -42 -144 -99c0 -65 57 -80 182 -109c174 -41 250 -87 250 -206c0 -133 -107 -225 -272 -225c-122 0 -204 35 -308 127l71 83
c99 -85 157 -107 239 -107c88 0 153 41 153 114c0 75 -74 88 -189 115c-184 43 -243 93 -243 204c0 119 111 206 263 206z" />
    <glyph glyph-name="Scedilla" unicode="&#x15e;" horiz-adv-x="638" 
d="M600 209c0 -129 -100 -219 -255 -225l-24 -50c65 1 106 -33 106 -80c0 -56 -44 -94 -111 -94c-39 0 -75 13 -111 37l30 48c31 -18 53 -27 81 -27c27 0 49 12 49 35c0 21 -26 33 -54 33c-9 0 -20 -1 -28 -3l-31 29l33 73c-99 8 -174 45 -265 126l71 83
c99 -85 157 -107 239 -107c87 0 153 42 153 111c0 78 -74 91 -189 118c-184 43 -243 93 -243 204c0 119 111 206 263 206c113 0 189 -32 277 -108l-69 -82c-81 68 -132 87 -210 87c-88 0 -144 -42 -144 -99c0 -65 57 -80 182 -109c174 -41 250 -87 250 -206z" />
    <glyph glyph-name="Scommaaccent" unicode="&#x218;" horiz-adv-x="638" 
d="M314 726c113 0 189 -32 277 -108l-69 -82c-81 68 -132 87 -210 87c-88 0 -144 -42 -144 -99c0 -65 57 -80 182 -109c174 -41 250 -87 250 -206c0 -133 -107 -225 -272 -225c-122 0 -204 35 -308 127l71 83c99 -85 157 -107 239 -107c88 0 153 41 153 114
c0 75 -74 88 -189 115c-184 43 -243 93 -243 204c0 119 111 206 263 206zM377 -66v-97l-65 -93h-59l60 93h-56v97h120z" />
    <glyph glyph-name="Scommaaccent.ss02" horiz-adv-x="638" 
d="M350 415c174 -41 250 -87 250 -206c0 -133 -107 -225 -272 -225c-122 0 -204 35 -308 127l71 83c99 -85 157 -107 239 -107c88 0 153 41 153 114c0 75 -74 88 -189 115c-184 43 -243 93 -243 204c0 119 111 206 263 206c113 0 189 -32 277 -108l-69 -82
c-81 68 -132 87 -210 87c-88 0 -144 -42 -144 -99c0 -65 57 -80 182 -109zM313 -60c39 0 72 -28 72 -78c0 -71 -49 -119 -126 -119v41c24 2 61 15 71 48c-5 -1 -11 -2 -17 -2c-40 0 -63 18 -63 53c0 33 28 57 63 57z" />
    <glyph glyph-name="T" unicode="T" horiz-adv-x="604" 
d="M577 710v-101h-216v-609h-118v609h-215v101h549z" />
    <glyph glyph-name="Tbar" unicode="&#x166;" horiz-adv-x="608" 
d="M580 609h-217v-196h127v-82h-127v-331h-119v331h-125v82h125v196h-216v101h552v-101z" />
    <glyph glyph-name="Tcaron" unicode="&#x164;" horiz-adv-x="604" 
d="M473 923l-102 -146h-138l-102 146h94l78 -97l77 97h93zM577 710v-101h-216v-609h-118v609h-215v101h549z" />
    <glyph glyph-name="uni0162" unicode="&#x162;" horiz-adv-x="608" 
d="M363 0h-28l-31 -66c65 1 106 -34 106 -80c0 -56 -45 -94 -111 -94c-39 0 -75 13 -111 37l30 48c30 -18 52 -27 80 -27s49 12 49 35c0 21 -25 33 -53 33c-10 0 -21 -1 -29 -3l-31 29l41 88h-31v609h-216v101h552v-101h-217v-609z" />
    <glyph glyph-name="uni021A" unicode="&#x21a;" horiz-adv-x="604" 
d="M577 710v-101h-216v-609h-118v609h-215v101h549zM363 -66v-97l-65 -93h-59l60 93h-56v97h120z" />
    <glyph glyph-name="uni021A.ss02" horiz-adv-x="604" 
d="M28 710h549v-101h-216v-609h-118v609h-215v101zM299 -60c39 0 72 -28 72 -78c0 -71 -49 -119 -126 -119v41c24 2 61 15 71 48c-5 -1 -11 -2 -17 -2c-40 0 -63 18 -63 53c0 33 28 57 63 57z" />
    <glyph glyph-name="U" unicode="U" horiz-adv-x="698" 
d="M626 710v-476c0 -170 -102 -250 -277 -250s-277 80 -277 250v476h118v-471c0 -96 53 -151 159 -151s159 55 159 151v471h118z" />
    <glyph glyph-name="Uacute" unicode="&#xda;" horiz-adv-x="698" 
d="M490 923l-94 -146h-97l70 146h121zM626 710v-476c0 -170 -102 -250 -277 -250s-277 80 -277 250v476h118v-471c0 -96 53 -151 159 -151s159 55 159 151v471h118z" />
    <glyph glyph-name="Ucircumflex" unicode="&#xdb;" horiz-adv-x="698" 
d="M426 777l-77 97l-78 -97h-93l102 146h138l102 -146h-94zM626 710v-476c0 -170 -102 -250 -277 -250s-277 80 -277 250v476h118v-471c0 -96 53 -151 159 -151s159 55 159 151v471h118z" />
    <glyph glyph-name="Udieresis" unicode="&#xdc;" horiz-adv-x="698" 
d="M309 903v-113h-107v113h107zM497 903v-113h-107v113h107zM626 710v-476c0 -170 -102 -250 -277 -250s-277 80 -277 250v476h118v-471c0 -96 53 -151 159 -151s159 55 159 151v471h118z" />
    <glyph glyph-name="Udieresis.ss02" horiz-adv-x="698" 
d="M254 783c-37 0 -66 29 -66 65c0 35 29 64 66 64c36 0 65 -29 65 -64c0 -36 -29 -65 -65 -65zM446 783c-36 0 -65 29 -65 65c0 35 29 64 65 64s65 -29 65 -64c0 -36 -29 -65 -65 -65zM626 710v-476c0 -170 -102 -250 -277 -250s-277 80 -277 250v476h118v-471
c0 -96 53 -151 159 -151s159 55 159 151v471h118z" />
    <glyph glyph-name="Ugrave" unicode="&#xd9;" horiz-adv-x="698" 
d="M208 923h122l70 -146h-97zM626 710v-476c0 -170 -102 -250 -277 -250s-277 80 -277 250v476h118v-471c0 -96 53 -151 159 -151s159 55 159 151v471h118z" />
    <glyph glyph-name="Uhungarumlaut" unicode="&#x170;" horiz-adv-x="698" 
d="M403 923l-96 -147h-80l71 147h105zM566 923l-96 -147h-80l71 147h105zM626 710v-476c0 -170 -102 -250 -277 -250s-277 80 -277 250v476h118v-471c0 -96 53 -151 159 -151s159 55 159 151v471h118z" />
    <glyph glyph-name="Umacron" unicode="&#x16a;" horiz-adv-x="698" 
d="M499 875v-82h-301v82h301zM626 710v-476c0 -170 -102 -250 -277 -250s-277 80 -277 250v476h118v-471c0 -96 53 -151 159 -151s159 55 159 151v471h118z" />
    <glyph glyph-name="Uogonek" unicode="&#x172;" horiz-adv-x="698" 
d="M508 710h118v-475c0 -111 -34 -165 -112 -221c-59 -42 -91 -82 -91 -119c0 -26 19 -40 49 -40c12 0 22 2 29 4v-66c-12 -5 -31 -7 -44 -7c-74 0 -112 37 -112 91c0 36 17 74 50 109c-14 -1 -30 -2 -46 -2c-175 0 -277 80 -277 250v476h118v-471c0 -96 53 -151 159 -151
s159 55 159 151v471z" />
    <glyph glyph-name="Uring" unicode="&#x16e;" horiz-adv-x="698" 
d="M348 942c64 0 115 -50 115 -111c0 -62 -51 -111 -115 -111s-115 49 -115 111c0 61 51 111 115 111zM348 891c-34 0 -60 -25 -60 -60c0 -36 26 -61 60 -61s60 25 60 61c0 35 -26 60 -60 60zM626 710v-476c0 -170 -102 -250 -277 -250s-277 80 -277 250v476h118v-471
c0 -96 53 -151 159 -151s159 55 159 151v471h118z" />
    <glyph glyph-name="V" unicode="V" horiz-adv-x="652" 
d="M516 710h122l-238 -710h-148l-238 710h123l113 -345c28 -85 54 -169 77 -252c24 83 49 165 77 250z" />
    <glyph glyph-name="W" unicode="W" horiz-adv-x="956" 
d="M812 710h116l-171 -710h-139l-78 298c-22 83 -43 169 -61 254c-19 -86 -40 -172 -61 -255l-78 -297h-140l-172 710h120l75 -322c20 -85 37 -169 53 -253c18 84 38 168 61 253l86 322h117l84 -322c23 -86 42 -170 60 -255c16 85 32 169 52 255z" />
    <glyph glyph-name="Wacute" unicode="&#x1e82;" horiz-adv-x="956" 
d="M619 923l-94 -146h-97l70 146h121zM812 710h116l-171 -710h-139l-78 298c-22 83 -43 169 -61 254c-19 -86 -40 -172 -61 -255l-78 -297h-140l-172 710h120l75 -322c20 -85 37 -169 53 -253c18 84 38 168 61 253l86 322h117l84 -322c23 -86 42 -170 60 -255
c16 85 32 169 52 255z" />
    <glyph glyph-name="Wcircumflex" unicode="&#x174;" horiz-adv-x="956" 
d="M478 874l-78 -97h-93l102 146h138l102 -146h-94zM812 710h116l-171 -710h-139l-78 298c-22 83 -43 169 -61 254c-19 -86 -40 -172 -61 -255l-78 -297h-140l-172 710h120l75 -322c20 -85 37 -169 53 -253c18 84 38 168 61 253l86 322h117l84 -322c23 -86 42 -170 60 -255
c16 85 32 169 52 255z" />
    <glyph glyph-name="Wdieresis" unicode="&#x1e84;" horiz-adv-x="956" 
d="M438 903v-113h-107v113h107zM626 903v-113h-107v113h107zM812 710h116l-171 -710h-139l-78 298c-22 83 -43 169 -61 254c-19 -86 -40 -172 -61 -255l-78 -297h-140l-172 710h120l75 -322c20 -85 37 -169 53 -253c18 84 38 168 61 253l86 322h117l84 -322
c23 -86 42 -170 60 -255c16 85 32 169 52 255z" />
    <glyph glyph-name="Wdieresis.ss02" horiz-adv-x="956" 
d="M383 783c-37 0 -66 29 -66 65c0 35 29 64 66 64c36 0 65 -29 65 -64c0 -36 -29 -65 -65 -65zM575 783c-36 0 -65 29 -65 65c0 35 29 64 65 64s65 -29 65 -64c0 -36 -29 -65 -65 -65zM812 710h116l-171 -710h-139l-78 298c-22 83 -43 169 -61 254
c-19 -86 -40 -172 -61 -255l-78 -297h-140l-172 710h120l75 -322c20 -85 37 -169 53 -253c18 84 38 168 61 253l86 322h117l84 -322c23 -86 42 -170 60 -255c16 85 32 169 52 255z" />
    <glyph glyph-name="Wgrave" unicode="&#x1e80;" horiz-adv-x="956" 
d="M529 777h-97l-95 146h122zM812 710h116l-171 -710h-139l-78 298c-22 83 -43 169 -61 254c-19 -86 -40 -172 -61 -255l-78 -297h-140l-172 710h120l75 -322c20 -85 37 -169 53 -253c18 84 38 168 61 253l86 322h117l84 -322c23 -86 42 -170 60 -255c16 85 32 169 52 255z
" />
    <glyph glyph-name="X" unicode="X" horiz-adv-x="677" 
d="M666 0h-133l-195 289l-196 -289h-131l256 375l-231 335h134l169 -252l170 252h132l-231 -335z" />
    <glyph glyph-name="Y" unicode="Y" horiz-adv-x="642" 
d="M504 710h127l-251 -410v-300h-119v301l-250 409h131l181 -305z" />
    <glyph glyph-name="Yacute" unicode="&#xdd;" horiz-adv-x="642" 
d="M462 923l-94 -146h-97l70 146h121zM504 710h127l-251 -410v-300h-119v301l-250 409h131l181 -305z" />
    <glyph glyph-name="Ycircumflex" unicode="&#x176;" horiz-adv-x="642" 
d="M321 874l-78 -97h-93l102 146h138l102 -146h-94zM504 710h127l-251 -410v-300h-119v301l-250 409h131l181 -305z" />
    <glyph glyph-name="Ydieresis" unicode="&#x178;" horiz-adv-x="642" 
d="M281 903v-113h-107v113h107zM469 903v-113h-107v113h107zM504 710h127l-251 -410v-300h-119v301l-250 409h131l181 -305z" />
    <glyph glyph-name="Ydieresis.ss02" horiz-adv-x="642" 
d="M226 783c-37 0 -66 29 -66 65c0 35 29 64 66 64c36 0 65 -29 65 -64c0 -36 -29 -65 -65 -65zM418 783c-36 0 -65 29 -65 65c0 35 29 64 65 64s65 -29 65 -64c0 -36 -29 -65 -65 -65zM504 710h127l-251 -410v-300h-119v301l-250 409h131l181 -305z" />
    <glyph glyph-name="Ygrave" unicode="&#x1ef2;" horiz-adv-x="642" 
d="M372 777h-97l-95 146h122zM504 710h127l-251 -410v-300h-119v301l-250 409h131l181 -305z" />
    <glyph glyph-name="Z" unicode="Z" horiz-adv-x="633" 
d="M590 710v-96l-406 -514h405v-100h-546v96l405 514h-389v100h531z" />
    <glyph glyph-name="Zacute" unicode="&#x179;" horiz-adv-x="633" 
d="M469 923l-94 -146h-97l70 146h121zM590 710v-96l-406 -514h405v-100h-546v96l405 514h-389v100h531z" />
    <glyph glyph-name="Zcaron" unicode="&#x17d;" horiz-adv-x="633" 
d="M397 777h-138l-102 146h94l78 -97l77 97h93zM590 710v-96l-406 -514h405v-100h-546v96l405 514h-389v100h531z" />
    <glyph glyph-name="Zdotaccent" unicode="&#x17b;" horiz-adv-x="633" 
d="M383 903v-113h-110v113h110zM590 710v-96l-406 -514h405v-100h-546v96l405 514h-389v100h531z" />
    <glyph glyph-name="Zdotaccent.ss02" horiz-adv-x="633" 
d="M329 779c-38 0 -68 30 -68 67s30 67 68 67s68 -30 68 -67s-30 -67 -68 -67zM590 710v-96l-406 -514h405v-100h-546v96l405 514h-389v100h531z" />
    <glyph glyph-name="a" unicode="a" horiz-adv-x="547" 
d="M274 518c140 0 212 -72 212 -175v-343h-99v57c-32 -46 -89 -73 -166 -73c-96 0 -180 40 -180 142c0 116 106 154 225 176l115 21v18c0 55 -41 86 -104 86c-67 0 -106 -28 -161 -83l-69 64c62 74 133 110 227 110zM237 72c75 0 144 40 144 125v46l-87 -18
c-86 -18 -145 -36 -145 -93c0 -38 33 -60 88 -60z" />
    <glyph glyph-name="aacute" unicode="&#xe1;" horiz-adv-x="547" 
d="M418 722l-94 -146h-97l70 146h121zM274 518c140 0 212 -72 212 -175v-343h-99v57c-32 -46 -89 -73 -166 -73c-96 0 -180 40 -180 142c0 116 106 154 225 176l115 21v18c0 55 -41 86 -104 86c-67 0 -106 -28 -161 -83l-69 64c62 74 133 110 227 110zM237 72
c75 0 144 40 144 125v46l-87 -18c-86 -18 -145 -36 -145 -93c0 -38 33 -60 88 -60z" />
    <glyph glyph-name="abreve" unicode="&#x103;" horiz-adv-x="547" 
d="M277 571c-88 0 -155 49 -155 140h83c0 -44 23 -76 72 -76c48 0 71 32 71 76h83c0 -91 -67 -140 -154 -140zM274 518c140 0 212 -72 212 -175v-343h-99v57c-32 -46 -89 -73 -166 -73c-96 0 -180 40 -180 142c0 116 106 154 225 176l115 21v18c0 55 -41 86 -104 86
c-67 0 -106 -28 -161 -83l-69 64c62 74 133 110 227 110zM237 72c75 0 144 40 144 125v46l-87 -18c-86 -18 -145 -36 -145 -93c0 -38 33 -60 88 -60z" />
    <glyph glyph-name="acircumflex" unicode="&#xe2;" horiz-adv-x="547" 
d="M277 673l-78 -97h-93l102 146h138l102 -146h-94zM274 518c140 0 212 -72 212 -175v-343h-99v57c-32 -46 -89 -73 -166 -73c-96 0 -180 40 -180 142c0 116 106 154 225 176l115 21v18c0 55 -41 86 -104 86c-67 0 -106 -28 -161 -83l-69 64c62 74 133 110 227 110zM237 72
c75 0 144 40 144 125v46l-87 -18c-86 -18 -145 -36 -145 -93c0 -38 33 -60 88 -60z" />
    <glyph glyph-name="adieresis" unicode="&#xe4;" horiz-adv-x="547" 
d="M237 702v-113h-107v113h107zM425 702v-113h-107v113h107zM274 518c140 0 212 -72 212 -175v-343h-99v57c-32 -46 -89 -73 -166 -73c-96 0 -180 40 -180 142c0 116 106 154 225 176l115 21v18c0 55 -41 86 -104 86c-67 0 -106 -28 -161 -83l-69 64c62 74 133 110 227 110z
M237 72c75 0 144 40 144 125v46l-87 -18c-86 -18 -145 -36 -145 -93c0 -38 33 -60 88 -60z" />
    <glyph glyph-name="adieresis.ss02" horiz-adv-x="547" 
d="M182 582c-37 0 -66 29 -66 65c0 35 29 64 66 64c36 0 65 -29 65 -64c0 -36 -29 -65 -65 -65zM374 582c-36 0 -65 29 -65 65c0 35 29 64 65 64s65 -29 65 -64c0 -36 -29 -65 -65 -65zM274 518c140 0 212 -72 212 -175v-343h-99v57c-32 -46 -89 -73 -166 -73
c-96 0 -180 40 -180 142c0 116 106 154 225 176l115 21v18c0 55 -41 86 -104 86c-67 0 -106 -28 -161 -83l-69 64c62 74 133 110 227 110zM237 72c75 0 144 40 144 125v46l-87 -18c-86 -18 -145 -36 -145 -93c0 -38 33 -60 88 -60z" />
    <glyph glyph-name="agrave" unicode="&#xe0;" horiz-adv-x="547" 
d="M328 576h-97l-95 146h122zM274 518c140 0 212 -72 212 -175v-343h-99v57c-32 -46 -89 -73 -166 -73c-96 0 -180 40 -180 142c0 116 106 154 225 176l115 21v18c0 55 -41 86 -104 86c-67 0 -106 -28 -161 -83l-69 64c62 74 133 110 227 110zM237 72c75 0 144 40 144 125
v46l-87 -18c-86 -18 -145 -36 -145 -93c0 -38 33 -60 88 -60z" />
    <glyph glyph-name="amacron" unicode="&#x101;" horiz-adv-x="547" 
d="M428 674v-82h-301v82h301zM274 518c140 0 212 -72 212 -175v-343h-99v57c-32 -46 -89 -73 -166 -73c-96 0 -180 40 -180 142c0 116 106 154 225 176l115 21v18c0 55 -41 86 -104 86c-67 0 -106 -28 -161 -83l-69 64c62 74 133 110 227 110zM237 72c75 0 144 40 144 125
v46l-87 -18c-86 -18 -145 -36 -145 -93c0 -38 33 -60 88 -60z" />
    <glyph glyph-name="aogonek" unicode="&#x105;" horiz-adv-x="547" 
d="M486 0c-65 -42 -83 -76 -83 -106c0 -25 19 -39 50 -39c12 0 21 2 28 4v-66c-12 -5 -31 -7 -44 -7c-73 0 -111 35 -111 89c0 39 17 81 71 125h-10v57c-32 -46 -89 -73 -166 -73c-96 0 -180 40 -180 142c0 116 106 154 225 176l115 21v18c0 55 -41 86 -104 86
c-67 0 -106 -28 -161 -83l-69 64c62 74 133 110 227 110c140 0 212 -72 212 -175v-343zM237 72c75 0 144 40 144 125v46l-87 -18c-86 -18 -145 -36 -145 -93c0 -38 33 -60 88 -60z" />
    <glyph glyph-name="aring" unicode="&#xe5;" horiz-adv-x="547" 
d="M278 566c-64 0 -116 50 -116 111s52 111 116 111c63 0 115 -50 115 -111s-52 -111 -115 -111zM278 738c-34 0 -60 -25 -60 -61s26 -61 60 -61s59 25 59 61s-25 61 -59 61zM274 518c140 0 212 -72 212 -175v-343h-99v57c-32 -46 -89 -73 -166 -73c-96 0 -180 40 -180 142
c0 116 106 154 225 176l115 21v18c0 55 -41 86 -104 86c-67 0 -106 -28 -161 -83l-69 64c62 74 133 110 227 110zM237 72c75 0 144 40 144 125v46l-87 -18c-86 -18 -145 -36 -145 -93c0 -38 33 -60 88 -60z" />
    <glyph glyph-name="atilde" unicode="&#xe3;" horiz-adv-x="547" 
d="M212 636c-23 0 -34 -24 -34 -51h-66c0 79 44 121 97 121c62 0 96 -51 137 -51c24 0 32 23 32 51h65c0 -79 -38 -121 -91 -121c-54 0 -99 51 -140 51zM274 518c140 0 212 -72 212 -175v-343h-99v57c-32 -46 -89 -73 -166 -73c-96 0 -180 40 -180 142
c0 116 106 154 225 176l115 21v18c0 55 -41 86 -104 86c-67 0 -106 -28 -161 -83l-69 64c62 74 133 110 227 110zM237 72c75 0 144 40 144 125v46l-87 -18c-86 -18 -145 -36 -145 -93c0 -38 33 -60 88 -60z" />
    <glyph glyph-name="ae" unicode="&#xe6;" horiz-adv-x="897" 
d="M639 78c63 0 97 21 157 75l63 -67c-74 -77 -140 -101 -222 -101c-86 0 -155 31 -199 86c-54 -56 -125 -87 -211 -87c-107 0 -186 41 -186 140c0 95 63 143 200 169l140 26v15c0 63 -34 93 -105 93c-53 0 -96 -20 -156 -81l-71 65c67 71 132 107 231 107
c84 0 141 -27 173 -71c42 45 102 71 175 71c149 0 232 -95 232 -247c0 -13 -1 -33 -2 -44h-367c7 -81 51 -149 148 -149zM627 433c-75 0 -120 -50 -134 -129h260c-4 77 -48 129 -126 129zM241 72c63 0 118 27 156 74c-8 25 -14 53 -15 94l-120 -26
c-77 -17 -112 -40 -112 -81s35 -61 91 -61z" />
    <glyph glyph-name="b" unicode="b" horiz-adv-x="587" 
d="M330 516c128 0 222 -104 222 -265s-95 -264 -223 -264c-77 0 -131 30 -165 83v-70h-102v710h110v-268c34 47 86 74 158 74zM307 82c79 0 133 66 133 169s-51 171 -133 171c-81 0 -140 -64 -140 -171c0 -108 61 -169 140 -169z" />
    <glyph glyph-name="c" unicode="c" horiz-adv-x="515" 
d="M422 355c-56 57 -93 70 -137 70c-93 0 -140 -82 -140 -174s47 -172 140 -172c52 0 88 20 143 80l72 -61c-69 -87 -131 -113 -216 -113c-150 0 -251 103 -251 266c0 164 104 267 253 267c81 0 142 -24 206 -95z" />
    <glyph glyph-name="cacute" unicode="&#x107;" horiz-adv-x="515" 
d="M422 722l-94 -146h-97l70 146h121zM422 355c-56 57 -93 70 -137 70c-93 0 -140 -82 -140 -174s47 -172 140 -172c52 0 88 20 143 80l72 -61c-69 -87 -131 -113 -216 -113c-150 0 -251 103 -251 266c0 164 104 267 253 267c81 0 142 -24 206 -95z" />
    <glyph glyph-name="ccaron" unicode="&#x10d;" horiz-adv-x="515" 
d="M452 722l-102 -146h-138l-102 146h94l78 -97l77 97h93zM422 355c-56 57 -93 70 -137 70c-93 0 -140 -82 -140 -174s47 -172 140 -172c52 0 88 20 143 80l72 -61c-69 -87 -131 -113 -216 -113c-150 0 -251 103 -251 266c0 164 104 267 253 267c81 0 142 -24 206 -95z" />
    <glyph glyph-name="ccedilla" unicode="&#xe7;" horiz-adv-x="515" 
d="M500 98c-63 -79 -121 -108 -195 -112l-24 -52c65 1 106 -33 106 -80c0 -56 -44 -94 -111 -94c-39 0 -75 14 -111 38l30 47c31 -18 53 -27 81 -27c27 0 48 12 48 35c0 21 -25 33 -53 33c-10 0 -20 -1 -28 -3l-32 29l35 75c-129 16 -213 115 -213 264
c0 164 104 267 253 267c81 0 142 -24 206 -95l-70 -68c-56 57 -93 70 -137 70c-93 0 -140 -82 -140 -174s47 -172 140 -172c52 0 88 20 143 80z" />
    <glyph glyph-name="cdotaccent" unicode="&#x10b;" horiz-adv-x="515" 
d="M336 702v-113h-110v113h110zM422 355c-56 57 -93 70 -137 70c-93 0 -140 -82 -140 -174s47 -172 140 -172c52 0 88 20 143 80l72 -61c-69 -87 -131 -113 -216 -113c-150 0 -251 103 -251 266c0 164 104 267 253 267c81 0 142 -24 206 -95z" />
    <glyph glyph-name="cdotaccent.ss02" horiz-adv-x="515" 
d="M281 578c-38 0 -68 30 -68 67s30 67 68 67s68 -30 68 -67s-30 -67 -68 -67zM422 355c-56 57 -93 70 -137 70c-93 0 -140 -82 -140 -174s47 -172 140 -172c52 0 88 20 143 80l72 -61c-69 -87 -131 -113 -216 -113c-150 0 -251 103 -251 266c0 164 104 267 253 267
c81 0 142 -24 206 -95z" />
    <glyph glyph-name="d" unicode="d" horiz-adv-x="587" 
d="M415 710h110v-710h-102v71c-34 -53 -89 -85 -166 -85c-128 0 -222 104 -222 265s96 265 223 265c72 0 123 -26 157 -72v266zM279 80c82 0 140 64 140 171c0 108 -60 170 -139 170s-133 -67 -133 -170s51 -171 132 -171z" />
    <glyph glyph-name="eth" unicode="&#xf0;" horiz-adv-x="577" 
d="M389 620c92 -74 140 -178 140 -327c0 -195 -97 -310 -253 -310s-243 121 -243 251c0 128 83 241 221 241c70 0 129 -30 164 -80c-15 68 -49 121 -120 167l-93 -59l-36 49l68 44c-17 8 -36 16 -57 24l-47 18l40 87l47 -16c43 -15 81 -32 115 -52l82 52l35 -49zM276 80
c81 0 135 67 135 151s-58 151 -138 151c-81 0 -129 -67 -129 -151s50 -151 132 -151z" />
    <glyph glyph-name="dcaron" unicode="&#x10f;" horiz-adv-x="744" 
d="M413 443v267h110v-710h-102v73c-34 -55 -88 -87 -166 -87c-128 0 -222 104 -222 265s96 265 223 265c72 0 123 -26 157 -73zM627 710h109l-69 -207h-68zM277 80c82 0 140 64 140 171c0 108 -60 170 -139 170s-133 -67 -133 -170s51 -171 132 -171z" />
    <glyph glyph-name="dcroat" unicode="&#x111;" horiz-adv-x="611" 
d="M598 636v-76h-73v-560h-102v72c-34 -54 -88 -86 -166 -86c-128 0 -222 104 -222 261c0 158 96 262 223 262c72 0 123 -26 157 -71v122h-126v76h126v74h110v-74h73zM279 80c82 0 140 64 140 167c0 105 -60 167 -139 167s-133 -67 -133 -167c0 -99 51 -167 132 -167z" />
    <glyph glyph-name="e" unicode="e" horiz-adv-x="548" 
d="M449 153l63 -67c-74 -76 -140 -101 -222 -101c-158 0 -257 104 -257 263c0 157 94 270 247 270c149 0 231 -95 231 -247c0 -13 -1 -35 -2 -45h-368c8 -82 54 -148 151 -148c62 0 96 21 157 75zM277 431c-74 0 -119 -48 -133 -125h259c-4 76 -48 125 -126 125z" />
    <glyph glyph-name="eacute" unicode="&#xe9;" horiz-adv-x="548" 
d="M425 722l-94 -146h-97l70 146h121zM449 153l63 -67c-74 -76 -140 -101 -222 -101c-158 0 -257 104 -257 263c0 157 94 270 247 270c149 0 231 -95 231 -247c0 -13 -1 -35 -2 -45h-368c8 -82 54 -148 151 -148c62 0 96 21 157 75zM277 431c-74 0 -119 -48 -133 -125h259
c-4 76 -48 125 -126 125z" />
    <glyph glyph-name="ecaron" unicode="&#x11b;" horiz-adv-x="548" 
d="M353 576h-138l-102 146h94l78 -97l77 97h93zM449 153l63 -67c-74 -76 -140 -101 -222 -101c-158 0 -257 104 -257 263c0 157 94 270 247 270c149 0 231 -95 231 -247c0 -13 -1 -35 -2 -45h-368c8 -82 54 -148 151 -148c62 0 96 21 157 75zM277 431
c-74 0 -119 -48 -133 -125h259c-4 76 -48 125 -126 125z" />
    <glyph glyph-name="ecircumflex" unicode="&#xea;" horiz-adv-x="548" 
d="M284 673l-78 -97h-93l102 146h138l102 -146h-94zM449 153l63 -67c-74 -76 -140 -101 -222 -101c-158 0 -257 104 -257 263c0 157 94 270 247 270c149 0 231 -95 231 -247c0 -13 -1 -35 -2 -45h-368c8 -82 54 -148 151 -148c62 0 96 21 157 75zM277 431
c-74 0 -119 -48 -133 -125h259c-4 76 -48 125 -126 125z" />
    <glyph glyph-name="edieresis" unicode="&#xeb;" horiz-adv-x="548" 
d="M244 702v-113h-107v113h107zM432 702v-113h-107v113h107zM449 153l63 -67c-74 -76 -140 -101 -222 -101c-158 0 -257 104 -257 263c0 157 94 270 247 270c149 0 231 -95 231 -247c0 -13 -1 -35 -2 -45h-368c8 -82 54 -148 151 -148c62 0 96 21 157 75zM277 431
c-74 0 -119 -48 -133 -125h259c-4 76 -48 125 -126 125z" />
    <glyph glyph-name="edieresis.ss02" horiz-adv-x="548" 
d="M189 582c-37 0 -66 29 -66 65c0 35 29 64 66 64c36 0 65 -29 65 -64c0 -36 -29 -65 -65 -65zM381 582c-36 0 -65 29 -65 65c0 35 29 64 65 64s65 -29 65 -64c0 -36 -29 -65 -65 -65zM449 153l63 -67c-74 -76 -140 -101 -222 -101c-158 0 -257 104 -257 263
c0 157 94 270 247 270c149 0 231 -95 231 -247c0 -13 -1 -35 -2 -45h-368c8 -82 54 -148 151 -148c62 0 96 21 157 75zM277 431c-74 0 -119 -48 -133 -125h259c-4 76 -48 125 -126 125z" />
    <glyph glyph-name="edotaccent" unicode="&#x117;" horiz-adv-x="548" 
d="M339 702v-113h-110v113h110zM449 153l63 -67c-74 -76 -140 -101 -222 -101c-158 0 -257 104 -257 263c0 157 94 270 247 270c149 0 231 -95 231 -247c0 -13 -1 -35 -2 -45h-368c8 -82 54 -148 151 -148c62 0 96 21 157 75zM277 431c-74 0 -119 -48 -133 -125h259
c-4 76 -48 125 -126 125z" />
    <glyph glyph-name="edotaccent.ss02" horiz-adv-x="548" 
d="M284 578c-38 0 -68 30 -68 67s30 67 68 67s68 -30 68 -67s-30 -67 -68 -67zM449 153l63 -67c-74 -76 -140 -101 -222 -101c-158 0 -257 104 -257 263c0 157 94 270 247 270c149 0 231 -95 231 -247c0 -13 -1 -35 -2 -45h-368c8 -82 54 -148 151 -148c62 0 96 21 157 75z
M277 431c-74 0 -119 -48 -133 -125h259c-4 76 -48 125 -126 125z" />
    <glyph glyph-name="egrave" unicode="&#xe8;" horiz-adv-x="548" 
d="M335 576h-97l-95 146h122zM449 153l63 -67c-74 -76 -140 -101 -222 -101c-158 0 -257 104 -257 263c0 157 94 270 247 270c149 0 231 -95 231 -247c0 -13 -1 -35 -2 -45h-368c8 -82 54 -148 151 -148c62 0 96 21 157 75zM277 431c-74 0 -119 -48 -133 -125h259
c-4 76 -48 125 -126 125z" />
    <glyph glyph-name="emacron" unicode="&#x113;" horiz-adv-x="548" 
d="M435 674v-82h-301v82h301zM449 153l63 -67c-74 -76 -140 -101 -222 -101c-158 0 -257 104 -257 263c0 157 94 270 247 270c149 0 231 -95 231 -247c0 -13 -1 -35 -2 -45h-368c8 -82 54 -148 151 -148c62 0 96 21 157 75zM277 431c-74 0 -119 -48 -133 -125h259
c-4 76 -48 125 -126 125z" />
    <glyph glyph-name="eogonek" unicode="&#x119;" horiz-adv-x="548" 
d="M410 -214c-73 0 -114 36 -114 92c0 30 10 71 47 112c-17 -3 -35 -5 -53 -5c-158 0 -257 104 -257 263c0 157 94 270 247 270c149 0 231 -95 231 -247c0 -13 -1 -35 -2 -45h-368c9 -81 54 -148 151 -148c62 0 96 21 157 75l63 -67c-16 -16 -31 -30 -47 -44
c-76 -68 -91 -109 -91 -144c0 -27 19 -43 51 -43c11 0 21 2 28 4v-67c-10 -4 -28 -6 -43 -6zM144 306h259c-4 76 -48 125 -126 125c-73 0 -119 -47 -133 -125z" />
    <glyph glyph-name="f" unicode="f" horiz-adv-x="354" 
d="M285 636c-47 0 -68 -21 -68 -77v-57h118v-83h-118v-419h-110v419h-89v83h89v66c0 105 56 159 158 159c31 0 62 -3 104 -18l-20 -82c-29 7 -47 9 -64 9z" />
    <glyph glyph-name="g" unicode="g" horiz-adv-x="579" 
d="M415 502h102v-483c0 -138 -99 -213 -238 -213c-81 0 -157 22 -234 73l54 80c68 -41 116 -62 179 -62c73 0 131 36 131 131v53c-32 -45 -81 -72 -153 -72c-128 0 -220 104 -220 255c0 149 92 254 220 254c76 0 127 -30 159 -80v64zM279 102c79 0 133 66 133 162
c0 95 -54 160 -133 160c-82 0 -132 -65 -132 -160c0 -96 50 -162 132 -162z" />
    <glyph glyph-name="gbreve" unicode="&#x11f;" horiz-adv-x="579" 
d="M291 571c-88 0 -155 49 -155 140h83c0 -44 23 -76 72 -76c48 0 71 32 71 76h83c0 -91 -67 -140 -154 -140zM415 502h102v-483c0 -138 -99 -213 -238 -213c-81 0 -157 22 -234 73l54 80c68 -41 116 -62 179 -62c73 0 131 36 131 131v53c-32 -45 -81 -72 -153 -72
c-128 0 -220 104 -220 255c0 149 92 254 220 254c76 0 127 -30 159 -80v64zM279 102c79 0 133 66 133 162c0 95 -54 160 -133 160c-82 0 -132 -65 -132 -160c0 -96 50 -162 132 -162z" />
    <glyph glyph-name="gcommaaccent" unicode="&#x123;" horiz-adv-x="579" 
d="M351 686v-99h-120v99l65 101h59l-59 -101h55zM415 502h102v-483c0 -138 -99 -213 -238 -213c-81 0 -157 22 -234 73l54 80c68 -41 116 -62 179 -62c73 0 131 36 131 131v53c-32 -45 -81 -72 -153 -72c-128 0 -220 104 -220 255c0 149 92 254 220 254
c76 0 127 -30 159 -80v64zM279 102c79 0 133 66 133 162c0 95 -54 160 -133 160c-82 0 -132 -65 -132 -160c0 -96 50 -162 132 -162z" />
    <glyph glyph-name="gcommaaccent.ss02" horiz-adv-x="579" 
d="M295 578c-38 0 -72 28 -72 78c0 71 49 119 127 119v-41c-25 -2 -62 -14 -72 -47c5 1 11 2 17 2c40 0 63 -19 63 -54c0 -33 -28 -57 -63 -57zM415 502h102v-483c0 -138 -99 -213 -238 -213c-81 0 -157 22 -234 73l54 80c68 -41 116 -62 179 -62c73 0 131 36 131 131v53
c-32 -45 -81 -72 -153 -72c-128 0 -220 104 -220 255c0 149 92 254 220 254c76 0 127 -30 159 -80v64zM279 102c79 0 133 66 133 162c0 95 -54 160 -133 160c-82 0 -132 -65 -132 -160c0 -96 50 -162 132 -162z" />
    <glyph glyph-name="gdotaccent" unicode="&#x121;" horiz-adv-x="579" 
d="M345 702v-113h-110v113h110zM415 502h102v-483c0 -138 -99 -213 -238 -213c-81 0 -157 22 -234 73l54 80c68 -41 116 -62 179 -62c73 0 131 36 131 131v53c-32 -45 -81 -72 -153 -72c-128 0 -220 104 -220 255c0 149 92 254 220 254c76 0 127 -30 159 -80v64zM279 102
c79 0 133 66 133 162c0 95 -54 160 -133 160c-82 0 -132 -65 -132 -160c0 -96 50 -162 132 -162z" />
    <glyph glyph-name="gdotaccent.ss02" horiz-adv-x="579" 
d="M291 578c-38 0 -68 30 -68 67s30 67 68 67s68 -30 68 -67s-30 -67 -68 -67zM415 502h102v-483c0 -138 -99 -213 -238 -213c-81 0 -157 22 -234 73l54 80c68 -41 116 -62 179 -62c73 0 131 36 131 131v53c-32 -45 -81 -72 -153 -72c-128 0 -220 104 -220 255
c0 149 92 254 220 254c76 0 127 -30 159 -80v64zM279 102c79 0 133 66 133 162c0 95 -54 160 -133 160c-82 0 -132 -65 -132 -160c0 -96 50 -162 132 -162z" />
    <glyph glyph-name="h" unicode="h" horiz-adv-x="560" 
d="M319 518c119 0 180 -75 180 -174v-344h-110v310c0 74 -37 114 -104 114c-65 0 -113 -49 -113 -117v-307h-110v710h110v-258c32 42 83 66 147 66z" />
    <glyph glyph-name="hbar" unicode="&#x127;" horiz-adv-x="584" 
d="M344 511c120 0 179 -75 179 -174v-337h-110v303c0 74 -36 113 -103 113c-64 0 -114 -48 -114 -116v-300h-110v560h-73v76h73v74h110v-74h126v-76h-126v-121c32 46 83 72 148 72z" />
    <glyph glyph-name="i" unicode="i" horiz-adv-x="233" 
d="M172 702v-113h-110v113h110zM172 502v-502h-110v502h110z" />
    <glyph glyph-name="i.ss02" horiz-adv-x="233" 
d="M117 578c-38 0 -68 30 -68 67s30 67 68 67s68 -30 68 -67s-30 -67 -68 -67zM172 502v-502h-110v502h110z" />
    <glyph glyph-name="dotlessi" unicode="&#x131;" horiz-adv-x="233" 
d="M172 502v-502h-110v502h110z" />
    <glyph glyph-name="iacute" unicode="&#xed;" horiz-adv-x="233" 
d="M257 722l-94 -146h-97l70 146h121zM172 502v-502h-110v502h110z" />
    <glyph glyph-name="icircumflex" unicode="&#xee;" horiz-adv-x="233" 
d="M194 576l-77 97l-78 -97h-93l102 146h138l102 -146h-94zM172 502v-502h-110v502h110z" />
    <glyph glyph-name="idieresis" unicode="&#xef;" horiz-adv-x="233" 
d="M76 702v-113h-107v113h107zM264 702v-113h-107v113h107zM172 502v-502h-110v502h110z" />
    <glyph glyph-name="idieresis.ss02" horiz-adv-x="233" 
d="M21 582c-37 0 -66 29 -66 65c0 35 29 64 66 64c36 0 65 -29 65 -64c0 -36 -29 -65 -65 -65zM213 582c-36 0 -65 29 -65 65c0 35 29 64 65 64s65 -29 65 -64c0 -36 -29 -65 -65 -65zM172 502v-502h-110v502h110z" />
    <glyph glyph-name="i.loclTRK" horiz-adv-x="233" 
d="M172 702v-113h-110v113h110zM172 502v-502h-110v502h110z" />
    <glyph glyph-name="i.loclTRK.ss02" horiz-adv-x="233" 
d="M117 578c-38 0 -68 30 -68 67s30 67 68 67s68 -30 68 -67s-30 -67 -68 -67zM172 502v-502h-110v502h110z" />
    <glyph glyph-name="igrave" unicode="&#xec;" horiz-adv-x="233" 
d="M-25 722h122l70 -146h-97zM172 502v-502h-110v502h110z" />
    <glyph glyph-name="ij" unicode="&#x133;" horiz-adv-x="470" 
d="M172 702v-113h-110v113h110zM408 702v-113h-110v113h110zM172 502v-502h-110v502h110zM178 -94c25 -5 44 -8 62 -8c43 0 58 23 58 73v531h110v-530c0 -111 -50 -163 -150 -163c-37 0 -70 5 -100 15z" />
    <glyph glyph-name="ij.ss02" horiz-adv-x="470" 
d="M117 578c-38 0 -68 30 -68 67s30 67 68 67s68 -30 68 -67s-30 -67 -68 -67zM354 578c-38 0 -68 30 -68 67s30 67 68 67s68 -30 68 -67s-30 -67 -68 -67zM172 502v-502h-110v502h110zM178 -94c25 -5 44 -8 62 -8c43 0 58 23 58 73v531h110v-530c0 -111 -50 -163 -150 -163
c-37 0 -70 5 -100 15z" />
    <glyph glyph-name="imacron" unicode="&#x12b;" horiz-adv-x="233" 
d="M267 674v-82h-301v82h301zM172 502v-502h-110v502h110z" />
    <glyph glyph-name="iogonek" unicode="&#x12f;" horiz-adv-x="233" 
d="M62 702h110v-113h-110v113zM62 0v502h110v-502c-66 -42 -84 -76 -84 -106c0 -25 19 -39 50 -39c13 0 21 2 28 4v-66c-12 -5 -31 -7 -44 -7c-73 0 -111 35 -111 89c0 39 17 81 72 125h-21z" />
    <glyph glyph-name="iogonek.ss02" horiz-adv-x="233" 
d="M116 576c-38 0 -67 30 -67 68c0 37 29 66 67 66c39 0 68 -29 68 -66c0 -38 -29 -68 -68 -68zM62 0v502h110v-502c-66 -42 -84 -76 -84 -106c0 -25 19 -39 50 -39c13 0 21 2 28 4v-66c-12 -5 -31 -7 -44 -7c-73 0 -111 35 -111 89c0 39 17 81 72 125h-21z" />
    <glyph glyph-name="j" unicode="j" horiz-adv-x="237" 
d="M175 702v-113h-110v113h110zM-55 -94c25 -5 44 -8 62 -8c43 0 58 23 58 73v531h110v-530c0 -111 -50 -163 -150 -163c-37 0 -70 5 -100 15z" />
    <glyph glyph-name="j.calt" horiz-adv-x="235" 
d="M64 589v113h110v-113h-110zM40 -191c-29 0 -48 2 -64 5l12 85c8 -1 21 -2 30 -2c34 0 46 16 46 57v548h110v-555c0 -94 -39 -138 -134 -138z" />
    <glyph glyph-name="j.calt.ss02" horiz-adv-x="237" 
d="M120 578c-38 0 -68 30 -68 67s30 67 68 67s68 -30 68 -67s-30 -67 -68 -67zM40 -191c-29 0 -49 2 -64 5l12 85c8 -1 21 -2 30 -2c34 0 46 16 46 57v548h110v-555c0 -94 -39 -138 -134 -138z" />
    <glyph glyph-name="j.ss02" horiz-adv-x="237" 
d="M121 578c-38 0 -68 30 -68 67s30 67 68 67s68 -30 68 -67s-30 -67 -68 -67zM-55 -94c25 -5 44 -8 62 -8c43 0 58 23 58 73v531h110v-530c0 -111 -50 -163 -150 -163c-37 0 -70 5 -100 15z" />
    <glyph glyph-name="uni0237" unicode="&#x237;" horiz-adv-x="237" 
d="M-55 -94c25 -5 44 -8 62 -8c43 0 58 23 58 73v531h110v-530c0 -111 -50 -163 -150 -163c-37 0 -70 5 -100 15z" />
    <glyph glyph-name="k" unicode="k" horiz-adv-x="531" 
d="M406 0l-155 241l-79 -81v-160h-110v710h110v-428l209 220h128l-182 -190l201 -312h-122z" />
    <glyph glyph-name="k.ss01" horiz-adv-x="530" 
d="M406 0l-142 221l-90 -84v-137h-112v710h112v-449l268 253l64 -68l-166 -155l187 -291h-121z" />
    <glyph glyph-name="kcommaaccent" unicode="&#x137;" horiz-adv-x="531" 
d="M327 312l201 -312h-122l-155 241l-79 -81v-160h-110v710h110v-428l209 220h128zM223 -163v97h120v-97l-65 -93h-59l60 93h-56z" />
    <glyph glyph-name="kcommaaccent.ss01" horiz-adv-x="530" 
d="M340 291l187 -291h-121l-142 221l-90 -84v-137h-112v710h112v-449l268 253l64 -68zM225 -163v97h120v-97l-65 -93h-59l60 93h-56z" />
    <glyph glyph-name="kcommaaccent.ss01.ss02" horiz-adv-x="530" 
d="M340 291l187 -291h-121l-142 221l-90 -84v-137h-112v710h112v-449l268 253l64 -68zM281 -60c39 0 72 -28 72 -78c0 -71 -49 -119 -126 -119v41c24 2 61 15 71 48c-5 -1 -11 -2 -17 -2c-40 0 -63 18 -63 53c0 33 28 57 63 57z" />
    <glyph glyph-name="kcommaaccent.ss02" horiz-adv-x="531" 
d="M327 312l201 -312h-122l-155 241l-79 -81v-160h-110v710h110v-428l209 220h128zM279 -60c39 0 72 -28 72 -78c0 -71 -49 -119 -126 -119v41c24 2 61 15 71 48c-5 -1 -11 -2 -17 -2c-40 0 -63 18 -63 53c0 33 28 57 63 57z" />
    <glyph glyph-name="l" unicode="l" horiz-adv-x="238" 
d="M174 710v-710h-110v710h110z" />
    <glyph glyph-name="lacute" unicode="&#x13a;" horiz-adv-x="238" 
d="M258 913l-94 -146h-97l70 146h121zM174 710v-710h-110v710h110z" />
    <glyph glyph-name="lcaron" unicode="&#x13e;" horiz-adv-x="399" 
d="M174 710v-710h-110v710h110zM392 710l-69 -207h-68l28 207h109z" />
    <glyph glyph-name="lcommaaccent" unicode="&#x13c;" horiz-adv-x="238" 
d="M174 710v-710h-110v710h110zM179 -66v-97l-65 -93h-59l60 93h-56v97h120z" />
    <glyph glyph-name="lcommaaccent.ss02" horiz-adv-x="238" 
d="M174 710v-710h-110v710h110zM115 -60c39 0 72 -28 72 -78c0 -71 -49 -119 -126 -119v41c24 2 61 15 71 48c-5 -1 -11 -2 -17 -2c-40 0 -63 18 -63 53c0 33 28 57 63 57z" />
    <glyph glyph-name="ldot" unicode="&#x140;" horiz-adv-x="437" 
d="M174 710v-710h-110v710h110zM395 387v-128h-124v128h124z" />
    <glyph glyph-name="ldot.ss02" horiz-adv-x="464" 
d="M174 710v-710h-110v710h110zM347 243c-42 0 -76 34 -76 75s34 75 76 75c41 0 75 -34 75 -75s-34 -75 -75 -75z" />
    <glyph glyph-name="lslash" unicode="&#x142;" horiz-adv-x="351" 
d="M318 506v-93l-86 -49v-364h-110v301l-89 -52v93l89 51v317h110v-254z" />
    <glyph glyph-name="m" unicode="m" horiz-adv-x="831" 
d="M602 518c110 0 168 -68 168 -167v-351h-110v318c0 64 -27 106 -89 106c-64 0 -101 -48 -101 -112v-312h-110v318c0 64 -25 106 -89 106c-61 0 -99 -46 -99 -112v-312h-110v502h102v-58c28 45 74 74 144 74c68 0 117 -30 142 -77c30 45 78 77 152 77z" />
    <glyph glyph-name="n" unicode="n" horiz-adv-x="560" 
d="M319 518c119 0 180 -75 180 -174v-344h-110v310c0 74 -37 114 -104 114c-65 0 -113 -49 -113 -117v-307h-110v502h102v-60c33 48 86 76 155 76z" />
    <glyph glyph-name="nacute" unicode="&#x144;" horiz-adv-x="560" 
d="M420 722l-94 -146h-97l70 146h121zM319 518c119 0 180 -75 180 -174v-344h-110v310c0 74 -37 114 -104 114c-65 0 -113 -49 -113 -117v-307h-110v502h102v-60c33 48 86 76 155 76z" />
    <glyph glyph-name="ncaron" unicode="&#x148;" horiz-adv-x="560" 
d="M348 576h-138l-102 146h94l78 -97l77 97h93zM319 518c119 0 180 -75 180 -174v-344h-110v310c0 74 -37 114 -104 114c-65 0 -113 -49 -113 -117v-307h-110v502h102v-60c33 48 86 76 155 76z" />
    <glyph glyph-name="ncommaaccent" unicode="&#x146;" horiz-adv-x="560" 
d="M319 518c119 0 180 -75 180 -174v-344h-110v310c0 74 -37 114 -104 114c-65 0 -113 -49 -113 -117v-307h-110v502h102v-60c33 48 86 76 155 76zM216 -163v97h120v-97l-65 -93h-59l60 93h-56z" />
    <glyph glyph-name="ncommaaccent.ss02" horiz-adv-x="560" 
d="M319 518c119 0 180 -75 180 -174v-344h-110v310c0 74 -37 114 -104 114c-65 0 -113 -49 -113 -117v-307h-110v502h102v-60c33 48 86 76 155 76zM272 -60c39 0 72 -28 72 -78c0 -71 -49 -119 -126 -119v41c24 2 61 15 71 48c-5 -1 -11 -2 -17 -2c-40 0 -63 18 -63 53
c0 33 28 57 63 57z" />
    <glyph glyph-name="eng" unicode="&#x14b;" horiz-adv-x="560" 
d="M319 518c120 0 180 -75 180 -174v-372c0 -111 -51 -163 -150 -163c-37 0 -70 5 -101 15l20 82c25 -5 44 -8 62 -8c43 0 59 23 59 73v339c0 74 -37 114 -104 114c-65 0 -113 -49 -113 -117v-307h-110v502h102v-60c33 48 86 76 155 76z" />
    <glyph glyph-name="ntilde" unicode="&#xf1;" horiz-adv-x="560" 
d="M213 636c-23 0 -34 -24 -34 -51h-66c0 79 44 121 97 121c62 0 96 -51 137 -51c24 0 32 23 32 51h65c0 -79 -38 -121 -91 -121c-54 0 -99 51 -140 51zM319 518c119 0 180 -75 180 -174v-344h-110v310c0 74 -37 114 -104 114c-65 0 -113 -49 -113 -117v-307h-110v502h102
v-60c33 48 86 76 155 76z" />
    <glyph glyph-name="o" unicode="o" horiz-adv-x="577" 
d="M289 518c150 0 255 -108 255 -267c0 -158 -105 -266 -255 -266c-151 0 -256 108 -256 266c0 159 105 267 256 267zM289 425c-88 0 -144 -69 -144 -174c0 -104 56 -173 144 -173c87 0 143 69 143 173c0 105 -56 174 -143 174z" />
    <glyph glyph-name="oacute" unicode="&#xf3;" horiz-adv-x="577" 
d="M427 722l-94 -146h-97l70 146h121zM289 518c150 0 255 -108 255 -267c0 -158 -105 -266 -255 -266c-151 0 -256 108 -256 266c0 159 105 267 256 267zM289 425c-88 0 -144 -69 -144 -174c0 -104 56 -173 144 -173c87 0 143 69 143 173c0 105 -56 174 -143 174z" />
    <glyph glyph-name="ocircumflex" unicode="&#xf4;" horiz-adv-x="577" 
d="M364 576l-77 97l-78 -97h-93l102 146h138l102 -146h-94zM289 518c150 0 255 -108 255 -267c0 -158 -105 -266 -255 -266c-151 0 -256 108 -256 266c0 159 105 267 256 267zM289 425c-88 0 -144 -69 -144 -174c0 -104 56 -173 144 -173c87 0 143 69 143 173
c0 105 -56 174 -143 174z" />
    <glyph glyph-name="odieresis" unicode="&#xf6;" horiz-adv-x="577" 
d="M246 702v-113h-107v113h107zM434 702v-113h-107v113h107zM289 518c150 0 255 -108 255 -267c0 -158 -105 -266 -255 -266c-151 0 -256 108 -256 266c0 159 105 267 256 267zM289 425c-88 0 -144 -69 -144 -174c0 -104 56 -173 144 -173c87 0 143 69 143 173
c0 105 -56 174 -143 174z" />
    <glyph glyph-name="odieresis.ss02" horiz-adv-x="577" 
d="M191 582c-37 0 -66 29 -66 65c0 35 29 64 66 64c36 0 65 -29 65 -64c0 -36 -29 -65 -65 -65zM383 582c-36 0 -65 29 -65 65c0 35 29 64 65 64s65 -29 65 -64c0 -36 -29 -65 -65 -65zM289 518c150 0 255 -108 255 -267c0 -158 -105 -266 -255 -266
c-151 0 -256 108 -256 266c0 159 105 267 256 267zM289 425c-88 0 -144 -69 -144 -174c0 -104 56 -173 144 -173c87 0 143 69 143 173c0 105 -56 174 -143 174z" />
    <glyph glyph-name="ograve" unicode="&#xf2;" horiz-adv-x="577" 
d="M146 722h122l70 -146h-97zM289 518c150 0 255 -108 255 -267c0 -158 -105 -266 -255 -266c-151 0 -256 108 -256 266c0 159 105 267 256 267zM289 425c-88 0 -144 -69 -144 -174c0 -104 56 -173 144 -173c87 0 143 69 143 173c0 105 -56 174 -143 174z" />
    <glyph glyph-name="ohungarumlaut" unicode="&#x151;" horiz-adv-x="577" 
d="M341 722l-96 -147h-80l71 147h105zM504 722l-96 -147h-80l71 147h105zM289 518c150 0 255 -108 255 -267c0 -158 -105 -266 -255 -266c-151 0 -256 108 -256 266c0 159 105 267 256 267zM289 425c-88 0 -144 -69 -144 -174c0 -104 56 -173 144 -173c87 0 143 69 143 173
c0 105 -56 174 -143 174z" />
    <glyph glyph-name="omacron" unicode="&#x14d;" horiz-adv-x="577" 
d="M437 674v-82h-301v82h301zM289 518c150 0 255 -108 255 -267c0 -158 -105 -266 -255 -266c-151 0 -256 108 -256 266c0 159 105 267 256 267zM289 425c-88 0 -144 -69 -144 -174c0 -104 56 -173 144 -173c87 0 143 69 143 173c0 105 -56 174 -143 174z" />
    <glyph glyph-name="oslash" unicode="&#xf8;" horiz-adv-x="577" 
d="M469 448c47 -47 75 -115 75 -197c0 -158 -105 -266 -255 -266c-46 0 -88 10 -124 29l-27 -39l-59 42l28 39c-47 47 -74 115 -74 195c0 159 105 267 256 267c45 0 86 -10 122 -28l26 38l59 -41zM145 251c0 -41 9 -76 25 -105l184 264c-19 10 -41 15 -65 15
c-88 0 -144 -69 -144 -174zM289 78c87 0 143 69 143 173c0 42 -9 79 -26 107l-184 -264c19 -11 42 -16 67 -16z" />
    <glyph glyph-name="otilde" unicode="&#xf5;" horiz-adv-x="577" 
d="M218 706c62 0 96 -51 137 -51c24 0 32 23 32 51h65c0 -79 -38 -121 -91 -121c-54 0 -99 51 -140 51c-23 0 -34 -24 -34 -51h-66c0 79 44 121 97 121zM289 518c150 0 255 -108 255 -267c0 -158 -105 -266 -255 -266c-151 0 -256 108 -256 266c0 159 105 267 256 267z
M289 425c-88 0 -144 -69 -144 -174c0 -104 56 -173 144 -173c87 0 143 69 143 173c0 105 -56 174 -143 174z" />
    <glyph glyph-name="oe" unicode="&#x153;" horiz-adv-x="951" 
d="M694 78c63 0 97 21 156 75l64 -67c-74 -77 -140 -101 -222 -101c-91 0 -161 34 -204 94c-44 -59 -114 -94 -199 -94c-151 0 -256 108 -256 266c0 159 105 267 256 267c85 0 155 -35 200 -95c41 59 107 95 193 95c150 0 233 -95 233 -247c0 -13 -1 -33 -2 -44h-368
c7 -83 52 -149 149 -149zM682 433c-75 0 -120 -50 -134 -129h260c-4 77 -48 129 -126 129zM289 78c87 0 143 69 143 173c0 105 -56 174 -143 174c-88 0 -144 -69 -144 -174c0 -104 56 -173 144 -173z" />
    <glyph glyph-name="p" unicode="p" horiz-adv-x="587" 
d="M330 516c128 0 222 -104 222 -264c0 -162 -95 -265 -223 -265c-72 0 -123 26 -157 71v-238h-110v682h102v-71c34 54 89 85 166 85zM307 82c79 0 133 66 133 170c0 102 -51 170 -133 170c-81 0 -140 -64 -140 -170c0 -108 61 -170 140 -170z" />
    <glyph glyph-name="thorn" unicode="&#xfe;" horiz-adv-x="587" 
d="M330 516c128 0 222 -104 222 -264c0 -162 -95 -265 -223 -265c-72 0 -123 26 -157 71v-238h-110v891h110v-269c34 47 86 74 158 74zM307 82c79 0 133 66 133 170c0 102 -51 170 -133 170c-81 0 -140 -64 -140 -170c0 -108 61 -170 140 -170z" />
    <glyph glyph-name="q" unicode="q" horiz-adv-x="587" 
d="M423 502h102v-682h-110v240c-34 -47 -86 -74 -158 -74c-127 0 -222 104 -222 265s95 265 223 265c77 0 131 -31 165 -83v69zM279 80c82 0 140 64 140 171c0 108 -60 170 -139 170s-133 -67 -133 -170s51 -171 132 -171z" />
    <glyph glyph-name="r" unicode="r" horiz-adv-x="379" 
d="M290 508c28 0 52 -6 79 -15l-20 -94c-26 7 -46 10 -64 10c-68 0 -113 -56 -113 -152v-257h-110v502h102v-75c24 49 65 81 126 81z" />
    <glyph glyph-name="racute" unicode="&#x155;" horiz-adv-x="379" 
d="M350 722l-94 -146h-97l70 146h121zM290 508c28 0 52 -6 79 -15l-20 -94c-26 7 -46 10 -64 10c-68 0 -113 -56 -113 -152v-257h-110v502h102v-75c24 49 65 81 126 81z" />
    <glyph glyph-name="rcaron" unicode="&#x159;" horiz-adv-x="379" 
d="M278 576h-138l-102 146h94l78 -97l77 97h93zM164 427c24 49 65 81 126 81c28 0 52 -6 79 -15l-20 -94c-26 7 -46 10 -64 10c-68 0 -113 -56 -113 -152v-257h-110v502h102v-75z" />
    <glyph glyph-name="rcommaaccent" unicode="&#x157;" horiz-adv-x="379" 
d="M290 508c28 0 52 -6 79 -15l-20 -94c-26 7 -46 10 -64 10c-68 0 -113 -56 -113 -152v-257h-110v502h102v-75c24 49 65 81 126 81zM56 -163v97h120v-97l-65 -93h-59l60 93h-56z" />
    <glyph glyph-name="rcommaaccent.ss02" horiz-adv-x="379" 
d="M290 508c28 0 52 -6 79 -15l-20 -94c-26 7 -46 10 -64 10c-68 0 -113 -56 -113 -152v-257h-110v502h102v-75c24 49 65 81 126 81zM112 -60c39 0 72 -28 72 -78c0 -71 -49 -119 -126 -119v41c24 2 61 15 71 48c-5 -1 -11 -2 -17 -2c-40 0 -63 18 -63 53c0 33 28 57 63 57z
" />
    <glyph glyph-name="s" unicode="s" horiz-adv-x="495" 
d="M245 518c83 0 142 -20 212 -76l-60 -73c-63 48 -101 60 -154 60c-59 0 -96 -26 -96 -61c0 -38 37 -45 125 -65c135 -30 193 -66 193 -157c0 -95 -79 -161 -209 -161c-91 0 -157 23 -238 94l64 72c74 -61 116 -77 176 -77c56 0 99 24 99 65c0 48 -56 59 -131 75
c-138 31 -184 64 -184 150c0 87 76 154 203 154z" />
    <glyph glyph-name="sacute" unicode="&#x15b;" horiz-adv-x="495" 
d="M384 722l-94 -146h-97l70 146h121zM245 518c83 0 142 -20 212 -76l-60 -73c-63 48 -101 60 -154 60c-59 0 -96 -26 -96 -61c0 -38 37 -45 125 -65c135 -30 193 -66 193 -157c0 -95 -79 -161 -209 -161c-91 0 -157 23 -238 94l64 72c74 -61 116 -77 176 -77
c56 0 99 24 99 65c0 48 -56 59 -131 75c-138 31 -184 64 -184 150c0 87 76 154 203 154z" />
    <glyph glyph-name="scaron" unicode="&#x161;" horiz-adv-x="495" 
d="M414 722l-102 -146h-138l-102 146h94l78 -97l77 97h93zM245 518c83 0 142 -20 212 -76l-60 -73c-63 48 -101 60 -154 60c-59 0 -96 -26 -96 -61c0 -38 37 -45 125 -65c135 -30 193 -66 193 -157c0 -95 -79 -161 -209 -161c-91 0 -157 23 -238 94l64 72
c74 -61 116 -77 176 -77c56 0 99 24 99 65c0 48 -56 59 -131 75c-138 31 -184 64 -184 150c0 87 76 154 203 154z" />
    <glyph glyph-name="scedilla" unicode="&#x15f;" horiz-adv-x="495" 
d="M465 146c0 -92 -74 -157 -197 -161l-24 -51c65 1 106 -33 106 -80c0 -56 -44 -94 -111 -94c-39 0 -75 13 -111 37l30 48c31 -18 53 -27 81 -27c27 0 48 12 48 35c0 21 -25 33 -53 33c-9 0 -20 -1 -28 -3l-31 29l34 75c-68 8 -125 34 -191 92l64 72
c74 -61 116 -77 176 -77c56 0 99 24 99 65c0 48 -56 59 -131 75c-138 31 -184 64 -184 150c0 87 76 154 203 154c83 0 142 -20 212 -76l-60 -73c-63 48 -101 60 -154 60c-59 0 -96 -26 -96 -61c0 -38 37 -45 125 -65c135 -30 193 -66 193 -157z" />
    <glyph glyph-name="scommaaccent" unicode="&#x219;" horiz-adv-x="495" 
d="M245 518c83 0 142 -20 212 -76l-60 -73c-63 48 -101 60 -154 60c-59 0 -96 -26 -96 -61c0 -38 37 -45 125 -65c135 -30 193 -66 193 -157c0 -95 -79 -161 -209 -161c-91 0 -157 23 -238 94l64 72c74 -61 116 -77 176 -77c56 0 99 24 99 65c0 48 -56 59 -131 75
c-138 31 -184 64 -184 150c0 87 76 154 203 154zM304 -66v-97l-65 -93h-59l60 93h-56v97h120z" />
    <glyph glyph-name="scommaaccent.ss02" horiz-adv-x="495" 
d="M272 303c135 -30 193 -66 193 -157c0 -95 -79 -161 -209 -161c-91 0 -157 23 -238 94l64 72c74 -61 116 -77 176 -77c56 0 99 24 99 65c0 48 -56 59 -131 75c-138 31 -184 64 -184 150c0 87 76 154 203 154c83 0 142 -20 212 -76l-60 -73c-63 48 -101 60 -154 60
c-59 0 -96 -26 -96 -61c0 -38 37 -45 125 -65zM240 -60c39 0 72 -28 72 -78c0 -71 -49 -119 -126 -119v41c24 2 61 15 71 48c-5 -1 -11 -2 -17 -2c-40 0 -63 18 -63 53c0 33 28 57 63 57z" />
    <glyph glyph-name="germandbls" unicode="&#xdf;" horiz-adv-x="595" 
d="M417 402c89 -29 142 -94 142 -190c0 -120 -80 -220 -221 -220c-42 0 -81 6 -114 15l17 89c26 -5 57 -11 87 -11c69 0 119 49 119 130c0 82 -60 129 -163 129h-24v88h24c71 0 108 41 108 102c0 58 -45 98 -107 98c-68 0 -113 -45 -113 -130v-502h-110v509
c0 146 103 216 224 216c130 0 214 -86 214 -184c0 -72 -36 -116 -83 -139z" />
    <glyph glyph-name="t" unicode="t" horiz-adv-x="373" 
d="M340 95l14 -87c-41 -14 -77 -19 -108 -19c-100 0 -137 48 -137 135v295h-91v83h91v162h110v-162h127v-83h-127v-282c0 -39 17 -53 54 -53c17 0 34 2 67 11z" />
    <glyph glyph-name="tbar" unicode="&#x167;" horiz-adv-x="373" 
d="M340 95l14 -87c-41 -14 -77 -19 -108 -19c-100 0 -137 48 -137 135v99h-91v85h91v111h-91v83h91v162h110v-162h127v-83h-127v-111h127v-85h-127v-86c0 -39 17 -53 54 -53c17 0 34 2 67 11z" />
    <glyph glyph-name="tcaron" unicode="&#x165;" horiz-adv-x="373" 
d="M320 789h108l-68 -208h-69zM273 84c17 0 34 2 67 11l14 -87c-41 -14 -77 -19 -108 -19c-100 0 -137 48 -137 135v295h-91v83h91v162h110v-162h127v-83h-127v-282c0 -39 17 -53 54 -53z" />
    <glyph glyph-name="uni0163" unicode="&#x163;" horiz-adv-x="373" 
d="M224 -66c65 1 106 -33 106 -80c0 -56 -44 -94 -111 -94c-39 0 -75 13 -111 37l30 48c30 -18 52 -27 80 -27s49 12 49 35c0 21 -25 33 -53 33c-10 0 -21 -1 -29 -3l-31 29l38 83c-59 15 -83 59 -83 129v295h-91v83h91v162h110v-162h127v-83h-127v-282c0 -39 17 -53 54 -53
c17 0 34 2 67 11l14 -87c-39 -14 -74 -18 -104 -19z" />
    <glyph glyph-name="uni021B" unicode="&#x21b;" horiz-adv-x="373" 
d="M354 8c-41 -14 -77 -19 -108 -19c-100 0 -137 48 -137 135v295h-91v83h91v162h110v-162h127v-83h-127v-282c0 -39 17 -53 54 -53c17 0 34 2 67 11zM172 -163v97h120v-97l-65 -93h-59l60 93h-56z" />
    <glyph glyph-name="uni021B.ss02" horiz-adv-x="373" 
d="M354 8c-41 -14 -77 -19 -108 -19c-100 0 -137 48 -137 135v295h-91v83h91v162h110v-162h127v-83h-127v-282c0 -39 17 -53 54 -53c17 0 34 2 67 11zM228 -60c39 0 72 -28 72 -78c0 -71 -49 -119 -126 -119v41c24 2 61 15 71 48c-5 -1 -11 -2 -17 -2c-40 0 -63 18 -63 53
c0 33 28 57 63 57z" />
    <glyph glyph-name="u" unicode="u" horiz-adv-x="552" 
d="M380 502h110v-502h-101v57c-27 -44 -77 -72 -149 -72c-127 0 -179 70 -179 161v356h110v-326c0 -60 31 -96 93 -96c67 0 116 39 116 118v304z" />
    <glyph glyph-name="uacute" unicode="&#xfa;" horiz-adv-x="552" 
d="M409 722l-94 -146h-97l70 146h121zM380 502h110v-502h-101v57c-27 -44 -77 -72 -149 -72c-127 0 -179 70 -179 161v356h110v-326c0 -60 31 -96 93 -96c67 0 116 39 116 118v304z" />
    <glyph glyph-name="ucircumflex" unicode="&#xfb;" horiz-adv-x="552" 
d="M269 673l-78 -97h-93l102 146h138l102 -146h-94zM380 502h110v-502h-101v57c-27 -44 -77 -72 -149 -72c-127 0 -179 70 -179 161v356h110v-326c0 -60 31 -96 93 -96c67 0 116 39 116 118v304z" />
    <glyph glyph-name="udieresis" unicode="&#xfc;" horiz-adv-x="552" 
d="M228 702v-113h-107v113h107zM416 702v-113h-107v113h107zM380 502h110v-502h-101v57c-27 -44 -77 -72 -149 -72c-127 0 -179 70 -179 161v356h110v-326c0 -60 31 -96 93 -96c67 0 116 39 116 118v304z" />
    <glyph glyph-name="udieresis.ss02" horiz-adv-x="552" 
d="M173 582c-37 0 -66 29 -66 65c0 35 29 64 66 64c36 0 65 -29 65 -64c0 -36 -29 -65 -65 -65zM365 582c-36 0 -65 29 -65 65c0 35 29 64 65 64s65 -29 65 -64c0 -36 -29 -65 -65 -65zM380 502h110v-502h-101v57c-27 -44 -77 -72 -149 -72c-127 0 -179 70 -179 161v356h110
v-326c0 -60 31 -96 93 -96c67 0 116 39 116 118v304z" />
    <glyph glyph-name="ugrave" unicode="&#xf9;" horiz-adv-x="552" 
d="M320 576h-97l-95 146h122zM380 502h110v-502h-101v57c-27 -44 -77 -72 -149 -72c-127 0 -179 70 -179 161v356h110v-326c0 -60 31 -96 93 -96c67 0 116 39 116 118v304z" />
    <glyph glyph-name="uhungarumlaut" unicode="&#x171;" horiz-adv-x="552" 
d="M323 722l-96 -147h-80l71 147h105zM390 575h-80l71 147h105zM380 502h110v-502h-101v57c-27 -44 -77 -72 -149 -72c-127 0 -179 70 -179 161v356h110v-326c0 -60 31 -96 93 -96c67 0 116 39 116 118v304z" />
    <glyph glyph-name="umacron" unicode="&#x16b;" horiz-adv-x="552" 
d="M419 674v-82h-301v82h301zM380 502h110v-502h-101v57c-27 -44 -77 -72 -149 -72c-127 0 -179 70 -179 161v356h110v-326c0 -60 31 -96 93 -96c67 0 116 39 116 118v304z" />
    <glyph glyph-name="uogonek" unicode="&#x173;" horiz-adv-x="552" 
d="M490 0c-65 -42 -83 -76 -83 -106c0 -25 19 -39 50 -39c12 0 21 2 28 4v-66c-13 -5 -31 -7 -45 -7c-72 0 -111 35 -111 89c0 39 17 81 72 125h-12v57c-27 -44 -77 -72 -149 -72c-127 0 -179 70 -179 161v356h110v-326c0 -60 31 -96 93 -96c67 0 116 39 116 118v304h110
v-502z" />
    <glyph glyph-name="uring" unicode="&#x16f;" horiz-adv-x="552" 
d="M269 566c-64 0 -116 50 -116 111s52 111 116 111c63 0 115 -50 115 -111s-52 -111 -115 -111zM269 738c-34 0 -60 -25 -60 -61s26 -61 60 -61s59 25 59 61s-25 61 -59 61zM380 502h110v-502h-101v57c-27 -44 -77 -72 -149 -72c-127 0 -179 70 -179 161v356h110v-326
c0 -60 31 -96 93 -96c67 0 116 39 116 118v304z" />
    <glyph glyph-name="v" unicode="v" horiz-adv-x="502" 
d="M377 502h114l-173 -502h-135l-172 502h116l55 -173c30 -92 52 -170 70 -238c18 68 41 146 70 238z" />
    <glyph glyph-name="w" unicode="w" horiz-adv-x="766" 
d="M636 502h113l-140 -502h-132l-41 147c-24 87 -41 158 -55 219c-13 -60 -29 -132 -52 -219l-40 -147h-131l-141 502h116l44 -175c22 -86 39 -163 52 -229c15 66 33 143 56 229l47 175h103l48 -175c23 -87 41 -164 56 -231c13 67 30 144 52 231z" />
    <glyph glyph-name="wacute" unicode="&#x1e83;" horiz-adv-x="766" 
d="M525 722l-94 -146h-97l70 146h121zM636 502h113l-140 -502h-132l-41 147c-24 87 -41 158 -55 219c-13 -60 -29 -132 -52 -219l-40 -147h-131l-141 502h116l44 -175c22 -86 39 -163 52 -229c15 66 33 143 56 229l47 175h103l48 -175c23 -87 41 -164 56 -231
c13 67 30 144 52 231z" />
    <glyph glyph-name="wcircumflex" unicode="&#x175;" horiz-adv-x="766" 
d="M384 673l-78 -97h-93l102 146h138l102 -146h-94zM636 502h113l-140 -502h-132l-41 147c-24 87 -41 158 -55 219c-13 -60 -29 -132 -52 -219l-40 -147h-131l-141 502h116l44 -175c22 -86 39 -163 52 -229c15 66 33 143 56 229l47 175h103l48 -175c23 -87 41 -164 56 -231
c13 67 30 144 52 231z" />
    <glyph glyph-name="wdieresis" unicode="&#x1e85;" horiz-adv-x="766" 
d="M344 702v-113h-107v113h107zM532 702v-113h-107v113h107zM636 502h113l-140 -502h-132l-41 147c-24 87 -41 158 -55 219c-13 -60 -29 -132 -52 -219l-40 -147h-131l-141 502h116l44 -175c22 -86 39 -163 52 -229c15 66 33 143 56 229l47 175h103l48 -175
c23 -87 41 -164 56 -231c13 67 30 144 52 231z" />
    <glyph glyph-name="wdieresis.ss02" horiz-adv-x="766" 
d="M289 582c-37 0 -66 29 -66 65c0 35 29 64 66 64c36 0 65 -29 65 -64c0 -36 -29 -65 -65 -65zM481 582c-36 0 -65 29 -65 65c0 35 29 64 65 64s65 -29 65 -64c0 -36 -29 -65 -65 -65zM636 502h113l-140 -502h-132l-41 147c-24 87 -41 158 -55 219
c-13 -60 -29 -132 -52 -219l-40 -147h-131l-141 502h116l44 -175c22 -86 39 -163 52 -229c15 66 33 143 56 229l47 175h103l48 -175c23 -87 41 -164 56 -231c13 67 30 144 52 231z" />
    <glyph glyph-name="wgrave" unicode="&#x1e81;" horiz-adv-x="766" 
d="M435 576h-97l-95 146h122zM636 502h113l-140 -502h-132l-41 147c-24 87 -41 158 -55 219c-13 -60 -29 -132 -52 -219l-40 -147h-131l-141 502h116l44 -175c22 -86 39 -163 52 -229c15 66 33 143 56 229l47 175h103l48 -175c23 -87 41 -164 56 -231c13 67 30 144 52 231z
" />
    <glyph glyph-name="x" unicode="x" horiz-adv-x="504" 
d="M496 0h-122l-122 185l-125 -185h-119l182 263l-166 239h120l109 -161l107 161h119l-164 -235z" />
    <glyph glyph-name="y" unicode="y" horiz-adv-x="504" 
d="M379 502h112l-197 -564c-32 -93 -74 -132 -164 -132c-34 0 -66 5 -88 11l18 83c18 -3 38 -6 57 -6c36 0 63 14 82 71l3 8l-189 529h116l49 -147c26 -76 56 -166 77 -233c21 68 49 157 75 234z" />
    <glyph glyph-name="yacute" unicode="&#xfd;" horiz-adv-x="504" 
d="M392 722l-94 -146h-97l70 146h121zM379 502h112l-197 -564c-32 -93 -74 -132 -164 -132c-34 0 -66 5 -88 11l18 83c18 -3 38 -6 57 -6c36 0 63 14 82 71l3 8l-189 529h116l49 -147c26 -76 56 -166 77 -233c21 68 49 157 75 234z" />
    <glyph glyph-name="ycircumflex" unicode="&#x177;" horiz-adv-x="504" 
d="M252 673l-78 -97h-93l102 146h138l102 -146h-94zM379 502h112l-197 -564c-32 -93 -74 -132 -164 -132c-34 0 -66 5 -88 11l18 83c18 -3 38 -6 57 -6c36 0 63 14 82 71l3 8l-189 529h116l49 -147c26 -76 56 -166 77 -233c21 68 49 157 75 234z" />
    <glyph glyph-name="ydieresis" unicode="&#xff;" horiz-adv-x="504" 
d="M211 702v-113h-107v113h107zM399 702v-113h-107v113h107zM379 502h112l-197 -564c-32 -93 -74 -132 -164 -132c-34 0 -66 5 -88 11l18 83c18 -3 38 -6 57 -6c36 0 63 14 82 71l3 8l-189 529h116l49 -147c26 -76 56 -166 77 -233c21 68 49 157 75 234z" />
    <glyph glyph-name="ydieresis.ss02" horiz-adv-x="504" 
d="M156 582c-37 0 -66 29 -66 65c0 35 29 64 66 64c36 0 65 -29 65 -64c0 -36 -29 -65 -65 -65zM348 582c-36 0 -65 29 -65 65c0 35 29 64 65 64s65 -29 65 -64c0 -36 -29 -65 -65 -65zM379 502h112l-197 -564c-32 -93 -74 -132 -164 -132c-34 0 -66 5 -88 11l18 83
c18 -3 38 -6 57 -6c36 0 63 14 82 71l3 8l-189 529h116l49 -147c26 -76 56 -166 77 -233c21 68 49 157 75 234z" />
    <glyph glyph-name="ygrave" unicode="&#x1ef3;" horiz-adv-x="504" 
d="M302 576h-97l-95 146h122zM379 502h112l-197 -564c-32 -93 -74 -132 -164 -132c-34 0 -66 5 -88 11l18 83c18 -3 38 -6 57 -6c36 0 63 14 82 71l3 8l-189 529h116l49 -147c26 -76 56 -166 77 -233c21 68 49 157 75 234z" />
    <glyph glyph-name="z" unicode="z" horiz-adv-x="489" 
d="M447 502v-82l-275 -330h275v-90h-411v83l276 330h-259v89h394z" />
    <glyph glyph-name="zacute" unicode="&#x17a;" horiz-adv-x="489" 
d="M385 722l-94 -146h-97l70 146h121zM447 502v-82l-275 -330h275v-90h-411v83l276 330h-259v89h394z" />
    <glyph glyph-name="zcaron" unicode="&#x17e;" horiz-adv-x="489" 
d="M313 576h-138l-102 146h94l78 -97l77 97h93zM447 502v-82l-275 -330h275v-90h-411v83l276 330h-259v89h394z" />
    <glyph glyph-name="zdotaccent" unicode="&#x17c;" horiz-adv-x="489" 
d="M299 702v-113h-110v113h110zM447 502v-82l-275 -330h275v-90h-411v83l276 330h-259v89h394z" />
    <glyph glyph-name="zdotaccent.ss02" horiz-adv-x="489" 
d="M244 578c-38 0 -68 30 -68 67s30 67 68 67s68 -30 68 -67s-30 -67 -68 -67zM447 502v-82l-275 -330h275v-90h-411v83l276 330h-259v89h394z" />
    <glyph glyph-name="f_f_i.liga.ss02" horiz-adv-x="915" 
d="M285 631c-47 0 -68 -21 -68 -77v-52h97v-83h-97v-419h-110v419h-89v83h89v60c0 106 56 160 158 160c31 0 62 -3 104 -18l-20 -83c-29 8 -47 10 -64 10zM616 630c-50 0 -65 -21 -65 -76v-52h116v-83h-116v-419h-110v419h-81v83h81v60c0 106 53 160 152 160
c32 0 61 -5 86 -12l-14 -85c-22 4 -37 5 -49 5zM799 576c-39 0 -68 30 -68 68c0 37 29 66 68 66c38 0 67 -29 67 -66c0 -38 -29 -68 -67 -68zM744 0v502h110v-502h-110z" />
    <glyph glyph-name="f_f_j.liga.ss02" horiz-adv-x="915" 
d="M285 631c-47 0 -68 -21 -68 -77v-52h97v-83h-97v-419h-110v419h-89v83h89v60c0 106 56 160 158 160c31 0 62 -3 104 -18l-20 -83c-29 8 -47 10 -64 10zM667 419h-116v-419h-110v419h-81v83h81v60c0 106 53 160 152 160c32 0 61 -5 86 -12l-14 -85c-22 4 -37 5 -49 5
c-50 0 -65 -21 -65 -76v-52h116v-83zM799 576c-39 0 -68 30 -68 68c0 37 29 66 68 66c38 0 67 -29 67 -66c0 -38 -29 -68 -67 -68zM744 -29v531h110v-530c0 -111 -51 -163 -150 -163c-37 0 -70 5 -101 15l20 82c25 -5 44 -8 62 -8c43 0 59 23 59 73z" />
    <glyph glyph-name="f_j.liga.ss02" horiz-adv-x="582" 
d="M334 419h-117v-419h-110v419h-89v83h89v60c0 106 53 160 153 160c31 0 60 -5 85 -12l-14 -85c-22 4 -36 5 -48 5c-51 0 -66 -21 -66 -76v-52h117v-83zM465 576c-38 0 -68 30 -68 68c0 37 30 66 68 66s68 -29 68 -66c0 -38 -30 -68 -68 -68zM410 -29v531h110v-530
c0 -111 -50 -163 -150 -163c-37 0 -70 5 -100 15l20 82c25 -5 44 -8 62 -8c43 0 58 23 58 73z" />
    <glyph glyph-name="fi.ss02" horiz-adv-x="582" 
d="M283 630c-51 0 -66 -21 -66 -76v-52h117v-83h-117v-419h-110v419h-89v83h89v60c0 106 53 160 153 160c31 0 60 -5 85 -12l-14 -85c-22 4 -36 5 -48 5zM465 576c-38 0 -68 30 -68 68c0 37 30 66 68 66s68 -29 68 -66c0 -38 -30 -68 -68 -68zM410 0v502h110v-502h-110z" />
    <glyph glyph-name="ordfeminine" unicode="&#xaa;" horiz-adv-x="429" 
d="M215 716c110 0 166 -56 166 -136v-265h-77v47c-25 -37 -69 -60 -134 -60c-74 0 -137 34 -137 111c0 89 81 117 182 136l83 15v9c0 48 -33 72 -86 72c-46 0 -82 -20 -120 -61l-55 51c52 59 111 81 178 81zM186 372c59 0 112 30 112 98v31l-67 -14
c-69 -15 -113 -27 -113 -69c0 -29 23 -46 68 -46z" />
    <glyph glyph-name="ordmasculine" unicode="&#xba;" horiz-adv-x="464" 
d="M232 718c114 0 194 -84 194 -207c0 -122 -80 -207 -194 -207s-194 85 -194 207c0 123 80 207 194 207zM232 645c-65 0 -106 -54 -106 -134c0 -81 41 -134 106 -134s106 53 106 134c0 80 -41 134 -106 134z" />
    <glyph glyph-name="uni0394" unicode="&#x394;" horiz-adv-x="693" 
d="M424 710l256 -710h-122h-490h-55l256 710h155zM166 98h358l-86 247c-35 100 -68 193 -94 279c-24 -86 -58 -180 -92 -280z" />
    <glyph glyph-name="uni03A9" unicode="&#x3a9;" horiz-adv-x="787" 
d="M543 101h201v-101h-312v101v54c104 19 183 106 183 235c0 139 -89 232 -223 232s-224 -93 -224 -232c0 -129 80 -216 184 -235v-80v-75h-309v101h197c-120 47 -193 153 -193 289c0 191 131 336 345 336s344 -145 344 -336c0 -136 -72 -242 -193 -289z" />
    <glyph glyph-name="uni03BC" unicode="&#x3bc;" horiz-adv-x="552" 
d="M380 502h110v-502h-100v66c-24 -48 -68 -81 -129 -81c-40 0 -69 10 -90 28v-196h-110v685h110v-326c0 -60 31 -96 98 -96c63 0 111 39 111 118v304z" />
    <glyph glyph-name="pi" unicode="&#x3c0;" horiz-adv-x="617" 
d="M587 92l11 -86c-37 -13 -66 -17 -93 -17c-100 0 -128 48 -128 138v291h-158v-418h-110v418h-91v84h555v-84h-86v-279c0 -42 13 -56 45 -56c12 0 24 0 55 9z" />
    <glyph glyph-name="zero" unicode="0" 
d="M295 696c100 0 171 -48 213 -128c31 -61 47 -141 47 -228s-16 -167 -47 -228c-42 -80 -113 -128 -213 -128s-171 48 -213 128c-31 61 -47 141 -47 228s16 167 47 228c42 80 113 128 213 128zM295 599c-51 0 -89 -26 -113 -78c-21 -45 -32 -108 -32 -181s11 -136 32 -181
c24 -52 62 -78 113 -78s89 26 113 78c21 45 32 108 32 181s-11 136 -32 181c-24 52 -62 78 -113 78z" />
    <glyph glyph-name="one" unicode="1" horiz-adv-x="460" 
d="M236 680h88v-680h-114v539l-129 -90l-56 78z" />
    <glyph glyph-name="two" unicode="2" horiz-adv-x="585" 
d="M311 242c-76 -47 -141 -78 -154 -147h381v-95h-498v44c0 151 99 210 202 274c95 58 183 89 183 179c0 65 -51 102 -115 102c-72 0 -121 -38 -186 -119l-83 60c68 97 148 156 266 156c149 0 232 -90 232 -197c0 -144 -112 -187 -228 -257z" />
    <glyph glyph-name="three" unicode="3" horiz-adv-x="577" 
d="M306 410c127 0 225 -74 225 -203c0 -108 -84 -223 -249 -223c-91 0 -165 23 -257 86l55 81c80 -49 132 -70 199 -70c86 0 138 52 138 125c0 75 -57 120 -147 120c-40 0 -65 -7 -80 -13l-51 69l231 203h-311v95h448v-93z" />
    <glyph glyph-name="four" unicode="4" horiz-adv-x="582" 
d="M471 246h97v-92h-97v-154h-111v154h-334v104l270 422h125l-277 -434h216v145h111v-145z" />
    <glyph glyph-name="five" unicode="5" horiz-adv-x="583" 
d="M314 441c135 0 223 -96 223 -215c0 -136 -102 -242 -249 -242c-104 0 -168 28 -262 91l56 81c83 -53 129 -75 198 -75c82 0 143 58 143 136c0 80 -51 130 -136 130c-49 0 -91 -18 -120 -46l-100 10l30 369h406v-95h-309l-16 -185c32 24 75 41 136 41z" />
    <glyph glyph-name="six" unicode="6" horiz-adv-x="589" 
d="M327 447c137 0 227 -105 227 -228c0 -120 -90 -235 -252 -235c-161 0 -258 112 -258 273c0 151 88 271 204 381l45 42h150v-2l-112 -102c-70 -62 -119 -122 -148 -178c34 31 82 49 144 49zM303 81c85 0 138 58 138 136s-52 136 -137 136c-87 0 -145 -58 -145 -136
s58 -136 144 -136z" />
    <glyph glyph-name="seven" unicode="7" horiz-adv-x="540" 
d="M23 680h498v-84c-120 -146 -234 -372 -267 -596h-125c29 209 144 430 261 585h-367v95z" />
    <glyph glyph-name="eight" unicode="8" horiz-adv-x="587" 
d="M431 369c79 -33 124 -96 124 -180c0 -116 -95 -205 -261 -205s-262 89 -262 205c0 84 46 147 124 180c-56 29 -91 80 -91 148c0 106 91 180 229 180s228 -74 228 -180c0 -68 -34 -119 -91 -148zM294 609c-74 0 -120 -41 -120 -98c0 -59 47 -101 120 -101
c72 0 120 42 120 101c0 57 -46 98 -120 98zM294 77c94 0 146 54 146 120c0 71 -52 125 -146 125s-147 -54 -147 -125c0 -66 53 -120 147 -120z" />
    <glyph glyph-name="nine" unicode="9" horiz-adv-x="589" 
d="M287 696c160 0 257 -112 257 -273c0 -151 -87 -270 -204 -381l-45 -42h-149v2l112 102c69 62 119 122 148 178c-35 -31 -83 -49 -144 -49c-138 0 -227 105 -227 228c0 120 90 235 252 235zM284 327c87 0 145 58 145 136s-58 136 -143 136s-138 -58 -138 -136
s52 -136 136 -136z" />
    <glyph glyph-name="zero.case" horiz-adv-x="600" 
d="M300 726c102 0 175 -50 217 -133c32 -64 48 -147 48 -238s-16 -173 -48 -237c-42 -83 -115 -134 -217 -134s-175 51 -217 134c-32 64 -48 146 -48 237s16 174 48 238c42 83 115 133 217 133zM300 629c-53 0 -92 -28 -117 -83c-22 -48 -33 -114 -33 -191s11 -142 33 -190
c25 -55 64 -84 117 -84s92 29 117 84c22 48 33 113 33 190s-11 143 -33 191c-25 55 -64 83 -117 83z" />
    <glyph glyph-name="one.case" horiz-adv-x="469" 
d="M246 710h88v-710h-114v569l-139 -97l-56 78z" />
    <glyph glyph-name="two.case" horiz-adv-x="595" 
d="M157 95h393v-95h-509v44c0 157 97 220 205 286c98 61 191 93 191 189c0 71 -56 109 -123 109c-76 0 -121 -40 -190 -126l-84 59c83 118 166 164 271 164c152 0 239 -92 239 -204c0 -150 -115 -194 -234 -267c-80 -50 -146 -84 -159 -159z" />
    <glyph glyph-name="three.case" horiz-adv-x="587" 
d="M310 428c132 0 233 -76 233 -211c0 -112 -86 -233 -256 -233c-94 0 -171 25 -265 90l55 81c83 -52 138 -74 207 -74c90 0 145 56 145 135c0 80 -57 127 -153 127c-42 0 -68 -7 -84 -13l-51 69l241 216h-324v95h461v-93l-211 -189h2z" />
    <glyph glyph-name="four.case" horiz-adv-x="592" 
d="M480 254h101v-92h-101v-162h-111v162h-345v104l280 444h126l-287 -456h226v154h111v-154z" />
    <glyph glyph-name="five.case" horiz-adv-x="593" 
d="M319 461c139 0 229 -99 229 -225c0 -140 -100 -252 -255 -252c-107 0 -173 29 -270 95l57 81c86 -56 133 -79 205 -79c91 0 149 64 149 150c0 85 -53 135 -142 135c-51 0 -95 -19 -126 -49l-100 10l31 383h417v-95h-320l-17 -198c33 25 78 44 142 44z" />
    <glyph glyph-name="six.case" horiz-adv-x="599" 
d="M331 468c144 0 236 -110 236 -239c0 -125 -93 -245 -260 -245s-265 118 -265 284c0 159 91 281 211 397l47 45h150v-2l-109 -100c-80 -74 -133 -138 -163 -198c36 37 87 58 153 58zM308 81c90 0 146 63 146 146c0 84 -55 146 -145 146c-91 0 -152 -62 -152 -146
c0 -83 61 -146 151 -146z" />
    <glyph glyph-name="seven.case" horiz-adv-x="549" 
d="M20 710h511v-84c-125 -154 -242 -392 -276 -626h-126c31 220 149 454 272 615h-381v95z" />
    <glyph glyph-name="eight.case" horiz-adv-x="597" 
d="M438 383c82 -34 129 -100 129 -187c0 -121 -97 -213 -268 -213s-269 92 -269 213c0 87 47 153 129 187c-59 31 -95 84 -95 155c0 111 94 188 235 188s234 -77 234 -188c0 -71 -36 -124 -95 -155zM299 638c-78 0 -126 -44 -126 -105c0 -64 50 -108 126 -108
c75 0 126 44 126 108c0 61 -48 105 -126 105zM299 77c99 0 153 56 153 127c0 75 -55 132 -153 132s-154 -57 -154 -132c0 -71 55 -127 154 -127z" />
    <glyph glyph-name="nine.case" horiz-adv-x="599" 
d="M292 726c166 0 264 -117 264 -283c0 -159 -92 -279 -211 -397l-47 -46h-149v2l108 100c81 75 134 139 164 199c-36 -37 -87 -58 -153 -58c-144 0 -236 110 -236 238c0 126 93 245 260 245zM289 337c91 0 152 63 152 146c0 84 -61 146 -150 146c-90 0 -146 -62 -146 -146
c0 -83 54 -146 144 -146z" />
    <glyph glyph-name="zero.tf" 
d="M295 696c100 0 171 -48 213 -128c31 -61 47 -141 47 -228s-16 -167 -47 -228c-42 -80 -113 -128 -213 -128s-171 48 -213 128c-31 61 -47 141 -47 228s16 167 47 228c42 80 113 128 213 128zM295 599c-51 0 -89 -26 -113 -78c-21 -45 -32 -108 -32 -181s11 -136 32 -181
c24 -52 62 -78 113 -78s89 26 113 78c21 45 32 108 32 181s-11 136 -32 181c-24 52 -62 78 -113 78z" />
    <glyph glyph-name="one.tf" 
d="M383 88h161v-88h-275h-169v88h169v451l-136 -95l-56 77l218 159h88v-592z" />
    <glyph glyph-name="two.tf" 
d="M312 242c-76 -46 -141 -78 -154 -147h381v-95h-498v44c0 151 99 210 202 274c95 58 183 89 183 179c0 65 -51 102 -115 102c-72 0 -121 -38 -186 -119l-83 60c68 97 148 156 267 156c148 0 231 -90 231 -197c0 -144 -112 -187 -228 -257z" />
    <glyph glyph-name="three.tf" 
d="M306 410c126 0 224 -74 224 -203c0 -108 -84 -223 -249 -223c-90 0 -165 23 -257 86l56 81c79 -49 132 -70 198 -70c86 0 138 52 138 125c0 75 -56 120 -146 120c-41 0 -66 -7 -81 -13l-51 69l231 203h-311v95h449v-93z" />
    <glyph glyph-name="four.tf" 
d="M478 246h98v-92h-98v-154h-111v154h-333v104l269 422h125l-277 -434h216v145h111v-145z" />
    <glyph glyph-name="five.tf" 
d="M318 441c135 0 223 -96 223 -215c0 -136 -102 -242 -249 -242c-104 0 -167 28 -262 91l56 81c83 -53 129 -75 198 -75c82 0 143 58 143 136c0 80 -51 130 -136 130c-49 0 -90 -18 -120 -46l-100 10l30 369h407v-95h-310l-15 -185c31 24 74 41 135 41z" />
    <glyph glyph-name="six.tf" 
d="M328 447c138 0 227 -105 227 -228c0 -120 -90 -235 -252 -235c-160 0 -257 112 -257 273c0 151 87 271 204 381l45 42h149v-2l-112 -102c-69 -62 -118 -122 -147 -178c34 31 82 49 143 49zM304 81c85 0 138 58 138 136s-52 136 -136 136c-87 0 -145 -58 -145 -136
s58 -136 143 -136z" />
    <glyph glyph-name="seven.tf" 
d="M43 680h497v-84c-119 -146 -234 -372 -267 -596h-125c29 209 145 430 261 585h-366v95z" />
    <glyph glyph-name="eight.tf" 
d="M431 369c79 -33 124 -96 124 -180c0 -116 -95 -205 -261 -205s-262 89 -262 205c0 84 46 147 124 180c-56 29 -91 80 -91 148c0 106 91 180 229 180s228 -74 228 -180c0 -68 -34 -119 -91 -148zM294 609c-74 0 -120 -41 -120 -98c0 -59 47 -101 120 -101
c72 0 120 42 120 101c0 57 -46 98 -120 98zM294 77c94 0 146 54 146 120c0 71 -52 125 -146 125s-147 -54 -147 -125c0 -66 53 -120 147 -120z" />
    <glyph glyph-name="nine.tf" 
d="M287 696c160 0 257 -112 257 -273c0 -151 -87 -270 -204 -381l-45 -42h-149v2l112 102c69 62 119 122 148 178c-35 -31 -83 -49 -144 -49c-138 0 -227 105 -227 228c0 120 90 235 252 235zM284 327c87 0 145 58 145 136s-58 136 -143 136s-138 -58 -138 -136
s52 -136 136 -136z" />
    <glyph glyph-name="zero.zero" 
d="M508 568c31 -61 47 -141 47 -228s-16 -167 -47 -228c-42 -80 -113 -128 -213 -128s-171 48 -213 128c-31 61 -47 141 -47 228s16 167 47 228c42 80 113 128 213 128s171 -48 213 -128zM182 521c-21 -45 -32 -108 -32 -181c0 -52 6 -99 17 -138l215 360
c-23 25 -51 37 -87 37c-51 0 -89 -26 -113 -78zM408 159c21 45 32 108 32 181c0 54 -6 103 -18 143l-216 -362c23 -27 52 -40 89 -40c51 0 89 26 113 78z" />
    <glyph glyph-name="fraction" unicode="&#x2044;" horiz-adv-x="210" 
d="M308 696l65 -41l-472 -671l-64 42z" />
    <glyph glyph-name="onehalf" unicode="&#xbd;" horiz-adv-x="926" 
d="M626 696l65 -41l-472 -671l-64 42zM224 272h-83v309l-69 -50l-41 56l129 93h64v-408zM744 144c-44 -23 -82 -42 -92 -74h237v-70h-323v33c0 92 61 131 131 168c58 30 110 48 110 93c0 33 -28 52 -72 52c-38 0 -72 -15 -118 -52l-45 54c53 49 111 71 164 71
c99 0 155 -58 155 -122c0 -86 -66 -110 -147 -153z" />
    <glyph glyph-name="uni2154" unicode="&#x2154;" horiz-adv-x="1021" 
d="M726 696l65 -41l-472 -671l-64 42zM360 342v-70h-323v33c0 92 61 131 131 168c58 30 110 48 110 93c0 33 -28 52 -72 52c-38 0 -72 -15 -118 -52l-45 54c53 49 111 71 164 71c99 0 155 -58 155 -122c0 -86 -66 -110 -147 -153c-44 -23 -82 -42 -92 -74h237zM845 245
c79 -2 139 -46 139 -120c0 -69 -56 -136 -162 -136c-52 0 -104 11 -169 53l40 59c57 -31 91 -39 128 -39c49 0 78 25 78 63c0 39 -36 61 -88 61c-25 0 -42 -3 -50 -6l-36 49l138 109h-189v70h292v-69z" />
    <glyph glyph-name="onequarter" unicode="&#xbc;" horiz-adv-x="895" 
d="M626 696l65 -41l-472 -671l-64 42zM224 272h-83v309l-69 -50l-41 56l129 93h64v-408zM812 155h56v-66h-56v-89h-82v89h-201v78l162 241h89l-167 -253h117v82h82v-82z" />
    <glyph glyph-name="threequarters" unicode="&#xbe;" horiz-adv-x="970" 
d="M701 696l65 -41l-472 -671l-64 42zM356 397c0 -69 -56 -136 -162 -136c-52 0 -104 11 -169 53l40 59c57 -31 91 -39 128 -39c49 0 78 25 78 63c0 39 -36 61 -88 61c-25 0 -42 -3 -50 -6l-36 49l138 109h-189v70h292v-69l-121 -94c79 -1 139 -47 139 -120zM887 155h56v-66
h-56v-89h-82v89h-201v78l162 241h89l-167 -253h117v82h82v-82z" />
    <glyph glyph-name="oneeighth" unicode="&#x215b;" horiz-adv-x="928" 
d="M626 696l65 -41l-472 -671l-64 42zM224 272h-83v309l-69 -50l-41 56l129 93h64v-408zM820 216c48 -19 76 -56 76 -105c0 -68 -59 -122 -168 -122c-108 0 -167 54 -167 122c0 49 27 86 75 105c-36 19 -58 50 -58 90c0 64 58 113 150 113s151 -49 151 -113
c0 -40 -22 -71 -59 -90zM728 352c-43 0 -72 -22 -72 -53c0 -30 30 -55 72 -55c44 0 72 25 72 55c0 31 -28 53 -72 53zM728 57c56 0 84 27 84 62s-28 65 -84 65c-55 0 -84 -30 -84 -65s29 -62 84 -62z" />
    <glyph glyph-name="threeeighths" unicode="&#x215c;" horiz-adv-x="1003" 
d="M701 696l65 -41l-472 -671l-64 42zM356 397c0 -69 -56 -136 -162 -136c-52 0 -104 11 -169 53l40 59c57 -31 91 -39 128 -39c49 0 78 25 78 63c0 39 -36 61 -88 61c-25 0 -42 -3 -50 -6l-36 49l138 109h-189v70h292v-69l-121 -94c79 -1 139 -47 139 -120zM895 216
c48 -19 76 -56 76 -105c0 -68 -59 -122 -168 -122c-108 0 -167 54 -167 122c0 49 27 86 75 105c-36 19 -58 50 -58 90c0 64 58 113 150 113s151 -49 151 -113c0 -40 -22 -71 -59 -90zM803 352c-43 0 -72 -22 -72 -53c0 -30 30 -55 72 -55c44 0 72 25 72 55
c0 31 -28 53 -72 53zM803 57c56 0 84 27 84 62s-28 65 -84 65c-55 0 -84 -30 -84 -65s29 -62 84 -62z" />
    <glyph glyph-name="fiveeighths" unicode="&#x215d;" horiz-adv-x="1005" 
d="M704 696l65 -41l-472 -671l-64 42zM365 410c0 -90 -66 -148 -165 -148c-60 0 -108 15 -173 54l40 60c50 -27 86 -42 129 -42c48 0 83 26 83 71c0 40 -27 66 -80 66c-28 0 -56 -9 -80 -29l-66 7l21 231h270v-70h-202l-10 -97c23 16 52 26 93 26c87 0 140 -62 140 -129z
M897 216c48 -19 76 -56 76 -105c0 -68 -59 -122 -168 -122c-108 0 -167 54 -167 122c0 49 27 86 75 105c-36 19 -58 50 -58 90c0 64 58 113 150 113s151 -49 151 -113c0 -40 -22 -71 -59 -90zM805 352c-43 0 -72 -22 -72 -53c0 -30 30 -55 72 -55c44 0 72 25 72 55
c0 31 -28 53 -72 53zM805 57c56 0 84 27 84 62s-28 65 -84 65c-55 0 -84 -30 -84 -65s29 -62 84 -62z" />
    <glyph glyph-name="seveneighths" unicode="&#x215e;" horiz-adv-x="918" 
d="M617 696l65 -41l-472 -671l-64 42zM188 272h-90c9 121 85 256 159 338h-231v70h325v-63c-93 -103 -153 -222 -163 -345zM810 216c48 -19 76 -56 76 -105c0 -68 -59 -122 -168 -122c-108 0 -167 54 -167 122c0 49 27 86 75 105c-36 19 -58 50 -58 90c0 64 58 113 150 113
s151 -49 151 -113c0 -40 -22 -71 -59 -90zM718 352c-43 0 -72 -22 -72 -53c0 -30 30 -55 72 -55c44 0 72 25 72 55c0 31 -28 53 -72 53zM718 57c56 0 84 27 84 62s-28 65 -84 65c-55 0 -84 -30 -84 -65s29 -62 84 -62z" />
    <glyph glyph-name="zero.dnom" horiz-adv-x="399" 
d="M199 -11c-114 0 -169 94 -169 215s55 215 169 215s168 -94 168 -215s-54 -215 -168 -215zM199 62c54 0 83 53 83 142s-29 142 -83 142s-84 -53 -84 -142s30 -142 84 -142z" />
    <glyph glyph-name="one.dnom" horiz-adv-x="318" 
d="M160 408h64v-408h-83v308l-69 -49l-41 56z" />
    <glyph glyph-name="two.dnom" horiz-adv-x="398" 
d="M215 144c-44 -23 -82 -42 -92 -74h237v-70h-323v33c0 92 61 131 131 168c58 30 110 48 110 93c0 33 -28 52 -72 52c-38 0 -72 -15 -118 -52l-45 54c53 49 111 71 164 71c99 0 155 -58 155 -122c0 -86 -66 -110 -147 -153z" />
    <glyph glyph-name="three.dnom" horiz-adv-x="393" 
d="M217 245c79 -2 139 -46 139 -120c0 -69 -56 -136 -162 -136c-52 0 -104 11 -169 53l40 59c57 -31 91 -39 128 -39c49 0 78 25 78 63c0 39 -36 61 -88 61c-25 0 -42 -3 -50 -6l-36 49l138 109h-189v70h292v-69z" />
    <glyph glyph-name="four.dnom" horiz-adv-x="396" 
d="M313 155h56v-66h-56v-89h-82v89h-201v78l162 241h89l-167 -253h117v82h82v-82z" />
    <glyph glyph-name="five.dnom" horiz-adv-x="396" 
d="M225 267c87 0 140 -62 140 -129c0 -90 -66 -148 -165 -148c-60 0 -108 15 -173 54l40 60c50 -27 86 -42 129 -42c48 0 83 26 83 71c0 40 -27 66 -80 66c-28 0 -56 -9 -80 -29l-66 7l21 231h270v-70h-202l-9 -97c22 16 51 26 92 26z" />
    <glyph glyph-name="six.dnom" horiz-adv-x="398" 
d="M223 275c87 0 144 -65 144 -140c0 -72 -59 -146 -166 -146c-108 0 -169 70 -169 170c0 105 65 188 147 249h113v-1c-76 -54 -138 -108 -164 -167c23 22 54 35 95 35zM201 62c53 0 85 30 85 72c0 40 -31 71 -82 71s-87 -31 -87 -71c0 -42 32 -72 84 -72z" />
    <glyph glyph-name="seven.dnom" horiz-adv-x="370" 
d="M26 408h325v-63c-93 -103 -153 -222 -163 -345h-90c9 122 85 256 159 338h-231v70z" />
    <glyph glyph-name="eight.dnom" horiz-adv-x="399" 
d="M291 216c48 -19 76 -56 76 -105c0 -68 -59 -122 -168 -122c-108 0 -167 54 -167 122c0 49 27 86 75 105c-36 19 -58 50 -58 90c0 64 58 113 150 113s151 -49 151 -113c0 -40 -22 -71 -59 -90zM199 352c-43 0 -72 -22 -72 -53c0 -30 30 -55 72 -55c44 0 72 25 72 55
c0 31 -28 53 -72 53zM199 57c56 0 84 27 84 62s-28 65 -84 65c-55 0 -84 -30 -84 -65s29 -62 84 -62z" />
    <glyph glyph-name="nine.dnom" horiz-adv-x="396" 
d="M195 419c108 0 169 -70 169 -170c0 -105 -66 -188 -147 -249h-112v1c75 53 134 106 160 165c-22 -21 -52 -33 -91 -33c-89 0 -145 65 -145 140c0 72 59 146 166 146zM192 203c51 0 87 31 87 71c0 42 -33 72 -84 72c-52 0 -85 -30 -85 -72c0 -40 31 -71 82 -71z" />
    <glyph glyph-name="zero.numr" horiz-adv-x="399" 
d="M199 261c-114 0 -169 94 -169 215s55 215 169 215s168 -94 168 -215s-54 -215 -168 -215zM199 334c54 0 83 53 83 142s-29 142 -83 142s-84 -53 -84 -142s30 -142 84 -142z" />
    <glyph glyph-name="one.numr" horiz-adv-x="318" 
d="M160 680h64v-408h-83v309l-69 -50l-41 56z" />
    <glyph glyph-name="two.numr" horiz-adv-x="398" 
d="M215 416c-44 -23 -82 -42 -92 -74h237v-70h-323v33c0 92 61 131 131 168c58 30 110 48 110 93c0 33 -28 52 -72 52c-38 0 -72 -15 -118 -52l-45 54c53 49 111 71 164 71c99 0 155 -58 155 -122c0 -86 -66 -110 -147 -153z" />
    <glyph glyph-name="three.numr" horiz-adv-x="393" 
d="M217 517c79 -1 139 -47 139 -120c0 -69 -56 -136 -162 -136c-52 0 -104 11 -169 53l40 59c57 -31 91 -39 128 -39c49 0 78 25 78 63c0 39 -36 61 -88 61c-25 0 -42 -3 -50 -6l-36 49l138 109h-189v70h292v-69z" />
    <glyph glyph-name="four.numr" horiz-adv-x="396" 
d="M313 427h56v-66h-56v-89h-82v89h-201v78l162 241h89l-167 -253h117v82h82v-82z" />
    <glyph glyph-name="five.numr" horiz-adv-x="396" 
d="M225 539c87 0 140 -62 140 -129c0 -90 -66 -148 -165 -148c-60 0 -108 15 -173 54l40 60c50 -27 86 -42 129 -42c48 0 83 26 83 71c0 40 -27 66 -80 66c-28 0 -56 -9 -80 -29l-66 7l21 231h270v-70h-202l-10 -97c23 16 52 26 93 26z" />
    <glyph glyph-name="six.numr" horiz-adv-x="398" 
d="M223 547c87 0 144 -65 144 -140c0 -72 -59 -146 -166 -146c-108 0 -169 70 -169 170c0 105 65 188 147 249h113v-1c-76 -54 -138 -107 -163 -167c22 22 53 35 94 35zM201 334c53 0 85 30 85 72c0 40 -31 71 -82 71s-87 -31 -87 -71c0 -42 32 -72 84 -72z" />
    <glyph glyph-name="seven.numr" horiz-adv-x="370" 
d="M26 680h325v-63c-93 -103 -153 -222 -163 -345h-90c9 121 85 256 159 338h-231v70z" />
    <glyph glyph-name="eight.numr" horiz-adv-x="399" 
d="M291 491c48 -19 76 -56 76 -105c0 -68 -59 -122 -168 -122c-108 0 -167 54 -167 122c0 49 27 86 76 105c-37 19 -59 50 -59 90c0 64 58 113 150 113s151 -49 151 -113c0 -40 -22 -71 -59 -90zM199 627c-43 0 -72 -22 -72 -53c0 -30 30 -55 72 -55c44 0 72 25 72 55
c0 31 -28 53 -72 53zM199 332c56 0 84 27 84 62s-28 65 -84 65c-55 0 -84 -30 -84 -65s29 -62 84 -62z" />
    <glyph glyph-name="nine.numr" horiz-adv-x="396" 
d="M195 691c108 0 169 -70 169 -170c0 -105 -66 -188 -147 -249h-112v1c74 53 134 106 160 164c-23 -20 -52 -32 -91 -32c-89 0 -145 65 -145 140c0 72 59 146 166 146zM192 475c51 0 87 31 87 71c0 42 -33 72 -84 72c-52 0 -85 -30 -85 -72c0 -40 31 -71 82 -71z" />
    <glyph glyph-name="uni00B9" unicode="&#xb9;" horiz-adv-x="318" 
d="M154 710h64v-408h-83v308l-69 -49l-41 56z" />
    <glyph glyph-name="uni00B2" unicode="&#xb2;" horiz-adv-x="398" 
d="M218 446c-44 -23 -82 -42 -92 -74h237v-70h-323v33c0 92 61 131 131 168c58 30 110 48 110 93c0 33 -28 52 -72 52c-38 0 -72 -15 -118 -52l-45 54c53 49 111 71 164 71c99 0 155 -58 155 -122c0 -86 -66 -110 -147 -153z" />
    <glyph glyph-name="uni00B3" unicode="&#xb3;" horiz-adv-x="393" 
d="M211 547c79 -2 139 -46 139 -120c0 -69 -56 -136 -162 -136c-52 0 -104 11 -169 53l40 59c57 -31 91 -39 128 -39c49 0 78 25 78 63c0 39 -36 61 -88 61c-25 0 -42 -3 -50 -6l-36 49l138 109h-189v70h292v-69z" />
    <glyph glyph-name="asterisk" unicode="*" horiz-adv-x="436" 
d="M253 710v-129l119 41l21 -63l-122 -40l80 -102l-54 -42l-80 106l-77 -104l-55 42l81 100l-123 40l22 63l116 -41v129h72z" />
    <glyph glyph-name="backslash" unicode="\" horiz-adv-x="455" 
d="M18 710h109l310 -710h-109z" />
    <glyph glyph-name="periodcentered" unicode="&#xb7;" horiz-adv-x="230" 
d="M177 387v-128h-124v128h124z" />
    <glyph glyph-name="bullet" unicode="&#x2022;" horiz-adv-x="510" 
d="M255 482c102 0 186 -83 186 -186c0 -101 -84 -186 -186 -186s-186 85 -186 186c0 103 84 186 186 186z" />
    <glyph glyph-name="exclamdown.case" horiz-adv-x="281" 
d="M81 582v128h124v-128h-124zM83 0v214l26 282h67l26 -282v-214h-119z" />
    <glyph glyph-name="questiondown.case" horiz-adv-x="495" 
d="M203 582v128h124v-128h-124zM231 -16c-128 0 -223 68 -223 187c0 89 59 133 129 194c47 42 73 64 80 112l3 24h95v-28c0 -71 -9 -100 -96 -175c-47 -40 -93 -71 -93 -126c0 -53 43 -86 108 -86c59 0 103 26 172 79l66 -76c-78 -70 -152 -105 -241 -105z" />
    <glyph glyph-name="colon" unicode=":" horiz-adv-x="270" 
d="M197 502v-128h-124v128h124zM197 128v-128h-124v128h124z" />
    <glyph glyph-name="comma" unicode="," horiz-adv-x="230" 
d="M184 128v-128l-71 -138h-64l63 138h-59v128h131z" />
    <glyph glyph-name="ellipsis" unicode="&#x2026;" horiz-adv-x="678" 
d="M177 128v-128h-124v128h124zM400 128v-128h-123v128h123zM625 128v-128h-124v128h124z" />
    <glyph glyph-name="exclam" unicode="!" horiz-adv-x="287" 
d="M208 710v-214l-26 -282h-67l-26 282v214h119zM210 128v-128h-124v128h124z" />
    <glyph glyph-name="exclamdown" unicode="&#xa1;" horiz-adv-x="241" 
d="M61 375v128h123v-128h-123zM62 -207v214l26 282h68l26 -282v-214h-120z" />
    <glyph glyph-name="numbersign" unicode="#" 
d="M566 431h-90l-38 -180h90l-16 -74h-90l-37 -177h-84l37 177h-142l-38 -177h-84l38 177h-93l16 74h92l38 180h-92l17 74h91l37 175h84l-37 -175h142l38 175h84l-37 -175h91zM354 251l38 180h-142l-38 -180h142z" />
    <glyph glyph-name="period" unicode="." horiz-adv-x="230" 
d="M177 128v-128h-124v128h124z" />
    <glyph glyph-name="question" unicode="?" horiz-adv-x="500" 
d="M264 726c128 0 223 -68 223 -187c0 -89 -59 -133 -129 -194c-47 -42 -73 -64 -80 -112l-3 -24h-95v28c0 71 9 100 96 175c47 40 93 71 93 126c0 53 -43 86 -108 86c-59 0 -103 -26 -172 -79l-66 76c78 70 152 105 241 105zM292 128v-128h-124v128h124z" />
    <glyph glyph-name="questiondown" unicode="&#xbf;" horiz-adv-x="477" 
d="M198 375v128h124v-128h-124zM226 -223c-128 0 -223 69 -223 187c0 89 59 133 129 195c47 41 73 64 80 112l3 23h95v-27c0 -72 -9 -101 -96 -175c-47 -41 -93 -72 -93 -126c0 -53 43 -87 108 -87c59 0 103 26 172 80l66 -77c-78 -70 -152 -105 -241 -105z" />
    <glyph glyph-name="quotedbl" unicode="&#x22;" horiz-adv-x="410" 
d="M159 710l-10 -257h-85l-11 257h106zM357 710l-11 -257h-85l-11 257h107z" />
    <glyph glyph-name="quotesingle" unicode="'" horiz-adv-x="212" 
d="M159 710l-10 -257h-85l-11 257h106z" />
    <glyph glyph-name="semicolon" unicode=";" horiz-adv-x="270" 
d="M203 502v-128h-124v128h124zM208 128v-128l-72 -138h-63l63 138h-59v128h131z" />
    <glyph glyph-name="slash" unicode="/" horiz-adv-x="455" 
d="M437 710l-310 -710h-109l310 710h109z" />
    <glyph glyph-name="periodcentered.ss02" horiz-adv-x="257" 
d="M129 249c-42 0 -76 34 -76 75s34 75 76 75c41 0 75 -34 75 -75s-34 -75 -75 -75z" />
    <glyph glyph-name="exclamdown.case.ss02" horiz-adv-x="281" 
d="M145 720c41 0 75 -34 75 -75s-34 -75 -75 -75c-42 0 -76 34 -76 75s34 75 76 75zM82 0v214l26 282h68l26 -282v-214h-120z" />
    <glyph glyph-name="questiondown.case.ss02" horiz-adv-x="495" 
d="M269 726c41 0 75 -34 75 -76c0 -40 -34 -74 -75 -74c-42 0 -76 34 -76 74c0 42 34 76 76 76zM315 507v-28c0 -72 -9 -100 -96 -175c-47 -40 -93 -71 -93 -126c0 -53 43 -86 108 -86c59 0 103 26 172 79l66 -76c-78 -71 -152 -105 -241 -105c-128 0 -223 68 -223 187
c0 89 59 133 129 194c47 41 73 64 80 112l3 24h95z" />
    <glyph glyph-name="colon.ss02" horiz-adv-x="277" 
d="M139 359c-42 0 -76 34 -76 76c0 41 34 75 76 75c41 0 75 -34 75 -75c0 -42 -34 -76 -75 -76zM139 -10c-42 0 -76 34 -76 75s34 75 76 75c41 0 75 -34 75 -75s-34 -75 -75 -75z" />
    <glyph glyph-name="comma.ss02" horiz-adv-x="237" 
d="M120 139c46 0 86 -35 86 -104c0 -83 -50 -175 -154 -178v52c34 3 76 32 86 84c-6 -1 -13 -2 -19 -2c-43 0 -76 30 -76 73c0 42 35 75 77 75z" />
    <glyph glyph-name="ellipsis.ss02" horiz-adv-x="705" 
d="M129 -10c-42 0 -76 34 -76 75s34 75 76 75c41 0 75 -34 75 -75s-34 -75 -75 -75zM352 -10c-41 0 -75 34 -75 75s34 75 75 75s75 -34 75 -75s-34 -75 -75 -75zM577 -10c-42 0 -76 34 -76 75s34 75 76 75c40 0 75 -34 75 -75s-35 -75 -75 -75z" />
    <glyph glyph-name="exclam.ss02" horiz-adv-x="287" 
d="M208 710v-214l-26 -282h-67l-26 282v214h119zM146 -10c-41 0 -75 34 -75 75s34 75 75 75c42 0 76 -34 76 -75s-34 -75 -76 -75z" />
    <glyph glyph-name="exclamdown.ss02" horiz-adv-x="241" 
d="M152 514c41 0 75 -34 75 -76c0 -41 -34 -75 -75 -75c-42 0 -76 34 -76 75c0 42 34 76 76 76zM89 -207v214l26 282h68l26 -282v-214h-120z" />
    <glyph glyph-name="period.ss02" horiz-adv-x="237" 
d="M119 -10c-42 0 -76 34 -76 75s34 75 76 75c41 0 75 -34 75 -75s-34 -75 -75 -75z" />
    <glyph glyph-name="question.ss02" horiz-adv-x="500" 
d="M180 209v28c0 71 9 100 96 175c47 40 93 71 93 126c0 53 -43 86 -108 86c-59 0 -103 -26 -172 -79l-66 76c78 70 152 105 241 105c128 0 223 -68 223 -187c0 -89 -59 -133 -129 -194c-47 -42 -73 -64 -80 -112l-3 -24h-95zM226 -10c-41 0 -75 34 -75 75s34 75 75 75
c42 0 76 -34 76 -75s-34 -75 -76 -75z" />
    <glyph glyph-name="questiondown.ss02" horiz-adv-x="477" 
d="M264 511c41 0 75 -34 75 -76c0 -40 -34 -74 -75 -74c-42 0 -76 34 -76 74c0 42 34 76 76 76zM310 292v-28c0 -72 -9 -100 -96 -175c-47 -40 -93 -71 -93 -126c0 -53 43 -86 108 -86c59 0 103 26 172 79l66 -76c-78 -71 -152 -105 -241 -105c-128 0 -223 68 -223 187
c0 89 59 133 129 194c47 41 73 64 80 112l3 24h95z" />
    <glyph glyph-name="semicolon.ss02" horiz-adv-x="277" 
d="M139 359c-42 0 -76 34 -76 76c0 41 34 75 76 75c41 0 75 -34 75 -75c0 -42 -34 -76 -75 -76zM140 139c46 0 86 -35 86 -104c0 -83 -50 -175 -154 -178v52c34 3 76 32 86 84c-6 -1 -13 -2 -19 -2c-43 0 -76 30 -76 73c0 42 35 75 77 75z" />
    <glyph glyph-name="underscore" unicode="_" horiz-adv-x="600" 
d="M605 -114v-76h-610v76h610z" />
    <glyph glyph-name="braceleft" unicode="{" horiz-adv-x="370" 
d="M337 767v-81h-29c-74 0 -68 -32 -68 -105v-143c0 -65 -16 -111 -94 -124v-2c78 -13 94 -59 94 -124v-153c0 -73 -6 -105 68 -105h29v-80h-53c-103 0 -148 34 -148 158v163c0 74 -18 96 -86 96v93c68 0 86 21 86 95v154c0 124 45 158 148 158h53z" />
    <glyph glyph-name="braceright" unicode="}" horiz-adv-x="370" 
d="M33 767h53c103 0 147 -34 147 -158v-154c0 -74 19 -95 87 -95v-93c-68 0 -87 -22 -87 -96v-163c0 -124 -44 -158 -147 -158h-53v80h29c74 0 68 32 68 105v153c0 65 16 111 94 124v2c-78 13 -94 59 -94 124v143c0 73 6 105 -68 105h-29v81z" />
    <glyph glyph-name="bracketleft" unicode="[" horiz-adv-x="341" 
d="M308 767v-81h-111v-756h111v-80h-215v917h215z" />
    <glyph glyph-name="bracketright" unicode="]" horiz-adv-x="341" 
d="M33 767h215v-917h-215v80h111v756h-111v81z" />
    <glyph glyph-name="parenleft" unicode="(" horiz-adv-x="341" 
d="M268 783l70 -55c-106 -137 -165 -254 -165 -421c0 -166 59 -284 165 -421l-70 -55c-115 126 -202 271 -202 476s87 350 202 476z" />
    <glyph glyph-name="parenright" unicode=")" horiz-adv-x="341" 
d="M73 -166l-70 55c106 137 165 254 165 421c0 166 -59 284 -165 420l70 56c115 -126 202 -272 202 -476c0 -205 -87 -350 -202 -476z" />
    <glyph glyph-name="emdash.case" horiz-adv-x="977" 
d="M902 402v-94h-828v94h828z" />
    <glyph glyph-name="endash.case" horiz-adv-x="731" 
d="M667 402v-94h-603v94h603z" />
    <glyph glyph-name="hyphen.case" horiz-adv-x="408" 
d="M354 404v-99h-301v99h301z" />
    <glyph glyph-name="emdash" unicode="&#x2014;" horiz-adv-x="977" 
d="M902 336v-94h-828v94h828z" />
    <glyph glyph-name="endash" unicode="&#x2013;" horiz-adv-x="731" 
d="M667 336v-94h-603v94h603z" />
    <glyph glyph-name="hyphen" unicode="-" horiz-adv-x="408" 
d="M354 339v-99h-301v99h301z" />
    <glyph glyph-name="guillemotleft.case" horiz-adv-x="594" 
d="M305 555l-144 -222l144 -222h-105l-142 222l142 222h105zM530 555l-143 -222l143 -222h-105l-141 222l141 222h105z" />
    <glyph glyph-name="guillemotright.case" horiz-adv-x="594" 
d="M63 555h105l142 -222l-142 -222h-105l140 222zM289 555h105l141 -222l-141 -222h-105l140 222z" />
    <glyph glyph-name="guilsinglleft.case" horiz-adv-x="368" 
d="M305 555l-144 -222l144 -222h-105l-142 222l142 222h105z" />
    <glyph glyph-name="guilsinglright.case" horiz-adv-x="368" 
d="M63 555h105l142 -222l-142 -222h-105l140 222z" />
    <glyph glyph-name="guillemotleft" unicode="&#xab;" horiz-adv-x="594" 
d="M305 475l-144 -222l144 -222h-105l-142 222l142 222h105zM530 475l-143 -222l143 -222h-105l-141 222l141 222h105z" />
    <glyph glyph-name="guillemotright" unicode="&#xbb;" horiz-adv-x="594" 
d="M63 475h105l142 -222l-142 -222h-105l140 222zM289 475h105l141 -222l-141 -222h-105l140 222z" />
    <glyph glyph-name="guilsinglleft" unicode="&#x2039;" horiz-adv-x="368" 
d="M305 475l-144 -222l144 -222h-105l-142 222l142 222h105z" />
    <glyph glyph-name="guilsinglright" unicode="&#x203a;" horiz-adv-x="368" 
d="M63 475h105l142 -222l-142 -222h-105l140 222z" />
    <glyph glyph-name="quotedblbase" unicode="&#x201e;" horiz-adv-x="413" 
d="M169 125v-125l-68 -126h-60l58 126h-56v125h126zM370 125v-125l-68 -126h-60l58 126h-56v125h126z" />
    <glyph glyph-name="quotedblleft" unicode="&#x201c;" horiz-adv-x="416" 
d="M43 457v122l69 131h62l-62 -131h58v-122h-127zM244 457v122l69 131h62l-62 -131h58v-122h-127z" />
    <glyph glyph-name="quotedblright" unicode="&#x201d;" horiz-adv-x="416" 
d="M172 710v-122l-69 -131h-62l62 131h-58v122h127zM373 710v-122l-69 -131h-62l62 131h-58v122h127z" />
    <glyph glyph-name="quoteleft" unicode="&#x2018;" horiz-adv-x="215" 
d="M43 457v122l69 131h62l-62 -131h58v-122h-127z" />
    <glyph glyph-name="quoteright" unicode="&#x2019;" horiz-adv-x="215" 
d="M172 710v-122l-69 -131h-62l62 131h-58v122h127z" />
    <glyph glyph-name="quotesinglbase" unicode="&#x201a;" horiz-adv-x="212" 
d="M169 125v-125l-68 -126h-60l58 126h-56v125h126z" />
    <glyph glyph-name="quotedblbase.ss02" horiz-adv-x="439" 
d="M114 132c43 0 82 -33 82 -99c0 -78 -48 -165 -147 -168v49c32 3 73 30 82 80c-5 -2 -12 -2 -17 -2c-42 0 -73 28 -73 69c0 40 33 71 73 71zM315 132c43 0 81 -33 81 -99c0 -78 -47 -165 -146 -168v49c32 3 72 30 82 80c-6 -2 -12 -2 -18 -2c-41 0 -72 28 -72 69
c0 40 33 71 73 71z" />
    <glyph glyph-name="quotedblleft.ss02" horiz-adv-x="442" 
d="M125 588c41 0 73 -28 73 -69c0 -40 -34 -71 -73 -71c-44 0 -82 33 -82 98c0 79 48 166 146 169v-49c-32 -3 -72 -30 -82 -80c6 2 12 2 18 2zM329 588c41 0 73 -28 73 -69c0 -40 -34 -71 -74 -71c-43 0 -81 33 -81 98c0 79 48 166 146 169v-49c-32 -3 -72 -30 -82 -80
c6 2 12 2 18 2z" />
    <glyph glyph-name="quotedblright.ss02" horiz-adv-x="439" 
d="M114 714c43 0 82 -33 82 -98c0 -79 -48 -166 -147 -169v49c32 3 73 30 82 80c-5 -2 -12 -2 -17 -2c-42 0 -73 28 -73 69c0 40 33 71 73 71zM315 714c43 0 81 -33 81 -98c0 -79 -47 -166 -146 -169v49c32 3 72 30 82 80c-6 -2 -12 -2 -18 -2c-41 0 -72 28 -72 69
c0 40 33 71 73 71z" />
    <glyph glyph-name="quoteleft.ss02" horiz-adv-x="239" 
d="M125 588c41 0 73 -28 73 -69c0 -40 -34 -71 -73 -71c-44 0 -82 33 -82 98c0 79 48 166 146 169v-49c-32 -3 -72 -30 -82 -80c6 2 12 2 18 2z" />
    <glyph glyph-name="quoteright.ss02" horiz-adv-x="239" 
d="M114 714c43 0 82 -33 82 -98c0 -79 -48 -166 -147 -169v49c32 3 73 30 82 80c-5 -2 -12 -2 -17 -2c-42 0 -73 28 -73 69c0 40 33 71 73 71z" />
    <glyph glyph-name="quotesinglbase.ss02" horiz-adv-x="239" 
d="M114 132c43 0 82 -33 82 -99c0 -78 -48 -165 -147 -168v49c32 3 73 30 82 80c-5 -2 -12 -2 -17 -2c-42 0 -73 28 -73 69c0 40 33 71 73 71z" />
    <glyph glyph-name="space" unicode=" " horiz-adv-x="223" 
 />
    <glyph glyph-name="cent" unicode="&#xa2;" 
d="M530 98c-56 -71 -108 -101 -171 -110v-88h-80v87c-131 15 -216 114 -216 264s87 249 216 265v86h80v-87c61 -8 111 -35 163 -93l-70 -67c-37 37 -65 56 -93 64v-334c31 10 61 32 98 74zM175 251c0 -79 35 -149 104 -168v338c-69 -19 -104 -90 -104 -170z" />
    <glyph glyph-name="currency" unicode="&#xa4;" 
d="M487 581l49 -48l-64 -64c26 -35 41 -79 41 -129s-15 -94 -41 -129l64 -64l-49 -48l-65 65c-35 -22 -78 -34 -125 -34c-49 0 -92 13 -127 36l-68 -67l-48 48l67 66c-26 35 -40 78 -40 127s14 92 39 126l-67 67l49 48l67 -68c36 24 79 37 128 37c47 0 90 -12 124 -34z
M297 476c-78 0 -135 -53 -135 -136s57 -136 135 -136s135 53 135 136s-57 136 -135 136z" />
    <glyph glyph-name="dollar" unicode="$" horiz-adv-x="610" 
d="M560 193c0 -112 -81 -194 -212 -207v-86h-80v86c-90 8 -159 43 -242 119l71 74c69 -64 117 -88 171 -95v225c-158 45 -209 92 -209 193c0 102 88 181 209 193v85h80v-85c80 -9 141 -40 209 -101l-70 -74c-55 50 -95 70 -139 77v-204c152 -42 212 -92 212 -200zM167 504
c0 -48 33 -68 101 -89v183c-64 -10 -101 -47 -101 -94zM348 84c61 9 102 47 102 104c0 55 -40 78 -102 97v-201z" />
    <glyph glyph-name="Euro" unicode="&#x20ac;" horiz-adv-x="610" 
d="M392 81c54 0 85 11 139 49l61 -77c-63 -49 -117 -69 -200 -69c-144 0 -238 101 -268 248h-72v78h62v30c0 16 0 32 2 47h-64v78h76c34 138 125 231 264 231c83 0 137 -20 200 -69l-61 -77c-54 38 -85 49 -139 49c-70 0 -122 -49 -147 -134h239v-78h-253
c-1 -15 -2 -31 -2 -47c0 -10 1 -20 1 -30h254v-78h-243c22 -95 76 -151 151 -151z" />
    <glyph glyph-name="florin" unicode="&#x192;" 
d="M334 472h124v-83h-124v-420c0 -111 -50 -164 -150 -164c-37 0 -70 6 -100 15l20 83c25 -6 44 -8 62 -8c43 0 58 22 58 73v421h-107v83h107v64c0 105 57 160 158 160c31 0 62 -4 105 -18l-21 -83c-28 7 -47 10 -64 10c-46 0 -68 -21 -68 -77v-56z" />
    <glyph glyph-name="uni20BA" unicode="&#x20ba;" 
d="M457 303l102 -16l-11 -60c-31 -165 -106 -227 -289 -227h-126v245l-91 -40v82l91 40v89l-91 -40v82l91 40v182h113v-132l150 67v-82l-150 -66v-90l150 67v-82l-150 -66v-199h9c111 0 166 23 191 149z" />
    <glyph glyph-name="uni20BD" unicode="&#x20bd;" horiz-adv-x="610" 
d="M342 271h-103v-77h201v-75h-201v-119h-113v119h-89v75h89v77h-89v86h89v323h216c133 0 224 -80 224 -206s-91 -203 -224 -203zM239 585v-228h93c75 0 124 43 124 114c0 72 -49 114 -124 114h-93z" />
    <glyph glyph-name="uni20B9" unicode="&#x20b9;" 
d="M549 605h-109c21 -25 35 -56 41 -92h68v-75h-68c-16 -105 -101 -168 -221 -168h-37l275 -270h-151l-268 270v87h170c65 0 109 28 121 81h-291v75h289c-15 47 -57 72 -119 72h-170v95h470v-75z" />
    <glyph glyph-name="sterling" unicode="&#xa3;" 
d="M524 119l37 -86c-59 -36 -106 -46 -147 -46c-94 0 -160 38 -236 38c-53 0 -81 -14 -109 -27l-32 87c52 20 125 45 125 136c0 20 -1 37 -4 53h-96v85h74c-12 37 -23 78 -23 142c0 123 103 192 220 192c83 0 150 -26 217 -79l-61 -79c-60 43 -102 61 -153 61
c-62 0 -108 -37 -108 -104c0 -54 12 -94 24 -133h204v-85h-185c1 -12 2 -25 2 -38c0 -61 -33 -99 -66 -122c76 -8 125 -32 198 -32c41 0 72 11 119 37z" />
    <glyph glyph-name="yen" unicode="&#xa5;" 
d="M566 680l-152 -268h116v-78h-160l-19 -34v-44h179v-78h-179v-178h-114v178h-176v78h176v45l-18 33h-158v78h114l-151 268h126l147 -274l148 274h121z" />
    <glyph glyph-name="approxequal" unicode="&#x2248;" horiz-adv-x="607" 
d="M202 478c77 0 137 -55 202 -55c33 0 54 7 100 50l52 -65c-60 -62 -92 -76 -148 -76c-71 0 -133 55 -203 55c-40 0 -63 -15 -102 -50l-52 65c55 56 95 76 151 76zM202 278c77 0 138 -55 202 -55c33 0 54 7 100 50l52 -65c-60 -62 -92 -76 -148 -76c-71 0 -131 55 -203 55
c-40 0 -63 -15 -102 -50l-52 65c55 56 95 76 151 76z" />
    <glyph glyph-name="asciitilde" unicode="~" horiz-adv-x="600" 
d="M195 413c93 0 142 -54 210 -54c36 0 52 17 55 48h89c0 -86 -54 -137 -131 -137c-89 0 -149 55 -215 55c-36 0 -59 -20 -64 -49h-88c1 87 63 137 144 137z" />
    <glyph glyph-name="divide" unicode="&#xf7;" horiz-adv-x="600" 
d="M362 558v-128h-124v128h124zM560 357v-94h-520v94h520zM362 190v-128h-124v128h124z" />
    <glyph glyph-name="equal" unicode="=" horiz-adv-x="600" 
d="M560 457v-94h-520v94h520zM560 257v-94h-520v94h520z" />
    <glyph glyph-name="greater" unicode="&#x3e;" horiz-adv-x="600" 
d="M60 534l480 -180v-88l-480 -180v98l356 126l-356 126v98z" />
    <glyph glyph-name="greaterequal" unicode="&#x2265;" horiz-adv-x="600" 
d="M60 576l480 -180v-89l-480 -180v98l356 127l-356 126v98zM560 95v-95h-520v95h520z" />
    <glyph glyph-name="infinity" unicode="&#x221e;" horiz-adv-x="817" 
d="M593 464c98 0 172 -75 172 -174s-74 -173 -169 -173c-68 0 -133 40 -190 106c-67 -80 -122 -106 -185 -106c-93 0 -168 74 -168 173s75 174 174 174c70 0 129 -39 185 -107c64 78 125 107 181 107zM224 203c45 0 83 24 130 81c-47 56 -75 91 -127 91
c-46 0 -82 -35 -82 -86s36 -86 79 -86zM595 203c43 0 78 33 78 86c0 51 -35 86 -81 86c-47 0 -85 -29 -127 -82c40 -50 78 -90 130 -90z" />
    <glyph glyph-name="integral" unicode="&#x222b;" horiz-adv-x="600" 
d="M334 -31c0 -111 -50 -164 -150 -164c-37 0 -70 6 -100 15l20 83c25 -6 44 -8 62 -8c43 0 58 22 58 73v598c0 105 57 160 158 160c31 0 62 -4 105 -18l-21 -83c-28 7 -47 10 -64 10c-46 0 -68 -21 -68 -77v-589z" />
    <glyph glyph-name="less" unicode="&#x3c;" horiz-adv-x="600" 
d="M540 534v-98l-356 -126l356 -126v-98l-480 180v88z" />
    <glyph glyph-name="lessequal" unicode="&#x2264;" horiz-adv-x="600" 
d="M540 576v-98l-356 -126l356 -127v-98l-480 180v89zM560 95v-95h-520v95h520z" />
    <glyph glyph-name="logicalnot" unicode="&#xac;" horiz-adv-x="600" 
d="M40 357h520v-94v-193h-95v193h-425v94z" />
    <glyph glyph-name="minus" unicode="&#x2212;" horiz-adv-x="600" 
d="M560 357v-94h-520v94h520z" />
    <glyph glyph-name="multiply" unicode="&#xd7;" horiz-adv-x="600" 
d="M537 480l-170 -170l170 -170l-67 -67l-170 170l-170 -170l-67 67l170 170l-170 170l67 67l170 -170l170 170z" />
    <glyph glyph-name="uni2924" unicode="&#x2924;" horiz-adv-x="643" 
d="M523 387h-90v222c-111 -116 -205 -213 -205 -332c0 -113 97 -212 209 -329l-74 -72c-121 126 -243 249 -243 401c0 159 123 277 243 400h-218v88h378v-378z" />
    <glyph glyph-name="uni2923" unicode="&#x2923;" horiz-adv-x="643" 
d="M280 677c121 -124 243 -241 243 -400c0 -152 -122 -275 -243 -401l-74 72c112 117 209 216 209 329c0 118 -94 216 -205 331v-221h-90v378h378v-88h-218z" />
    <glyph glyph-name="notequal" unicode="&#x2260;" horiz-adv-x="600" 
d="M560 363h-197l-38 -106h235v-94h-270l-39 -108h-95l39 108h-155v94h190l38 106h-228v94h263l39 107h95l-39 -107h162v-94z" />
    <glyph glyph-name="partialdiff" unicode="&#x2202;" horiz-adv-x="562" 
d="M153 724c271 -35 376 -208 376 -431c0 -195 -97 -310 -253 -310s-243 121 -243 251c0 128 83 241 221 241c66 0 123 -27 159 -72c-29 110 -110 199 -284 222zM276 80c81 0 135 67 135 151s-58 151 -138 151c-81 0 -129 -67 -129 -151s50 -151 132 -151z" />
    <glyph glyph-name="percent" unicode="%" horiz-adv-x="871" 
d="M641 696l66 -41l-473 -671l-64 42zM214 691c91 0 162 -67 162 -163c0 -98 -71 -164 -162 -164s-161 66 -161 164c0 96 70 163 161 163zM214 622c-51 0 -82 -41 -82 -94c0 -55 31 -95 82 -95c52 0 83 40 83 95c0 53 -31 94 -83 94zM656 317c92 0 162 -67 162 -163
c0 -98 -70 -165 -162 -165c-91 0 -161 67 -161 165c0 96 70 163 161 163zM656 248c-51 0 -82 -41 -82 -94c0 -55 31 -95 82 -95c52 0 83 40 83 95c0 53 -31 94 -83 94z" />
    <glyph glyph-name="perthousand" unicode="&#x2030;" horiz-adv-x="1262" 
d="M641 696l66 -41l-473 -671l-64 42zM214 691c91 0 162 -67 162 -163c0 -98 -71 -164 -162 -164s-161 66 -161 164c0 96 70 163 161 163zM214 622c-51 0 -82 -41 -82 -94c0 -55 31 -95 82 -95c52 0 83 40 83 95c0 53 -31 94 -83 94zM656 317c92 0 162 -67 162 -163
c0 -98 -70 -165 -162 -165c-91 0 -161 67 -161 165c0 96 70 163 161 163zM1033 317c91 0 162 -67 162 -163c0 -98 -71 -165 -162 -165c-92 0 -161 67 -161 165c0 96 69 163 161 163zM656 248c-51 0 -82 -41 -82 -94c0 -55 31 -95 82 -95c52 0 83 40 83 95
c0 53 -31 94 -83 94zM1033 248c-51 0 -82 -41 -82 -94c0 -55 31 -95 82 -95c52 0 83 40 83 95c0 53 -31 94 -83 94z" />
    <glyph glyph-name="plus" unicode="+" horiz-adv-x="600" 
d="M348 570v-213h212v-94h-212v-213h-96v213h-212v94h212v213h96z" />
    <glyph glyph-name="plusminus" unicode="&#xb1;" horiz-adv-x="600" 
d="M348 676v-212h212v-95h-212v-213h-96v213h-212v95h212v212h96zM560 95v-95h-520v95h520z" />
    <glyph glyph-name="product" unicode="&#x220f;" horiz-adv-x="719" 
d="M643 710v-820h-119v720h-329v-720h-119v820h567z" />
    <glyph glyph-name="radical" unicode="&#x221a;" horiz-adv-x="625" 
d="M482 710h122l-250 -710h-150l-181 502h123l137 -390z" />
    <glyph glyph-name="uni2925" unicode="&#x2925;" horiz-adv-x="643" 
d="M433 306h90v-378h-378v88h218c-121 124 -243 241 -243 400c0 152 122 275 243 401l74 -72c-112 -117 -209 -216 -209 -329c0 -119 93 -216 205 -332v222z" />
    <glyph glyph-name="uni2926" unicode="&#x2926;" horiz-adv-x="643" 
d="M523 416c0 -159 -122 -276 -243 -400h218v-88h-378v378h90v-221c111 115 205 213 205 331c0 113 -97 212 -209 329l74 72c121 -126 243 -249 243 -401z" />
    <glyph glyph-name="divide.ss02" horiz-adv-x="600" 
d="M301 430c-42 0 -76 34 -76 76c0 40 34 75 76 75c41 0 75 -35 75 -75c0 -42 -34 -76 -75 -76zM560 357v-94h-520v94h520zM301 39c-42 0 -76 35 -76 76s34 75 76 75c41 0 75 -34 75 -75s-34 -76 -75 -76z" />
    <glyph glyph-name="summation" unicode="&#x2211;" horiz-adv-x="601" 
d="M545 710v-98h-355l244 -312l-247 -317h384v-98h-521v93l244 322l-242 317v93h493z" />
    <glyph glyph-name="arrowup" unicode="&#x2191;" horiz-adv-x="737" 
d="M697 437l-64 -65l-214 217v-589h-100v589l-214 -217l-65 65l329 328z" />
    <glyph glyph-name="uni2197" unicode="&#x2197;" horiz-adv-x="743" 
d="M178 710h495v-495h-92v337l-484 -485l-67 66l487 486h-339v91z" />
    <glyph glyph-name="arrowright" unicode="&#x2192;" horiz-adv-x="927" 
d="M555 680l342 -341l-342 -343l-66 67l233 229h-665v93h664l-232 229z" />
    <glyph glyph-name="uni2198" unicode="&#x2198;" horiz-adv-x="743" 
d="M581 495h92v-495h-495v91h339l-487 486l67 66l484 -485v337z" />
    <glyph glyph-name="arrowdown" unicode="&#x2193;" horiz-adv-x="737" 
d="M633 338l64 -65l-328 -328l-329 328l65 65l214 -217v589h100v-589z" />
    <glyph glyph-name="uni2199" unicode="&#x2199;" horiz-adv-x="743" 
d="M713 577l-486 -486h338v-91h-495v495h92v-337l485 485z" />
    <glyph glyph-name="arrowleft" unicode="&#x2190;" horiz-adv-x="927" 
d="M870 385v-93h-665l233 -229l-66 -67l-342 343l342 341l66 -66l-232 -229h664z" />
    <glyph glyph-name="uni2196" unicode="&#x2196;" horiz-adv-x="743" 
d="M713 133l-66 -66l-485 485v-337h-92v495h495v-91h-338z" />
    <glyph glyph-name="lozenge" unicode="&#x25ca;" horiz-adv-x="613" 
d="M365 710l215 -356l-215 -354h-117l-215 354l215 356h117zM306 611l-155 -257l155 -255l155 255z" />
    <glyph glyph-name="bar" unicode="|" horiz-adv-x="387" 
d="M241 800v-940h-95v940h95z" />
    <glyph glyph-name="brokenbar" unicode="&#xa6;" horiz-adv-x="387" 
d="M241 800v-400h-95v400h95zM241 260v-400h-95v400h95z" />
    <glyph glyph-name="at" unicode="@" horiz-adv-x="962" 
d="M711 473l-56 -265c-13 -60 -12 -119 61 -119c68 0 116 81 116 201c0 220 -148 327 -337 327c-224 0 -360 -157 -360 -376c0 -210 127 -355 376 -355h224v-76h-245c-281 0 -447 176 -447 433c0 263 172 454 447 454c252 0 429 -160 429 -405c0 -167 -85 -273 -209 -273
c-93 0 -128 47 -139 89c-35 -55 -92 -89 -161 -89c-105 0 -156 65 -156 163c0 138 91 299 236 299c64 0 107 -30 121 -74l11 66h89zM423 98c112 0 151 150 151 217c0 56 -20 87 -75 87c-91 0 -149 -118 -149 -214c0 -58 24 -90 73 -90z" />
    <glyph glyph-name="ampersand" unicode="&#x26;" horiz-adv-x="711" 
d="M708 0h-134l-75 88c-61 -63 -126 -103 -227 -103c-135 0 -229 80 -229 192c0 99 58 158 183 229c-40 49 -73 98 -73 157c0 97 82 162 184 162c109 0 184 -67 184 -154c0 -77 -35 -124 -142 -187l122 -143l98 122l77 -59l-111 -138zM338 643c-45 0 -82 -31 -82 -78
c0 -38 30 -74 64 -113c80 44 99 74 99 119c0 42 -35 72 -81 72zM279 77c63 0 108 32 156 85l-152 177c-92 -56 -129 -93 -129 -154c0 -63 48 -108 125 -108z" />
    <glyph glyph-name="paragraph" unicode="&#xb6;" horiz-adv-x="668" 
d="M423 710v-810h-86v364h-77c-135 0 -227 88 -227 223s92 223 227 223h163zM591 710v-810h-86v810h86z" />
    <glyph glyph-name="copyright" unicode="&#xa9;" horiz-adv-x="856" 
d="M428 -13c-208 0 -368 158 -368 368s160 368 368 368s368 -158 368 -368s-160 -368 -368 -368zM428 45c175 0 301 135 301 310s-126 310 -301 310s-301 -135 -301 -310s126 -310 301 -310zM432 134c-126 0 -208 96 -208 221s82 221 208 221c84 0 141 -38 176 -107l-66 -31
c-30 51 -62 69 -110 69c-80 0 -130 -62 -130 -152c0 -89 51 -152 130 -152c53 0 81 19 114 79l65 -33c-40 -79 -90 -115 -179 -115z" />
    <glyph glyph-name="registered" unicode="&#xae;" horiz-adv-x="548" 
d="M274 280c-125 0 -221 95 -221 221s96 221 221 221s221 -95 221 -221s-96 -221 -221 -221zM274 322c102 0 174 77 174 179s-72 179 -174 179s-174 -77 -174 -179s72 -179 174 -179zM188 381v248h104c47 0 80 -34 80 -78c0 -33 -19 -61 -48 -73l59 -97h-54l-55 92h-37v-92
h-49zM237 514h46c28 0 41 15 41 36c0 20 -13 35 -41 35h-46v-71z" />
    <glyph glyph-name="uni2117" unicode="&#x2117;" horiz-adv-x="856" 
d="M428 -13c-208 0 -368 158 -368 368s160 368 368 368s368 -158 368 -368s-160 -368 -368 -368zM428 45c175 0 301 135 301 310s-126 310 -301 310s-301 -135 -301 -310s126 -310 301 -310zM295 149v413h167c79 0 134 -55 134 -129c0 -90 -55 -124 -134 -124h-98v-160h-69z
M364 367h83c55 0 80 26 80 66c0 39 -25 67 -80 67h-83v-133z" />
    <glyph glyph-name="section" unicode="&#xa7;" 
d="M463 190c40 -25 56 -59 56 -110c0 -95 -87 -167 -224 -167c-93 0 -159 22 -236 83l59 73c73 -53 116 -67 178 -67c72 0 118 31 118 74c0 45 -46 54 -148 77c-150 32 -223 73 -223 171c0 59 31 98 84 122c-40 26 -56 60 -56 111c0 95 87 167 224 167c93 0 159 -22 236 -83
l-59 -74c-73 54 -116 67 -178 67c-72 0 -118 -31 -118 -73c0 -45 46 -55 148 -77c150 -32 223 -72 223 -170c0 -60 -31 -99 -84 -124zM150 330c0 -56 74 -70 162 -89c13 -3 25 -5 37 -8c52 11 91 36 91 74c0 56 -74 69 -162 89c-13 2 -25 5 -37 8c-52 -11 -91 -35 -91 -74z
" />
    <glyph glyph-name="trademark" unicode="&#x2122;" horiz-adv-x="954" 
d="M372 710v-64h-131v-323h-76v323h-132v64h339zM888 710v-387h-69v293l-118 -293h-65l-121 289v-289h-71v387h101l124 -298l118 298h101z" />
    <glyph glyph-name="degree" unicode="&#xb0;" horiz-adv-x="421" 
d="M210 428c-83 0 -150 63 -150 148s67 147 150 147c85 0 151 -62 151 -147s-66 -148 -151 -148zM210 495c47 0 80 34 80 81s-33 80 -80 80c-46 0 -79 -33 -79 -80s33 -81 79 -81z" />
    <glyph glyph-name="uni2116" unicode="&#x2116;" horiz-adv-x="1113" 
d="M909 323c-110 0 -192 78 -192 197s82 197 192 197s191 -78 191 -197s-78 -197 -191 -197zM519 422v288h115v-710h-126l-180 303c-51 85 -101 168 -142 246c4 -83 5 -173 5 -270v-279h-115v710h127l188 -315c47 -81 94 -158 133 -234c-4 79 -5 164 -5 261zM909 640
c-57 0 -103 -46 -103 -120c0 -75 46 -120 103 -120c58 0 104 45 104 120c0 74 -46 120 -104 120zM738 186v79h342v-79h-342z" />
    <glyph glyph-name="asciicircum" unicode="^" 
d="M340 710l199 -430h-91l-152 332l-153 -332h-92l200 430h89z" />
    <glyph glyph-name="dagger" unicode="&#x2020;" 
d="M550 452v-99h-198v-550h-113v550h-198v99h198v258h113v-258h198z" />
    <glyph glyph-name="daggerdbl" unicode="&#x2021;" 
d="M550 403h-198v-205h198v-99h-198v-296h-113v296h-198v99h198v205h-198v99h198v208h113v-208h198v-99z" />
    <glyph glyph-name="registered.ss03" horiz-adv-x="856" 
d="M428 723c208 0 368 -158 368 -368s-160 -368 -368 -368s-368 158 -368 368s160 368 368 368zM428 665c-175 0 -301 -135 -301 -310s126 -310 301 -310s301 135 301 310s-126 310 -301 310zM452 567c79 0 134 -55 134 -129c0 -54 -31 -97 -81 -115l105 -169h-79l-96 160
h-81v-160h-69v413h167zM437 505h-83v-133h83c55 0 80 26 80 66c0 39 -25 67 -80 67z" />
    <glyph glyph-name="uni0326" unicode="&#x326;" horiz-adv-x="0" 
d="M-100 -66v-97l-65 -93h-59l60 93h-56v97h120z" />
    <glyph glyph-name="uni0326.alt" horiz-adv-x="0" 
d="M-224 587v99l65 101h59l-59 -101h55v-99h-120z" />
    <glyph glyph-name="uni0326.ss02" horiz-adv-x="0" 
d="M-164 -60c39 0 72 -28 72 -78c0 -71 -49 -119 -126 -119v41c24 2 61 15 72 48c-6 -1 -11 -2 -18 -2c-40 0 -63 18 -63 53c0 33 28 57 63 57z" />
    <glyph glyph-name="uni0326.alt.ss02" horiz-adv-x="0" 
d="M-154 689c40 0 63 -19 63 -54c0 -33 -28 -57 -63 -57c-38 0 -72 28 -72 78c0 71 49 119 127 119v-41c-25 -1 -62 -14 -73 -48c6 2 12 3 18 3z" />
    <glyph glyph-name="acute" unicode="&#xb4;" horiz-adv-x="362" 
d="M283 722l-94 -146h-97l70 146h121z" />
    <glyph glyph-name="caron.alt" horiz-adv-x="311" 
d="M233 710l-69 -207h-68l28 207h109z" />
    <glyph glyph-name="breve" unicode="&#x2d8;" horiz-adv-x="508" 
d="M254 571c87 0 154 49 154 140h-83c0 -44 -23 -76 -71 -76c-49 0 -72 32 -72 76h-83c0 -91 67 -140 155 -140z" />
    <glyph glyph-name="caron" unicode="&#x2c7;" horiz-adv-x="522" 
d="M432 722l-102 -146h-138l-102 146h94l78 -97l77 97h93z" />
    <glyph glyph-name="cedilla" unicode="&#xb8;" horiz-adv-x="421" 
d="M222 -66c65 1 106 -33 106 -80c0 -56 -44 -94 -110 -94c-40 0 -76 14 -112 38l30 47c31 -18 53 -27 81 -27c27 0 49 12 49 35c0 21 -26 33 -54 33c-9 0 -20 -1 -28 -3l-31 29l49 108l51 -20z" />
    <glyph glyph-name="circumflex" unicode="&#x2c6;" horiz-adv-x="498" 
d="M325 576l-77 97l-78 -97h-93l102 146h138l102 -146h-94z" />
    <glyph glyph-name="dieresis" unicode="&#xa8;" horiz-adv-x="493" 
d="M206 702v-113h-107v113h107zM394 702v-113h-107v113h107z" />
    <glyph glyph-name="dotaccent" unicode="&#x2d9;" horiz-adv-x="310" 
d="M210 702v-113h-110v113h110z" />
    <glyph glyph-name="grave" unicode="`" horiz-adv-x="362" 
d="M78 722h122l70 -146h-97z" />
    <glyph glyph-name="hungarumlaut" unicode="&#x2dd;" horiz-adv-x="526" 
d="M271 722l-96 -147h-80l71 147h105zM434 722l-96 -147h-80l71 147h105z" />
    <glyph glyph-name="macron" unicode="&#xaf;" horiz-adv-x="478" 
d="M390 674v-82h-301v82h301z" />
    <glyph glyph-name="ogonek" unicode="&#x2db;" horiz-adv-x="366" 
d="M224 24l57 -24c-65 -42 -83 -76 -83 -106c0 -25 18 -39 49 -39c13 0 21 2 28 4v-66c-12 -5 -30 -7 -44 -7c-73 0 -111 35 -111 89c0 46 23 95 104 149z" />
    <glyph glyph-name="ring" unicode="&#x2da;" horiz-adv-x="444" 
d="M222 788c63 0 115 -50 115 -111s-52 -111 -115 -111c-64 0 -116 50 -116 111s52 111 116 111zM222 738c-34 0 -60 -25 -60 -61s26 -61 60 -61s59 25 59 61s-25 61 -59 61z" />
    <glyph glyph-name="dieresis.ss02" horiz-adv-x="493" 
d="M151 582c-37 0 -66 29 -66 65c0 35 29 64 66 64c36 0 65 -29 65 -64c0 -36 -29 -65 -65 -65zM343 582c-36 0 -65 29 -65 65c0 35 29 64 65 64s65 -29 65 -64c0 -36 -29 -65 -65 -65z" />
    <glyph glyph-name="dotaccent.ss02" horiz-adv-x="310" 
d="M155 578c-38 0 -68 30 -68 67s30 67 68 67s68 -30 68 -67s-30 -67 -68 -67z" />
    <glyph glyph-name="tilde" unicode="&#x2dc;" horiz-adv-x="531" 
d="M197 706c62 0 96 -51 137 -51c24 0 32 23 32 51h65c0 -79 -38 -121 -91 -121c-54 0 -99 51 -140 51c-23 0 -34 -24 -34 -51h-66c0 79 44 121 97 121z" />
    <glyph glyph-name="uniE000" unicode="&#xe000;" horiz-adv-x="1792" 
d="M315 0h-265v230h13c51 -136 149 -217 250 -217c86 0 130 65 130 130c0 30 -10 65 -38 94c-76 74 -204 58 -290 144c-34 34 -58 82 -58 144c0 101 68 185 175 185h243v-197h-10c-13 23 -36 66 -76 106c-47 48 -98 78 -158 78c-43 0 -114 -21 -114 -109
c0 -29 11 -65 34 -88c77 -77 221 -58 317 -155c32 -31 50 -80 50 -135c0 -132 -82 -210 -203 -210zM503 710h375c196 0 324 -164 324 -367c0 -160 -90 -343 -333 -343h-365v13h20c74 0 109 29 109 99v486c0 69 -35 99 -109 99h-21v13zM1149 13h16c75 0 110 30 110 99v486
c0 70 -35 99 -110 99h-17v13h384v-13h-27c-74 0 -108 -29 -108 -99v-486c0 -73 18 -99 75 -99h66c63 0 98 32 192 231h12v-244h-593v13zM1654 697v13h-55v-13h20v-54h15v54h20zM1742 643v67h-22l-17 -45l-16 45h-23v-67h15v49l18 -49h11l19 49v-49h15zM862 13
c158 0 210 153 210 316c0 272 -106 368 -213 368h-65c-31 0 -39 -12 -39 -46v-554c0 -54 37 -84 107 -84z" />
    <glyph glyph-name="uniE001" unicode="&#xe001;" horiz-adv-x="1011" 
d="M313 -39c62 -29 127 -43 192 -43c171 0 336 97 413 263c29 62 43 127 43 191c0 171 -98 336 -263 413c-62 29 -128 43 -192 43c-172 0 -336 -97 -413 -263c-29 -62 -43 -127 -43 -191c0 -171 98 -336 263 -413zM692 773c160 -75 254 -234 254 -401
c0 -62 -13 -126 -41 -186c-74 -160 -234 -254 -400 -254c-63 0 -126 13 -186 41c-161 75 -255 234 -255 401c0 62 13 126 41 186c75 160 234 254 401 254c62 0 126 -13 186 -41zM535 784l-8 -64l22 -3l3 23l22 -3l2 16l-22 3l1 9l23 -2l2 15zM429 734l1 -11
c3 -3 10 -8 22 -8c24 0 31 10 33 16l-2 18c-3 4 -10 7 -27 8h-2c-4 0 -6 1 -7 2v4c0 1 2 2 5 3c2 0 5 -1 6 -2v-4l23 3l-2 11c-2 3 -8 9 -21 9c-23 0 -32 -11 -34 -16l3 -18c3 -4 9 -8 27 -8h2c3 0 6 -1 6 -2l1 -5c-1 -1 -3 -2 -5 -3c-3 0 -6 1 -6 2l-1 4zM617 723l4 -23
l17 -6l4 12l-4 14c4 1 7 3 10 5l7 21c-2 7 -7 13 -16 16l-35 12l-20 -62l22 -7l6 20zM385 720l17 -16l18 6l-4 12l-12 8c3 3 4 7 5 11l-7 20c-3 3 -8 5 -14 5c-2 0 -5 0 -8 -1l-35 -12l21 -61l21 7l-6 20zM624 736l-7 3l4 13l7 -3c3 -1 4 -2 5 -4l-3 -8c-1 -1 -3 -1 -6 -1z
M384 736l-8 -3l-4 12l7 3c3 1 5 0 6 0l3 -9c-1 -1 -2 -3 -4 -3zM282 720l32 -57l41 23l-7 14l-22 -12l-4 8l19 11l-7 14l-20 -11l-4 7l21 12l-8 14zM675 735l-20 -35c0 -7 3 -17 18 -26c8 -4 14 -5 20 -5c5 0 9 1 12 4l20 35c0 7 -3 17 -19 26c-7 4 -14 5 -19 5
s-9 -1 -12 -4zM703 714l-15 -26c-1 -1 -4 -1 -7 1c-2 1 -4 3 -4 4l15 27c1 1 4 0 6 -1c3 -1 5 -3 5 -5zM244 670l32 -37l17 14l-31 38l11 9l-10 12l-40 -33l10 -12zM753 704l-43 -48l15 -14l22 25l2 -2l-8 -23l7 -7l23 10l1 -1l-22 -25l16 -14l43 48l-21 19l-20 -11l-2 2
l8 22zM371 84c43 -20 89 -30 134 -30c120 0 235 68 289 184c20 44 30 89 30 134c0 121 -68 235 -184 290c-43 20 -89 30 -134 30c-120 0 -235 -68 -289 -184c-20 -43 -30 -89 -30 -134c0 -120 68 -235 184 -290zM634 649c111 -52 177 -161 177 -276c0 -43 -10 -87 -29 -129
c-52 -111 -162 -176 -277 -176c-43 0 -87 10 -128 29c-111 52 -177 162 -177 277c0 43 10 87 29 128c52 111 162 176 277 176c43 0 87 -10 128 -29zM194 618l38 -32l14 18l-37 31l9 12l-12 10l-33 -40l12 -11zM808 584l-9 -5c-1 -2 -3 -6 -3 -11s2 -11 6 -19
c9 -16 20 -18 25 -18l16 9c1 2 2 5 2 8c0 5 -2 11 -5 20l-1 2c-1 3 -1 6 -1 7l4 2c1 0 3 -1 4 -4c2 -2 2 -5 1 -6l-4 -2l12 -19l9 5c2 3 3 6 3 11s-1 12 -6 19c-9 15 -20 18 -25 18l-15 -9c-1 -2 -2 -5 -2 -9s1 -10 5 -19l1 -2c1 -3 1 -6 0 -7l-4 -2c-1 0 -3 1 -4 4
c-2 2 -2 5 -1 6l4 2zM137 557l56 -32l23 41l-13 8l-12 -22l-8 5l11 20l-14 7l-11 -19l-7 4l12 21l-14 8zM510 516c3 7 5 15 5 21c0 13 -5 21 -17 21c-10 0 -21 -8 -28 -23c-3 -7 -5 -15 -5 -21c0 -13 5 -21 16 -21c10 0 22 9 29 23zM874 532l-47 -25l8 -26l24 1l1 -1
l-21 -12l7 -26l53 6l12 4l-6 18l-36 -5v1l32 18l-5 16l-37 -3v2l33 14l-6 21zM113 498l61 -23l14 39l-15 5l-6 -17l-46 17zM652 450c3 7 5 15 5 21c0 13 -5 21 -17 21c-10 0 -21 -8 -28 -23c-3 -7 -5 -15 -5 -21c0 -13 5 -21 17 -21c10 0 21 8 28 23zM140 425c1 2 1 4 1 6
c0 4 -2 8 -6 9c-2 1 -4 1 -6 1c-4 0 -8 -2 -10 -6c0 -1 -1 -3 -1 -5c0 -4 3 -9 7 -11c2 0 3 -1 5 -1c4 0 9 3 10 7zM914 426l-65 -5l4 -47l15 2l-1 24l9 1l1 -23l16 1l-1 23l8 1l2 -25l15 2zM612 271l15 -7c-28 -50 -81 -79 -136 -79c-22 0 -45 5 -66 15
c-57 26 -91 83 -91 142c0 18 3 36 10 54l15 -7c-5 -15 -8 -31 -8 -47c0 -52 30 -103 81 -127c19 -9 39 -13 59 -13c48 0 95 26 121 69zM96 322l65 4l-1 15l-35 -2v1l24 7l-1 8l-24 4v2l35 2l-1 15l-66 -4l2 -20l21 -4l1 -1l-22 -7zM917 355l-64 7l-4 -33v-3
c0 -11 5 -18 10 -22l40 -4c6 2 13 9 15 22zM865 331l1 7l33 -3l-1 -7c0 -3 -1 -5 -2 -5l-29 3c-1 1 -2 3 -2 5zM106 272l64 14l-7 29l-12 -3l3 -12l-52 -12zM905 274l-61 20l-14 -46l15 -4l7 23l9 -2l-7 -22l15 -5l7 22l8 -2l-7 -24l15 -4zM133 217l45 16c1 1 5 6 5 14
c0 2 -1 5 -2 9c-5 12 -14 15 -17 15l-44 -16c-2 -1 -5 -6 -5 -14c0 -2 0 -6 1 -9c5 -12 14 -15 17 -15zM131 242l33 12c1 0 3 -1 4 -3c0 -2 -1 -4 -1 -4l-34 -12c-1 0 -2 0 -3 2s0 4 1 5zM883 207l-57 30l-10 -18l25 -13l-1 -2h-32l-11 -21l57 -30l10 18l-25 13l1 2h32z
M153 158l58 32l-8 14l-24 -13l-3 7l23 13l-8 14l-57 -31l8 -15l21 12l4 -6l-22 -12zM188 110l52 39l-10 13l-14 -10l-3 -1l12 18l-8 11l-9 -7l-15 -24l-20 -2l-8 -6l7 -11l19 4v-1l-13 -10zM237 72l33 34c0 1 1 2 1 4c0 5 -2 11 -8 18c-8 8 -16 8 -20 7l-15 -15l11 -11l10 9
c0 1 2 1 4 -1c1 -1 1 -3 1 -4l-25 -25h-2c-4 0 -4 5 -3 5l8 9l-11 11l-14 -14c0 -4 0 -12 8 -20c9 -10 19 -8 22 -7zM800 118c1 1 1 3 1 4c0 4 -2 9 -7 11c-2 1 -3 1 -5 1c-4 0 -8 -3 -10 -7c-1 -1 -1 -3 -1 -4c0 -5 2 -9 6 -11c2 -1 3 -1 5 -1c4 0 9 3 11 7zM769 55l-39 53
l-12 -9l20 -28l-1 -1l-18 16l-6 -4l9 -23l-1 -1l-21 28l-13 -9l39 -53l16 12l-8 20l1 1l17 -14zM285 35l27 38v4c0 4 -2 11 -10 17c-11 8 -20 5 -22 3l-28 -38v-3c0 -4 2 -12 10 -17c11 -8 20 -5 23 -4zM269 54l21 29s2 1 4 0c2 -2 2 -4 2 -4l-21 -29c-1 -1 -3 -1 -5 0
c-1 1 -2 3 -1 4zM662 46l-9 14l-14 -7l5 -10l32 -45l23 11l-17 53l-4 10l-13 -7l5 -15zM325 17l25 46l-14 8l-25 -47l-9 5l-6 -12l32 -16l6 11zM398 21l4 13c0 4 -4 11 -15 15c-3 1 -6 2 -9 2c-5 0 -10 -3 -12 -4l-7 -20c0 -5 1 -10 12 -18h1c2 -2 3 -3 3 -5l-2 -5
c-1 -1 -2 -1 -3 -1c-3 0 -4 2 -4 3l2 6l-15 5l-4 -12c1 -4 4 -12 15 -16c3 -1 6 -1 8 -1c6 0 11 2 13 3l7 19c0 5 -2 10 -12 18l-1 1c-2 1 -3 3 -3 4l2 7c1 1 3 1 4 0c2 0 3 -1 3 -3l-2 -6zM648 -14l-19 63l-24 -8c-9 -3 -12 -9 -12 -13l14 -45c4 -4 10 -7 18 -4zM674 38
l7 -19l-2 -1l-11 17zM589 -31l-11 65l-30 -5l2 -13l14 3l2 -14l-13 -3l2 -12l13 2l3 -13l-14 -2l2 -13zM474 -38l9 65l-16 2l-4 -32l-1 1l-5 32l-18 2l-8 -65l16 -2l4 31h1l5 -32zM613 30l4 1l12 -38l-4 -1c-2 -1 -3 0 -4 1l-11 34c0 2 1 3 3 3zM512 -39v65l-17 1v-66h17z
" />
    <glyph glyph-name="uniE002" unicode="&#xe002;" 
d="M557 191c0 -104 -63 -173 -163 -188v-103h-79v100h-74v-100h-79v100h-101v680h101v100h79v-100h74v100h79v-106c82 -18 140 -74 140 -167c0 -73 -39 -124 -97 -148c74 -25 120 -84 120 -168zM421 498c0 60 -39 90 -112 90h-131v-188h130c73 0 113 38 113 98zM313 92
c88 0 129 40 129 108c0 67 -44 108 -129 108h-135v-216h135z" />
    </font>
</defs>
</svg>
