<?xml version="1.0" standalone="no"?>
<!DOCTYPE svg PUBLIC "-//W3C//DTD SVG 1.1//EN" "http://www.w3.org/Graphics/SVG/1.1/DTD/svg11.dtd" >
<svg xmlns="http://www.w3.org/2000/svg" xmlns:xlink="http://www.w3.org/1999/xlink" version="1.1">
<metadata>
Created by FontForge 20170924 at Mon Mar  7 10:27:19 2016
 By www-data
Copyright \(c\) 2015 by Letters from Sweden &#38; Stockholm Design Lab. All rights reserved.
</metadata>
<defs>
<font id="LabGrotesque-Regular" horiz-adv-x="590" >
  <font-face 
    font-family="Lab Grotesque"
    font-weight="400"
    font-stretch="normal"
    units-per-em="1000"
    panose-1="0 0 5 0 0 0 0 0 0 0"
    ascent="750"
    descent="-250"
    x-height="492"
    cap-height="710"
    bbox="-215 -253 1742 939"
    underline-thickness="59"
    underline-position="-160"
    stemh="72"
    stemv="86"
    unicode-range="U+0020-FB02"
  />
<missing-glyph horiz-adv-x="579" 
d="M479 810v-910h-379v910h379z" />
    <glyph glyph-name="f_f.liga" unicode="ff" horiz-adv-x="658" 
d="M271 654c-54 0 -76 -25 -76 -90v-72h102v-65h-102v-427h-86v427h-91v65h91v82c0 97 52 152 148 152c30 0 60 -4 99 -17l-17 -66c-31 8 -49 11 -68 11zM590 654c-54 0 -76 -25 -76 -90v-72h123v-65h-123v-427h-86v427h-82v65h82v82c0 97 52 152 148 152c30 0 60 -4 99 -17
l-17 -66c-31 8 -49 11 -68 11z" />
    <glyph glyph-name="f_f_i.liga" unicode="ffi" horiz-adv-x="872" 
d="M271 650c-54 0 -76 -25 -76 -89v-69h102v-65h-102v-427h-86v427h-91v65h91v78c0 97 52 152 148 152c30 0 60 -4 99 -17l-17 -66c-31 9 -49 11 -68 11zM428 570c0 97 51 152 145 152c28 0 54 -5 80 -12l-13 -66c-23 4 -37 6 -52 6c-55 0 -74 -26 -74 -90v-68h123v-65h-123
v-427h-86v427h-82v65h82v78zM719 692h86v-103h-86v103zM719 0v492h86v-492h-86z" />
    <glyph glyph-name="f_f_j.liga" unicode="ffj" horiz-adv-x="872" 
d="M271 650c-54 0 -76 -25 -76 -89v-69h102v-65h-102v-427h-86v427h-91v65h91v78c0 97 52 152 148 152c30 0 60 -4 99 -17l-17 -66c-31 9 -49 11 -68 11zM637 427h-123v-427h-86v427h-82v65h82v78c0 97 51 152 145 152c28 0 54 -5 80 -12l-13 -66c-23 4 -37 6 -52 6
c-55 0 -74 -26 -74 -90v-68h123v-65zM719 692h86v-103h-86v103zM719 -37v529h86v-529c0 -100 -43 -154 -139 -154c-34 0 -66 6 -96 15l18 65c26 -6 48 -10 68 -10c48 0 63 29 63 84z" />
    <glyph glyph-name="f_j.liga" unicode="fj" horiz-adv-x="554" 
d="M318 427h-123v-427h-86v427h-91v65h91v78c0 97 51 152 146 152c27 0 53 -5 79 -12l-13 -66c-23 4 -37 6 -52 6c-55 0 -74 -26 -74 -90v-68h123v-65zM400 692h86v-103h-86v103zM400 -37v529h86v-530c0 -100 -43 -153 -139 -153c-34 0 -66 5 -95 15l17 65
c26 -6 48 -10 68 -10c48 0 63 28 63 84z" />
    <glyph glyph-name="fi" unicode="fi" horiz-adv-x="554" 
d="M109 570c0 97 51 152 146 152c27 0 53 -5 79 -12l-13 -66c-23 4 -37 6 -52 6c-55 0 -74 -26 -74 -90v-68h123v-65h-123v-427h-86v427h-91v65h91v78zM400 692h86v-103h-86v103zM400 0v492h86v-492h-86z" />
    <glyph glyph-name="fl" unicode="fl" horiz-adv-x="556" 
d="M109 570c0 97 51 152 146 152c27 0 53 -5 79 -12l-13 -66c-23 4 -37 6 -52 6c-55 0 -74 -26 -74 -90v-68h123v-65h-123v-427h-86v427h-91v65h91v78zM400 710h86v-710h-86v710z" />
    <glyph glyph-name=".notdef" horiz-adv-x="579" 
d="M479 810v-910h-379v910h379z" />
    <glyph glyph-name="A" unicode="A" horiz-adv-x="669" 
d="M558 0l-65 181h-318l-65 -181h-93l257 710h121l258 -710h-95zM202 259h264l-33 93c-39 108 -73 202 -100 289c-26 -87 -60 -181 -98 -290z" />
    <glyph glyph-name="Aacute" unicode="&#xc1;" horiz-adv-x="669" 
d="M462 920l-92 -144h-76l72 144h96zM558 0l-65 181h-318l-65 -181h-93l257 710h121l258 -710h-95zM202 259h264l-33 93c-39 108 -73 202 -100 289c-26 -87 -60 -181 -98 -290z" />
    <glyph glyph-name="Abreve" unicode="&#x102;" horiz-adv-x="669" 
d="M334 775c-86 0 -144 50 -144 131h68c0 -42 22 -78 76 -78s75 36 75 78h68c0 -81 -58 -131 -143 -131zM558 0l-65 181h-318l-65 -181h-93l257 710h121l258 -710h-95zM202 259h264l-33 93c-39 108 -73 202 -100 289c-26 -87 -60 -181 -98 -290z" />
    <glyph glyph-name="Acircumflex" unicode="&#xc2;" horiz-adv-x="669" 
d="M334 877l-80 -101h-74l100 144h108l100 -144h-74zM558 0l-65 181h-318l-65 -181h-93l257 710h121l258 -710h-95zM202 259h264l-33 93c-39 108 -73 202 -100 289c-26 -87 -60 -181 -98 -290z" />
    <glyph glyph-name="Adieresis" unicode="&#xc4;" horiz-adv-x="669" 
d="M288 896v-103h-84v103h84zM465 896v-103h-84v103h84zM558 0l-65 181h-318l-65 -181h-93l257 710h121l258 -710h-95zM202 259h264l-33 93c-39 108 -73 202 -100 289c-26 -87 -60 -181 -98 -290z" />
    <glyph glyph-name="Adieresis.ss02" horiz-adv-x="669" 
d="M246 792c-31 0 -55 25 -55 55c0 29 24 54 55 54c30 0 55 -25 55 -54c0 -30 -25 -55 -55 -55zM424 792c-30 0 -55 25 -55 55c0 29 25 54 55 54c31 0 55 -25 55 -54c0 -30 -24 -55 -55 -55zM558 0l-65 181h-318l-65 -181h-93l257 710h121l258 -710h-95zM202 259h264l-33 93
c-39 108 -73 202 -100 289c-26 -87 -60 -181 -98 -290z" />
    <glyph glyph-name="Agrave" unicode="&#xc0;" horiz-adv-x="669" 
d="M374 776h-76l-92 144h96zM558 0l-65 181h-318l-65 -181h-93l257 710h121l258 -710h-95zM202 259h264l-33 93c-39 108 -73 202 -100 289c-26 -87 -60 -181 -98 -290z" />
    <glyph glyph-name="Amacron" unicode="&#x100;" horiz-adv-x="669" 
d="M473 864v-66h-279v66h279zM558 0l-65 181h-318l-65 -181h-93l257 710h121l258 -710h-95zM202 259h264l-33 93c-39 108 -73 202 -100 289c-26 -87 -60 -181 -98 -290z" />
    <glyph glyph-name="Aogonek" unicode="&#x104;" horiz-adv-x="669" 
d="M573 -110c0 -28 20 -42 51 -42c11 0 19 1 26 3v-54c-11 -5 -27 -6 -38 -6c-61 0 -102 30 -102 84c0 43 21 84 72 125h-24l-65 181h-318l-65 -181h-93l257 710h121l258 -710c-59 -40 -80 -77 -80 -110zM202 259h264l-33 93c-39 108 -73 202 -100 289
c-26 -87 -60 -181 -98 -290z" />
    <glyph glyph-name="Aring" unicode="&#xc5;" horiz-adv-x="674" 
d="M563 0l-65 182h-323l-65 -182h-93l253 699c-33 21 -54 57 -54 98c0 66 54 118 121 118s122 -52 122 -118c0 -41 -22 -77 -54 -98l253 -699h-95zM337 867c-39 0 -68 -28 -68 -70c0 -41 29 -69 68 -69c40 0 68 28 68 69c0 42 -28 70 -68 70zM202 259h269l-33 92
c-39 111 -75 209 -102 297c-27 -88 -62 -186 -101 -297z" />
    <glyph glyph-name="Atilde" unicode="&#xc3;" horiz-adv-x="669" 
d="M266 841c-24 0 -34 -24 -34 -51h-55c0 68 36 110 89 110c58 0 96 -53 137 -53c25 0 32 24 32 53h54c0 -68 -31 -111 -81 -111c-52 0 -98 52 -142 52zM558 0l-65 181h-318l-65 -181h-93l257 710h121l258 -710h-95zM202 259h264l-33 93c-39 108 -73 202 -100 289
c-26 -87 -60 -181 -98 -290z" />
    <glyph glyph-name="AE" unicode="&#xc6;" horiz-adv-x="962" 
d="M527 77h389v-77h-482v181h-239l-94 -181h-94l369 710h92h439v-77h-380v-229h353v-77h-353v-250zM235 259h199v385z" />
    <glyph glyph-name="B" unicode="B" horiz-adv-x="667" 
d="M492 375c81 -24 135 -83 135 -176c0 -123 -86 -199 -218 -199h-328v710h314c119 0 207 -61 207 -180c0 -80 -45 -133 -110 -155zM174 636v-227h202c85 0 136 43 136 116c0 72 -50 111 -136 111h-202zM380 74c103 0 155 51 155 130c0 78 -55 131 -154 131h-207v-261h206z
" />
    <glyph glyph-name="C" unicode="C" horiz-adv-x="666" 
d="M383 726c90 0 162 -27 250 -101l-54 -64c-81 68 -136 84 -197 84c-154 0 -247 -120 -247 -290s95 -290 241 -290c85 0 139 36 213 104l56 -62c-90 -88 -163 -123 -267 -123c-213 0 -337 158 -337 372c0 212 121 370 342 370z" />
    <glyph glyph-name="Cacute" unicode="&#x106;" horiz-adv-x="666" 
d="M511 920l-92 -144h-76l72 144h96zM383 726c90 0 162 -27 250 -101l-54 -64c-81 68 -136 84 -197 84c-154 0 -247 -120 -247 -290s95 -290 241 -290c85 0 139 36 213 104l56 -62c-90 -88 -163 -123 -267 -123c-213 0 -337 158 -337 372c0 212 121 370 342 370z" />
    <glyph glyph-name="Ccaron" unicode="&#x10c;" horiz-adv-x="666" 
d="M536 920l-100 -144h-108l-100 144h74l80 -102l80 102h74zM383 726c90 0 162 -27 250 -101l-54 -64c-81 68 -136 84 -197 84c-154 0 -247 -120 -247 -290s95 -290 241 -290c85 0 139 36 213 104l56 -62c-90 -88 -163 -123 -267 -123c-213 0 -337 158 -337 372
c0 212 121 370 342 370z" />
    <glyph glyph-name="Ccedilla" unicode="&#xc7;" horiz-adv-x="666" 
d="M365 -67c63 3 107 -29 107 -78c0 -53 -42 -90 -105 -90c-40 0 -74 13 -108 35l25 42c32 -18 53 -27 82 -27s53 13 53 39c0 24 -26 37 -58 37c-8 0 -20 -1 -28 -3l-28 27l33 71c-188 19 -297 170 -297 370c0 212 121 370 342 370c90 0 162 -27 249 -102l-53 -63
c-81 68 -136 84 -197 84c-154 0 -247 -120 -247 -290s95 -290 241 -290c85 0 139 36 213 104l56 -62c-87 -85 -157 -120 -256 -122z" />
    <glyph glyph-name="Cdotaccent" unicode="&#x10a;" horiz-adv-x="666" 
d="M425 896v-103h-86v103h86zM383 726c90 0 162 -27 250 -101l-54 -64c-81 68 -136 84 -197 84c-154 0 -247 -120 -247 -290s95 -290 241 -290c85 0 139 36 213 104l56 -62c-90 -88 -163 -123 -267 -123c-213 0 -337 158 -337 372c0 212 121 370 342 370z" />
    <glyph glyph-name="Cdotaccent.ss02" horiz-adv-x="666" 
d="M383 789c-33 0 -57 25 -57 56s24 56 57 56c32 0 56 -25 56 -56s-24 -56 -56 -56zM383 726c90 0 162 -27 250 -101l-54 -64c-81 68 -136 84 -197 84c-154 0 -247 -120 -247 -290s95 -290 241 -290c85 0 139 36 213 104l56 -62c-90 -88 -163 -123 -267 -123
c-213 0 -337 158 -337 372c0 212 121 370 342 370z" />
    <glyph glyph-name="D" unicode="D" horiz-adv-x="702" 
d="M347 710c203 0 314 -147 314 -355s-111 -355 -314 -355h-266v710h266zM332 633h-158v-556h158c150 0 235 105 235 278c0 172 -85 278 -235 278z" />
    <glyph glyph-name="Eth" unicode="&#xd0;" horiz-adv-x="730" 
d="M375 710c203 0 314 -147 314 -355s-111 -355 -314 -355h-266v328h-83v77h83v305h266zM360 77c150 0 235 105 235 278c0 172 -85 278 -235 278h-158v-228h187v-77h-187v-251h158z" />
    <glyph glyph-name="Dcaron" unicode="&#x10e;" horiz-adv-x="702" 
d="M499 920l-100 -144h-108l-100 144h74l80 -102l80 102h74zM347 710c203 0 314 -147 314 -355s-111 -355 -314 -355h-266v710h266zM332 633h-158v-556h158c150 0 235 105 235 278c0 172 -85 278 -235 278z" />
    <glyph glyph-name="Dcroat" unicode="&#x110;" horiz-adv-x="730" 
d="M375 710c203 0 314 -147 314 -355s-111 -355 -314 -355h-266v328h-83v77h83v305h266zM360 77c150 0 235 105 235 278c0 172 -85 278 -235 278h-158v-228h187v-77h-187v-251h158z" />
    <glyph glyph-name="E" unicode="E" horiz-adv-x="609" 
d="M554 710v-77h-380v-229h354v-77h-354v-250h389v-77h-482v710h473z" />
    <glyph glyph-name="Eacute" unicode="&#xc9;" horiz-adv-x="609" 
d="M448 920l-92 -144h-76l72 144h96zM554 710v-77h-380v-229h354v-77h-354v-250h389v-77h-482v710h473z" />
    <glyph glyph-name="Ecaron" unicode="&#x11a;" horiz-adv-x="609" 
d="M473 920l-100 -144h-108l-100 144h74l80 -102l80 102h74zM554 710v-77h-380v-229h354v-77h-354v-250h389v-77h-482v710h473z" />
    <glyph glyph-name="Ecircumflex" unicode="&#xca;" horiz-adv-x="609" 
d="M399 776l-80 101l-80 -101h-74l100 144h108l100 -144h-74zM554 710v-77h-380v-229h354v-77h-354v-250h389v-77h-482v710h473z" />
    <glyph glyph-name="Edieresis" unicode="&#xcb;" horiz-adv-x="609" 
d="M273 896v-103h-84v103h84zM450 896v-103h-84v103h84zM554 710v-77h-380v-229h354v-77h-354v-250h389v-77h-482v710h473z" />
    <glyph glyph-name="Edieresis.ss02" horiz-adv-x="609" 
d="M231 792c-31 0 -55 25 -55 55c0 29 24 54 55 54c30 0 55 -25 55 -54c0 -30 -25 -55 -55 -55zM409 792c-30 0 -55 25 -55 55c0 29 25 54 55 54c31 0 55 -25 55 -54c0 -30 -24 -55 -55 -55zM554 710v-77h-380v-229h354v-77h-354v-250h389v-77h-482v710h473z" />
    <glyph glyph-name="Edotaccent" unicode="&#x116;" horiz-adv-x="609" 
d="M362 896v-103h-86v103h86zM554 710v-77h-380v-229h354v-77h-354v-250h389v-77h-482v710h473z" />
    <glyph glyph-name="Edotaccent.ss02" horiz-adv-x="609" 
d="M320 789c-33 0 -57 25 -57 56s24 56 57 56c32 0 56 -25 56 -56s-24 -56 -56 -56zM554 710v-77h-380v-229h354v-77h-354v-250h389v-77h-482v710h473z" />
    <glyph glyph-name="Egrave" unicode="&#xc8;" horiz-adv-x="609" 
d="M191 920h96l72 -144h-76zM554 710v-77h-380v-229h354v-77h-354v-250h389v-77h-482v710h473z" />
    <glyph glyph-name="Emacron" unicode="&#x112;" horiz-adv-x="609" 
d="M459 864v-66h-279v66h279zM554 710v-77h-380v-229h354v-77h-354v-250h389v-77h-482v710h473z" />
    <glyph glyph-name="Eogonek" unicode="&#x118;" horiz-adv-x="609" 
d="M563 0c-58 -40 -80 -77 -80 -110c0 -28 20 -42 51 -42c12 0 19 1 26 3v-54c-11 -5 -26 -6 -38 -6c-60 0 -101 30 -101 84c0 43 21 84 71 125h-411v710h473v-77h-380v-229h354v-77h-354v-250h389v-77z" />
    <glyph glyph-name="F" unicode="F" horiz-adv-x="594" 
d="M554 710v-77h-380v-244h351v-77h-351v-312h-93v710h473z" />
    <glyph glyph-name="G" unicode="G" horiz-adv-x="741" 
d="M362 294v78h313v-372h-72l-7 91c-47 -76 -129 -106 -222 -106c-212 0 -333 155 -333 370c0 212 128 370 344 370c118 0 203 -43 291 -135l-59 -60c-80 79 -141 114 -233 114c-149 0 -249 -114 -249 -289c0 -176 93 -290 244 -290c124 0 210 75 210 201v28h-227z" />
    <glyph glyph-name="Gbreve" unicode="&#x11e;" horiz-adv-x="741" 
d="M384 775c-86 0 -144 50 -144 131h68c0 -42 22 -78 76 -78s75 36 75 78h68c0 -81 -58 -131 -143 -131zM362 294v78h313v-372h-72l-7 91c-47 -76 -129 -106 -222 -106c-212 0 -333 155 -333 370c0 212 128 370 344 370c118 0 203 -43 291 -135l-59 -60
c-80 79 -141 114 -233 114c-149 0 -249 -114 -249 -289c0 -176 93 -290 244 -290c124 0 210 75 210 201v28h-227z" />
    <glyph glyph-name="Gcommaaccent" unicode="&#x122;" horiz-adv-x="741" 
d="M362 294v78h313v-372h-72l-7 91c-47 -76 -129 -106 -222 -106c-212 0 -333 155 -333 370c0 212 128 370 344 370c118 0 203 -43 291 -135l-59 -60c-80 79 -141 114 -233 114c-149 0 -249 -114 -249 -289c0 -176 93 -290 244 -290c124 0 210 75 210 201v28h-227zM327 -159
v86h100v-86l-57 -94h-48l52 94h-47z" />
    <glyph glyph-name="Gcommaaccent.ss02" horiz-adv-x="741" 
d="M362 294v78h313v-372h-72l-7 91c-47 -76 -129 -106 -222 -106c-212 0 -333 155 -333 370c0 212 128 370 344 370c118 0 203 -43 291 -135l-59 -60c-80 79 -141 114 -233 114c-149 0 -249 -114 -249 -289c0 -176 93 -290 244 -290c124 0 210 75 210 201v28h-227zM373 -69
c35 0 65 -24 65 -71c0 -61 -45 -113 -113 -113v36c24 2 56 17 65 52c-5 -1 -11 -2 -17 -2c-33 0 -54 18 -54 48s25 50 54 50z" />
    <glyph glyph-name="Gdotaccent" unicode="&#x120;" horiz-adv-x="741" 
d="M427 896v-103h-86v103h86zM362 294v78h313v-372h-72l-7 91c-47 -76 -129 -106 -222 -106c-212 0 -333 155 -333 370c0 212 128 370 344 370c118 0 203 -43 291 -135l-59 -60c-80 79 -141 114 -233 114c-149 0 -249 -114 -249 -289c0 -176 93 -290 244 -290
c124 0 210 75 210 201v28h-227z" />
    <glyph glyph-name="Gdotaccent.ss02" horiz-adv-x="741" 
d="M385 789c-33 0 -57 25 -57 56s24 56 57 56c32 0 56 -25 56 -56s-24 -56 -56 -56zM362 294v78h313v-372h-72l-7 91c-47 -76 -129 -106 -222 -106c-212 0 -333 155 -333 370c0 212 128 370 344 370c118 0 203 -43 291 -135l-59 -60c-80 79 -141 114 -233 114
c-149 0 -249 -114 -249 -289c0 -176 93 -290 244 -290c124 0 210 75 210 201v28h-227z" />
    <glyph glyph-name="H" unicode="H" horiz-adv-x="729" 
d="M648 710v-710h-93v330h-381v-330h-93v710h93v-303h381v303h93z" />
    <glyph glyph-name="Hbar" unicode="&#x126;" horiz-adv-x="780" 
d="M750 599v-66h-77v-533h-92v330h-382v-330h-92v533h-77v66h77v111h92v-111h382v111h92v-111h77zM581 407v126h-382v-126h382z" />
    <glyph glyph-name="I" unicode="I" horiz-adv-x="270" 
d="M181 710v-710h-93v710h93z" />
    <glyph glyph-name="IJ" unicode="&#x132;" horiz-adv-x="732" 
d="M181 710v-710h-93v710h93zM655 710v-527c0 -133 -68 -195 -192 -195c-65 0 -130 20 -181 47l32 72c49 -21 94 -38 146 -38c64 0 103 36 103 122v519h92z" />
    <glyph glyph-name="Iacute" unicode="&#xcd;" horiz-adv-x="270" 
d="M263 920l-92 -144h-76l72 144h96zM181 710v-710h-93v710h93z" />
    <glyph glyph-name="Icircumflex" unicode="&#xce;" horiz-adv-x="270" 
d="M214 776l-80 101l-80 -101h-74l100 144h108l100 -144h-74zM181 710v-710h-93v710h93z" />
    <glyph glyph-name="Idieresis" unicode="&#xcf;" horiz-adv-x="270" 
d="M89 896v-103h-84v103h84zM266 896v-103h-84v103h84zM181 710v-710h-93v710h93z" />
    <glyph glyph-name="Idieresis.ss02" horiz-adv-x="270" 
d="M47 792c-31 0 -55 25 -55 55c0 29 24 54 55 54c30 0 55 -25 55 -54c0 -30 -25 -55 -55 -55zM225 792c-30 0 -55 25 -55 55c0 29 25 54 55 54c31 0 55 -25 55 -54c0 -30 -24 -55 -55 -55zM181 710v-710h-93v710h93z" />
    <glyph glyph-name="Idotaccent" unicode="&#x130;" horiz-adv-x="270" 
d="M177 896v-103h-86v103h86zM181 710v-710h-93v710h93z" />
    <glyph glyph-name="Idotaccent.ss02" horiz-adv-x="270" 
d="M135 789c-33 0 -57 25 -57 56s24 56 57 56c32 0 56 -25 56 -56s-24 -56 -56 -56zM181 710v-710h-93v710h93z" />
    <glyph glyph-name="Igrave" unicode="&#xcc;" horiz-adv-x="270" 
d="M7 920h96l72 -144h-76zM181 710v-710h-93v710h93z" />
    <glyph glyph-name="Imacron" unicode="&#x12a;" horiz-adv-x="270" 
d="M274 864v-66h-279v66h279zM181 710v-710h-93v710h93z" />
    <glyph glyph-name="Iogonek" unicode="&#x12e;" horiz-adv-x="270" 
d="M181 0c-58 -40 -80 -77 -80 -110c0 -28 20 -42 51 -42c12 0 20 1 27 3v-54c-11 -5 -27 -6 -39 -6c-60 0 -101 30 -101 84c0 43 21 84 71 125h-22v710h93v-710z" />
    <glyph glyph-name="J" unicode="J" horiz-adv-x="462" 
d="M385 710v-527c0 -133 -68 -195 -192 -195c-65 0 -130 20 -181 47l32 72c49 -21 94 -38 146 -38c64 0 103 36 103 122v519h92z" />
    <glyph glyph-name="K" unicode="K" horiz-adv-x="656" 
d="M544 0l-243 366l-127 -130v-236h-93v710h93v-363l346 363h114l-271 -279l286 -431h-105z" />
    <glyph glyph-name="K.ss01" horiz-adv-x="656" 
d="M544 0l-241 364l-129 -124v-240h-93v710h93v-360l385 374l59 -57l-252 -242l283 -425h-105z" />
    <glyph glyph-name="Kcommaaccent" unicode="&#x136;" horiz-adv-x="656" 
d="M363 431l286 -431h-105l-243 366l-127 -130v-236h-93v710h93v-363l346 363h114zM296 -159v86h100v-86l-57 -94h-48l52 94h-47z" />
    <glyph glyph-name="Kcommaaccent.ss01" horiz-adv-x="656" 
d="M366 425l283 -425h-105l-241 364l-129 -124v-240h-93v710h93v-360l385 374l59 -57zM306 -159v86h100v-86l-57 -94h-48l52 94h-47z" />
    <glyph glyph-name="Kcommaaccent.ss01.ss02" horiz-adv-x="656" 
d="M366 425l283 -425h-105l-241 364l-129 -124v-240h-93v710h93v-360l385 374l59 -57zM352 -69c35 0 65 -24 65 -71c0 -61 -45 -113 -113 -113v36c24 2 56 17 65 52c-5 -1 -11 -2 -17 -2c-33 0 -54 18 -54 48s25 50 54 50z" />
    <glyph glyph-name="Kcommaaccent.ss02" horiz-adv-x="656" 
d="M363 431l286 -431h-105l-243 366l-127 -130v-236h-93v710h93v-363l346 363h114zM342 -69c35 0 65 -24 65 -71c0 -61 -45 -113 -113 -113v36c24 2 56 17 65 52c-5 -1 -11 -2 -17 -2c-33 0 -54 18 -54 48s25 50 54 50z" />
    <glyph glyph-name="L" unicode="L" horiz-adv-x="533" 
d="M174 710v-632h332v-78h-425v710h93z" />
    <glyph glyph-name="Lacute" unicode="&#x139;" horiz-adv-x="533" 
d="M257 920l-92 -144h-76l72 144h96zM174 710v-632h332v-78h-425v710h93z" />
    <glyph glyph-name="Lcaron" unicode="&#x13d;" horiz-adv-x="533" 
d="M174 710v-632h332v-78h-425v710h93zM380 710l-61 -198h-55l30 198h86z" />
    <glyph glyph-name="Lcommaaccent" unicode="&#x13b;" horiz-adv-x="533" 
d="M174 710v-632h332v-78h-425v710h93zM349 -73v-86l-57 -94h-48l52 94h-47v86h100z" />
    <glyph glyph-name="Lcommaaccent.ss02" horiz-adv-x="533" 
d="M174 78h332v-78h-425v710h93v-632zM295 -69c35 0 65 -24 65 -71c0 -61 -45 -113 -113 -113v36c24 2 56 17 65 52c-5 -1 -11 -2 -17 -2c-33 0 -54 18 -54 48s25 50 54 50z" />
    <glyph glyph-name="Ldot" unicode="&#x13f;" horiz-adv-x="533" 
d="M174 710v-632h332v-78h-425v710h93zM434 422v-108h-102v108h102z" />
    <glyph glyph-name="Ldot.ss02" horiz-adv-x="533" 
d="M174 710v-632h332v-78h-425v710h93zM375 305c-34 0 -62 29 -62 63c0 33 28 62 62 62s62 -29 62 -62c0 -34 -28 -63 -62 -63z" />
    <glyph glyph-name="Lslash" unicode="&#x141;" horiz-adv-x="566" 
d="M204 78h334v-78h-427v291l-84 -47v80l84 47v339h93v-292l153 85v-79l-153 -86v-260z" />
    <glyph glyph-name="M" unicode="M" horiz-adv-x="869" 
d="M640 710h148v-710h-90v355c0 97 1 194 2 288c-31 -92 -65 -187 -100 -288l-124 -355h-82l-127 355c-36 103 -70 196 -100 287c2 -94 2 -191 2 -288v-354h-88v710h148l111 -313c37 -102 71 -200 96 -286c25 86 58 183 94 286z" />
    <glyph glyph-name="N" unicode="N" horiz-adv-x="731" 
d="M560 710h90v-710h-102l-211 323c-62 97 -121 186 -171 272c4 -88 5 -180 5 -276v-319h-90v710h104l213 -328c61 -95 117 -181 166 -265c-3 85 -4 174 -4 269v324z" />
    <glyph glyph-name="Nacute" unicode="&#x143;" horiz-adv-x="731" 
d="M502 920l-92 -144h-76l72 144h96zM560 710h90v-710h-102l-211 323c-62 97 -121 186 -171 272c4 -88 5 -180 5 -276v-319h-90v710h104l213 -328c61 -95 117 -181 166 -265c-3 85 -4 174 -4 269v324z" />
    <glyph glyph-name="Ncaron" unicode="&#x147;" horiz-adv-x="731" 
d="M427 776h-108l-100 144h74l80 -102l80 102h74zM560 710h90v-710h-102l-211 323c-62 97 -121 186 -171 272c4 -88 5 -180 5 -276v-319h-90v710h104l213 -328c61 -95 117 -181 166 -265c-3 85 -4 174 -4 269v324z" />
    <glyph glyph-name="Ncommaaccent" unicode="&#x145;" horiz-adv-x="731" 
d="M560 710h90v-710h-102l-211 323c-62 97 -121 186 -171 272c4 -88 5 -180 5 -276v-319h-90v710h104l213 -328c61 -95 117 -181 166 -265c-3 85 -4 174 -4 269v324zM317 -159v86h100v-86l-57 -94h-48l52 94h-47z" />
    <glyph glyph-name="Ncommaaccent.ss02" horiz-adv-x="731" 
d="M560 710h90v-710h-102l-211 323c-62 97 -121 186 -171 272c4 -88 5 -180 5 -276v-319h-90v710h104l213 -328c61 -95 117 -181 166 -265c-3 85 -4 174 -4 269v324zM363 -69c35 0 65 -24 65 -71c0 -61 -45 -113 -113 -113v36c24 2 56 17 65 52c-5 -1 -11 -2 -17 -2
c-33 0 -54 18 -54 48s25 50 54 50z" />
    <glyph glyph-name="Eng" unicode="&#x14a;" horiz-adv-x="731" 
d="M560 710h90v-710v-44c0 -98 -47 -153 -144 -153c-35 0 -71 7 -107 18l19 72c30 -9 57 -14 77 -14c50 0 69 28 69 82v13l-227 349c-62 96 -120 185 -170 270c4 -87 4 -178 4 -274v-319h-90v710h103l214 -328c61 -95 117 -181 166 -266c-3 85 -4 174 -4 270v324z" />
    <glyph glyph-name="Ntilde" unicode="&#xd1;" horiz-adv-x="731" 
d="M306 841c-24 0 -34 -24 -34 -51h-55c0 68 36 110 89 110c58 0 96 -53 137 -53c25 0 32 24 32 53h54c0 -68 -31 -111 -81 -111c-52 0 -98 52 -142 52zM560 710h90v-710h-102l-211 323c-62 97 -121 186 -171 272c4 -88 5 -180 5 -276v-319h-90v710h104l213 -328
c61 -95 117 -181 166 -265c-3 85 -4 174 -4 269v324z" />
    <glyph glyph-name="O" unicode="O" horiz-adv-x="757" 
d="M379 726c210 0 337 -159 337 -371s-127 -371 -337 -371s-338 159 -338 371s128 371 338 371zM379 645c-147 0 -244 -120 -244 -290c0 -171 97 -290 244 -290s243 119 243 290c0 170 -96 290 -243 290z" />
    <glyph glyph-name="Oacute" unicode="&#xd3;" horiz-adv-x="757" 
d="M507 920l-92 -144h-76l72 144h96zM379 726c210 0 337 -159 337 -371s-127 -371 -337 -371s-338 159 -338 371s128 371 338 371zM379 645c-147 0 -244 -120 -244 -290c0 -171 97 -290 244 -290s243 119 243 290c0 170 -96 290 -243 290z" />
    <glyph glyph-name="Ocircumflex" unicode="&#xd4;" horiz-adv-x="757" 
d="M459 776l-80 101l-80 -101h-74l100 144h108l100 -144h-74zM379 726c210 0 337 -159 337 -371s-127 -371 -337 -371s-338 159 -338 371s128 371 338 371zM379 645c-147 0 -244 -120 -244 -290c0 -171 97 -290 244 -290s243 119 243 290c0 170 -96 290 -243 290z" />
    <glyph glyph-name="Odieresis" unicode="&#xd6;" horiz-adv-x="757" 
d="M333 896v-103h-84v103h84zM510 896v-103h-84v103h84zM379 726c210 0 337 -159 337 -371s-127 -371 -337 -371s-338 159 -338 371s128 371 338 371zM379 645c-147 0 -244 -120 -244 -290c0 -171 97 -290 244 -290s243 119 243 290c0 170 -96 290 -243 290z" />
    <glyph glyph-name="Odieresis.ss02" horiz-adv-x="757" 
d="M291 792c-31 0 -55 25 -55 55c0 29 24 54 55 54c30 0 55 -25 55 -54c0 -30 -25 -55 -55 -55zM469 792c-30 0 -55 25 -55 55c0 29 25 54 55 54c31 0 55 -25 55 -54c0 -30 -24 -55 -55 -55zM379 726c210 0 337 -159 337 -371s-127 -371 -337 -371s-338 159 -338 371
s128 371 338 371zM379 645c-147 0 -244 -120 -244 -290c0 -171 97 -290 244 -290s243 119 243 290c0 170 -96 290 -243 290z" />
    <glyph glyph-name="Ograve" unicode="&#xd2;" horiz-adv-x="757" 
d="M251 920h96l72 -144h-76zM379 726c210 0 337 -159 337 -371s-127 -371 -337 -371s-338 159 -338 371s128 371 338 371zM379 645c-147 0 -244 -120 -244 -290c0 -171 97 -290 244 -290s243 119 243 290c0 170 -96 290 -243 290z" />
    <glyph glyph-name="Ohungarumlaut" unicode="&#x150;" horiz-adv-x="757" 
d="M429 920l-93 -145h-66l72 145h87zM584 920l-94 -145h-67l74 145h87zM379 726c210 0 337 -159 337 -371s-127 -371 -337 -371s-338 159 -338 371s128 371 338 371zM379 645c-147 0 -244 -120 -244 -290c0 -171 97 -290 244 -290s243 119 243 290c0 170 -96 290 -243 290z
" />
    <glyph glyph-name="Omacron" unicode="&#x14c;" horiz-adv-x="757" 
d="M518 864v-66h-279v66h279zM379 726c210 0 337 -159 337 -371s-127 -371 -337 -371s-338 159 -338 371s128 371 338 371zM379 645c-147 0 -244 -120 -244 -290c0 -171 97 -290 244 -290s243 119 243 290c0 170 -96 290 -243 290z" />
    <glyph glyph-name="Oslash" unicode="&#xd8;" horiz-adv-x="757" 
d="M635 610c52 -66 81 -154 81 -255c0 -212 -127 -371 -337 -371c-84 0 -154 26 -209 69l-47 -56l-51 43l51 61c-53 65 -82 153 -82 254c0 212 128 371 338 371c83 0 154 -25 208 -69l47 56l51 -43zM135 355c0 -71 17 -134 48 -182l348 416c-40 36 -92 56 -152 56
c-147 0 -244 -120 -244 -290zM379 65c147 0 243 119 243 290c0 71 -17 134 -47 182l-348 -416c40 -36 92 -56 152 -56z" />
    <glyph glyph-name="Otilde" unicode="&#xd5;" horiz-adv-x="757" 
d="M311 900c58 0 96 -53 137 -53c25 0 32 24 32 53h54c0 -68 -31 -111 -81 -111c-52 0 -98 52 -142 52c-24 0 -34 -24 -34 -51h-55c0 68 36 110 89 110zM379 726c210 0 337 -159 337 -371s-127 -371 -337 -371s-338 159 -338 371s128 371 338 371zM379 645
c-147 0 -244 -120 -244 -290c0 -171 97 -290 244 -290s243 119 243 290c0 170 -96 290 -243 290z" />
    <glyph glyph-name="OE" unicode="&#x152;" horiz-adv-x="1150" 
d="M715 77h389v-77h-482v107c-53 -76 -136 -123 -245 -123c-210 0 -336 159 -336 371s126 371 336 371c109 0 192 -47 245 -123v107h473v-77h-380v-229h353v-77h-353v-250zM379 65c147 0 243 119 243 290c0 170 -96 290 -243 290s-244 -120 -244 -290
c0 -171 97 -290 244 -290z" />
    <glyph glyph-name="P" unicode="P" horiz-adv-x="651" 
d="M387 710c137 0 231 -77 231 -212s-94 -213 -231 -213h-213v-285h-93v710h306zM373 633h-199v-271h199c93 0 153 46 153 136c0 89 -60 135 -153 135z" />
    <glyph glyph-name="Thorn" unicode="&#xde;" horiz-adv-x="651" 
d="M387 581c137 0 231 -77 231 -212s-94 -212 -231 -212h-213v-157h-93v710h93v-129h213zM373 233c93 0 153 46 153 136c0 89 -60 135 -153 135h-199v-271h199z" />
    <glyph glyph-name="Q" unicode="Q" horiz-adv-x="757" 
d="M716 355c0 -122 -42 -227 -118 -293l61 -81l-67 -47l-62 83c-44 -21 -94 -33 -151 -33c-210 0 -338 159 -338 371s128 371 338 371s337 -159 337 -371zM379 65c36 0 69 7 99 21l-94 124l66 47l94 -124c50 51 78 129 78 222c0 170 -96 290 -243 290s-244 -120 -244 -290
c0 -171 97 -290 244 -290z" />
    <glyph glyph-name="R" unicode="R" horiz-adv-x="667" 
d="M634 0h-104l-190 285h-166v-285h-93v710h299c132 0 230 -78 230 -212c0 -114 -70 -187 -171 -207zM174 633v-271h191c93 0 153 46 153 136c0 89 -61 135 -154 135h-190z" />
    <glyph glyph-name="Racute" unicode="&#x154;" horiz-adv-x="667" 
d="M459 920l-92 -144h-76l72 144h96zM634 0h-104l-190 285h-166v-285h-93v710h299c132 0 230 -78 230 -212c0 -114 -70 -187 -171 -207zM174 633v-271h191c93 0 153 46 153 136c0 89 -61 135 -154 135h-190z" />
    <glyph glyph-name="Rcaron" unicode="&#x158;" horiz-adv-x="667" 
d="M384 776h-108l-100 144h74l80 -102l80 102h74zM634 0h-104l-190 285h-166v-285h-93v710h299c132 0 230 -78 230 -212c0 -114 -70 -187 -171 -207zM174 633v-271h191c93 0 153 46 153 136c0 89 -61 135 -154 135h-190z" />
    <glyph glyph-name="Rcommaaccent" unicode="&#x156;" horiz-adv-x="667" 
d="M439 291l195 -291h-104l-190 285h-166v-285h-93v710h299c132 0 230 -78 230 -212c0 -114 -70 -187 -171 -207zM174 633v-271h191c93 0 153 46 153 136c0 89 -61 135 -154 135h-190zM286 -159v86h100v-86l-57 -94h-48l52 94h-47z" />
    <glyph glyph-name="Rcommaaccent.ss02" horiz-adv-x="667" 
d="M439 291l195 -291h-104l-190 285h-166v-285h-93v710h299c132 0 230 -78 230 -212c0 -114 -70 -187 -171 -207zM174 633v-271h191c93 0 153 46 153 136c0 89 -61 135 -154 135h-190zM332 -69c35 0 65 -24 65 -71c0 -61 -45 -113 -113 -113v36c24 2 56 17 65 52
c-5 -1 -11 -2 -17 -2c-33 0 -54 18 -54 48s25 50 54 50z" />
    <glyph glyph-name="S" unicode="S" horiz-adv-x="629" 
d="M308 725c108 0 184 -32 268 -104l-54 -64c-78 68 -136 89 -214 89c-98 0 -163 -49 -163 -116c0 -75 65 -93 195 -122c175 -41 246 -90 246 -204c0 -132 -108 -220 -262 -220c-117 0 -198 36 -299 123l55 65c105 -88 168 -108 245 -108c97 0 169 50 169 135
c0 86 -77 104 -198 132c-179 41 -241 86 -241 197c0 119 114 197 253 197z" />
    <glyph glyph-name="Sacute" unicode="&#x15a;" horiz-adv-x="629" 
d="M442 920l-92 -144h-76l72 144h96zM308 725c108 0 184 -32 268 -104l-54 -64c-78 68 -136 89 -214 89c-98 0 -163 -49 -163 -116c0 -75 65 -93 195 -122c175 -41 246 -90 246 -204c0 -132 -108 -220 -262 -220c-117 0 -198 36 -299 123l55 65c105 -88 168 -108 245 -108
c97 0 169 50 169 135c0 86 -77 104 -198 132c-179 41 -241 86 -241 197c0 119 114 197 253 197z" />
    <glyph glyph-name="Scaron" unicode="&#x160;" horiz-adv-x="629" 
d="M468 920l-100 -144h-108l-100 144h74l80 -102l80 102h74zM308 725c108 0 184 -32 268 -104l-54 -64c-78 68 -136 89 -214 89c-98 0 -163 -49 -163 -116c0 -75 65 -93 195 -122c175 -41 246 -90 246 -204c0 -132 -108 -220 -262 -220c-117 0 -198 36 -299 123l55 65
c105 -88 168 -108 245 -108c97 0 169 50 169 135c0 86 -77 104 -198 132c-179 41 -241 86 -241 197c0 119 114 197 253 197z" />
    <glyph glyph-name="Scedilla" unicode="&#x15e;" horiz-adv-x="629" 
d="M586 204c0 -130 -104 -217 -254 -220l-24 -51c63 3 107 -29 107 -78c0 -53 -43 -90 -105 -90c-40 0 -74 13 -108 35l25 42c31 -18 52 -27 81 -27c30 0 54 13 54 39c0 24 -26 37 -58 37c-9 0 -21 -1 -29 -3l-27 27l33 71c-95 8 -168 45 -256 121l55 65
c105 -88 168 -108 245 -108c97 0 169 50 169 132c0 89 -77 107 -198 135c-179 41 -241 86 -241 197c0 119 114 198 253 198c108 0 184 -33 268 -105l-54 -64c-78 68 -136 89 -214 89c-98 0 -163 -49 -163 -116c0 -75 65 -93 195 -122c175 -41 246 -90 246 -204z" />
    <glyph glyph-name="Scommaaccent" unicode="&#x218;" horiz-adv-x="629" 
d="M308 725c108 0 184 -32 268 -104l-54 -64c-78 68 -136 89 -214 89c-98 0 -163 -49 -163 -116c0 -75 65 -93 195 -122c175 -41 246 -90 246 -204c0 -132 -108 -220 -262 -220c-117 0 -198 36 -299 123l55 65c105 -88 168 -108 245 -108c97 0 169 50 169 135
c0 86 -77 104 -198 132c-179 41 -241 86 -241 197c0 119 114 197 253 197zM362 -73v-86l-57 -94h-48l52 94h-47v86h100z" />
    <glyph glyph-name="Scommaaccent.ss02" horiz-adv-x="629" 
d="M340 408c175 -41 246 -90 246 -204c0 -132 -108 -220 -262 -220c-117 0 -198 36 -299 123l55 65c105 -88 168 -108 245 -108c97 0 169 50 169 135c0 86 -77 104 -198 132c-179 41 -241 86 -241 197c0 119 114 197 253 197c108 0 184 -32 268 -104l-54 -64
c-78 68 -136 89 -214 89c-98 0 -163 -49 -163 -116c0 -75 65 -93 195 -122zM308 -69c35 0 65 -24 65 -71c0 -61 -45 -113 -113 -113v36c24 2 56 17 65 52c-5 -1 -11 -2 -17 -2c-33 0 -54 18 -54 48s25 50 54 50z" />
    <glyph glyph-name="T" unicode="T" horiz-adv-x="598" 
d="M568 710v-78h-223v-632h-92v632h-223v78h538z" />
    <glyph glyph-name="Tbar" unicode="&#x166;" horiz-adv-x="599" 
d="M569 632h-223v-216h128v-66h-128v-350h-93v350h-126v66h126v216h-223v78h539v-78z" />
    <glyph glyph-name="Tcaron" unicode="&#x164;" horiz-adv-x="598" 
d="M453 920l-100 -144h-108l-100 144h74l80 -102l80 102h74zM568 710v-78h-223v-632h-92v632h-223v78h538z" />
    <glyph glyph-name="uni0162" unicode="&#x162;" horiz-adv-x="599" 
d="M346 0h-20l-31 -67c63 3 107 -29 107 -78c0 -53 -43 -90 -106 -90c-39 0 -74 13 -108 35l26 42c31 -18 52 -27 81 -27s53 13 53 39c0 24 -26 37 -57 37c-9 0 -21 -1 -29 -3l-28 27l40 85h-21v632h-223v78h539v-78h-223v-632z" />
    <glyph glyph-name="uni021A" unicode="&#x21a;" horiz-adv-x="598" 
d="M568 710v-78h-223v-632h-92v632h-223v78h538zM349 -73v-86l-57 -94h-48l52 94h-47v86h100z" />
    <glyph glyph-name="uni021A.ss02" horiz-adv-x="598" 
d="M30 710h538v-78h-223v-632h-92v632h-223v78zM295 -69c35 0 65 -24 65 -71c0 -61 -45 -113 -113 -113v36c24 2 56 17 65 52c-5 -1 -11 -2 -17 -2c-33 0 -54 18 -54 48s25 50 54 50z" />
    <glyph glyph-name="U" unicode="U" horiz-adv-x="688" 
d="M612 710v-484c0 -155 -89 -241 -268 -241c-178 0 -267 86 -267 241v484h92v-479c0 -108 61 -165 175 -165c115 0 175 57 175 165v479h93z" />
    <glyph glyph-name="Uacute" unicode="&#xda;" horiz-adv-x="688" 
d="M472 920l-92 -144h-76l72 144h96zM612 710v-484c0 -155 -89 -241 -268 -241c-178 0 -267 86 -267 241v484h92v-479c0 -108 61 -165 175 -165c115 0 175 57 175 165v479h93z" />
    <glyph glyph-name="Ucircumflex" unicode="&#xdb;" horiz-adv-x="688" 
d="M424 776l-80 101l-80 -101h-74l100 144h108l100 -144h-74zM612 710v-484c0 -155 -89 -241 -268 -241c-178 0 -267 86 -267 241v484h92v-479c0 -108 61 -165 175 -165c115 0 175 57 175 165v479h93z" />
    <glyph glyph-name="Udieresis" unicode="&#xdc;" horiz-adv-x="688" 
d="M298 896v-103h-84v103h84zM475 896v-103h-84v103h84zM612 710v-484c0 -155 -89 -241 -268 -241c-178 0 -267 86 -267 241v484h92v-479c0 -108 61 -165 175 -165c115 0 175 57 175 165v479h93z" />
    <glyph glyph-name="Udieresis.ss02" horiz-adv-x="688" 
d="M256 792c-31 0 -55 25 -55 55c0 29 24 54 55 54c30 0 55 -25 55 -54c0 -30 -25 -55 -55 -55zM434 792c-30 0 -55 25 -55 55c0 29 25 54 55 54c31 0 55 -25 55 -54c0 -30 -24 -55 -55 -55zM612 710v-484c0 -155 -89 -241 -268 -241c-178 0 -267 86 -267 241v484h92v-479
c0 -108 61 -165 175 -165c115 0 175 57 175 165v479h93z" />
    <glyph glyph-name="Ugrave" unicode="&#xd9;" horiz-adv-x="688" 
d="M216 920h96l72 -144h-76zM612 710v-484c0 -155 -89 -241 -268 -241c-178 0 -267 86 -267 241v484h92v-479c0 -108 61 -165 175 -165c115 0 175 57 175 165v479h93z" />
    <glyph glyph-name="Uhungarumlaut" unicode="&#x170;" horiz-adv-x="688" 
d="M394 920l-93 -145h-66l72 145h87zM549 920l-94 -145h-67l74 145h87zM612 710v-484c0 -155 -89 -241 -268 -241c-178 0 -267 86 -267 241v484h92v-479c0 -108 61 -165 175 -165c115 0 175 57 175 165v479h93z" />
    <glyph glyph-name="Umacron" unicode="&#x16a;" horiz-adv-x="688" 
d="M484 864v-66h-279v66h279zM612 710v-484c0 -155 -89 -241 -268 -241c-178 0 -267 86 -267 241v484h92v-479c0 -108 61 -165 175 -165c115 0 175 57 175 165v479h93z" />
    <glyph glyph-name="Uogonek" unicode="&#x172;" horiz-adv-x="688" 
d="M519 710h93v-483c0 -104 -31 -157 -109 -213c-55 -39 -91 -82 -91 -122c0 -29 21 -44 51 -44c12 0 20 1 27 3v-54c-11 -5 -26 -6 -38 -6c-62 0 -103 32 -103 87c0 40 19 77 54 111c-18 -3 -39 -4 -59 -4c-178 0 -267 86 -267 241v484h92v-479c0 -108 61 -165 175 -165
c115 0 175 57 175 165v479z" />
    <glyph glyph-name="Uring" unicode="&#x16e;" horiz-adv-x="688" 
d="M343 939c60 0 107 -47 107 -104c0 -58 -47 -104 -107 -104c-59 0 -107 46 -107 104c0 57 48 104 107 104zM343 895c-34 0 -59 -25 -59 -60c0 -36 25 -61 59 -61s60 25 60 61c0 35 -26 60 -60 60zM612 710v-484c0 -155 -89 -241 -268 -241c-178 0 -267 86 -267 241v484h92
v-479c0 -108 61 -165 175 -165c115 0 175 57 175 165v479h93z" />
    <glyph glyph-name="V" unicode="V" horiz-adv-x="633" 
d="M521 710h95l-241 -710h-117l-241 710h96l117 -352c32 -94 62 -185 88 -277c25 91 55 182 86 276z" />
    <glyph glyph-name="W" unicode="W" horiz-adv-x="939" 
d="M816 710h91l-171 -710h-113l-87 326c-23 87 -46 176 -66 265c-20 -90 -42 -179 -65 -266l-88 -325h-114l-172 710h94l81 -342c21 -92 40 -183 58 -274c21 92 43 182 69 274l93 342h93l91 -342c25 -92 46 -182 67 -273c19 91 37 181 59 273z" />
    <glyph glyph-name="Wacute" unicode="&#x1e82;" horiz-adv-x="939" 
d="M598 920l-92 -144h-76l72 144h96zM816 710h91l-171 -710h-113l-87 326c-23 87 -46 176 -66 265c-20 -90 -42 -179 -65 -266l-88 -325h-114l-172 710h94l81 -342c21 -92 40 -183 58 -274c21 92 43 182 69 274l93 342h93l91 -342c25 -92 46 -182 67 -273
c19 91 37 181 59 273z" />
    <glyph glyph-name="Wcircumflex" unicode="&#x174;" horiz-adv-x="939" 
d="M469 877l-80 -101h-74l100 144h108l100 -144h-74zM816 710h91l-171 -710h-113l-87 326c-23 87 -46 176 -66 265c-20 -90 -42 -179 -65 -266l-88 -325h-114l-172 710h94l81 -342c21 -92 40 -183 58 -274c21 92 43 182 69 274l93 342h93l91 -342c25 -92 46 -182 67 -273
c19 91 37 181 59 273z" />
    <glyph glyph-name="Wdieresis" unicode="&#x1e84;" horiz-adv-x="939" 
d="M424 896v-103h-84v103h84zM601 896v-103h-84v103h84zM816 710h91l-171 -710h-113l-87 326c-23 87 -46 176 -66 265c-20 -90 -42 -179 -65 -266l-88 -325h-114l-172 710h94l81 -342c21 -92 40 -183 58 -274c21 92 43 182 69 274l93 342h93l91 -342c25 -92 46 -182 67 -273
c19 91 37 181 59 273z" />
    <glyph glyph-name="Wdieresis.ss02" horiz-adv-x="939" 
d="M382 792c-31 0 -55 25 -55 55c0 29 24 54 55 54c30 0 55 -25 55 -54c0 -30 -25 -55 -55 -55zM560 792c-30 0 -55 25 -55 55c0 29 25 54 55 54c31 0 55 -25 55 -54c0 -30 -24 -55 -55 -55zM816 710h91l-171 -710h-113l-87 326c-23 87 -46 176 -66 265
c-20 -90 -42 -179 -65 -266l-88 -325h-114l-172 710h94l81 -342c21 -92 40 -183 58 -274c21 92 43 182 69 274l93 342h93l91 -342c25 -92 46 -182 67 -273c19 91 37 181 59 273z" />
    <glyph glyph-name="Wgrave" unicode="&#x1e80;" horiz-adv-x="939" 
d="M509 776h-76l-92 144h96zM816 710h91l-171 -710h-113l-87 326c-23 87 -46 176 -66 265c-20 -90 -42 -179 -65 -266l-88 -325h-114l-172 710h94l81 -342c21 -92 40 -183 58 -274c21 92 43 182 69 274l93 342h93l91 -342c25 -92 46 -182 67 -273c19 91 37 181 59 273z" />
    <glyph glyph-name="X" unicode="X" horiz-adv-x="643" 
d="M631 0h-104l-206 307l-206 -307h-104l254 374l-229 336h103l183 -272l183 272h103l-230 -337z" />
    <glyph glyph-name="Y" unicode="Y" horiz-adv-x="624" 
d="M509 710h100l-252 -407v-303h-92v304l-250 406h102l196 -325z" />
    <glyph glyph-name="Yacute" unicode="&#xdd;" horiz-adv-x="624" 
d="M440 920l-92 -144h-76l72 144h96zM509 710h100l-252 -407v-303h-92v304l-250 406h102l196 -325z" />
    <glyph glyph-name="Ycircumflex" unicode="&#x176;" horiz-adv-x="624" 
d="M312 877l-80 -101h-74l100 144h108l100 -144h-74zM509 710h100l-252 -407v-303h-92v304l-250 406h102l196 -325z" />
    <glyph glyph-name="Ydieresis" unicode="&#x178;" horiz-adv-x="624" 
d="M266 896v-103h-84v103h84zM443 896v-103h-84v103h84zM509 710h100l-252 -407v-303h-92v304l-250 406h102l196 -325z" />
    <glyph glyph-name="Ydieresis.ss02" horiz-adv-x="624" 
d="M224 792c-31 0 -55 25 -55 55c0 29 24 54 55 54c30 0 55 -25 55 -54c0 -30 -25 -55 -55 -55zM402 792c-30 0 -55 25 -55 55c0 29 25 54 55 54c31 0 55 -25 55 -54c0 -30 -24 -55 -55 -55zM509 710h100l-252 -407v-303h-92v304l-250 406h102l196 -325z" />
    <glyph glyph-name="Ygrave" unicode="&#x1ef2;" horiz-adv-x="624" 
d="M352 776h-76l-92 144h96zM509 710h100l-252 -407v-303h-92v304l-250 406h102l196 -325z" />
    <glyph glyph-name="Z" unicode="Z" horiz-adv-x="623" 
d="M581 710v-74l-430 -559h429v-77h-539v74l430 559h-411v77h521z" />
    <glyph glyph-name="Zacute" unicode="&#x179;" horiz-adv-x="623" 
d="M453 920l-92 -144h-76l72 144h96zM581 710v-74l-430 -559h429v-77h-539v74l430 559h-411v77h521z" />
    <glyph glyph-name="Zcaron" unicode="&#x17d;" horiz-adv-x="623" 
d="M378 776h-108l-100 144h74l80 -102l80 102h74zM581 710v-74l-430 -559h429v-77h-539v74l430 559h-411v77h521z" />
    <glyph glyph-name="Zdotaccent" unicode="&#x17b;" horiz-adv-x="623" 
d="M367 896v-103h-86v103h86zM581 710v-74l-430 -559h429v-77h-539v74l430 559h-411v77h521z" />
    <glyph glyph-name="Zdotaccent.ss02" horiz-adv-x="623" 
d="M325 789c-33 0 -57 25 -57 56s24 56 57 56c32 0 56 -25 56 -56s-24 -56 -56 -56zM581 710v-74l-430 -559h429v-77h-539v74l430 559h-411v77h521z" />
    <glyph glyph-name="a" unicode="a" horiz-adv-x="532" 
d="M266 506c130 0 200 -68 200 -164v-342h-78v60c-33 -49 -93 -76 -167 -76c-96 0 -176 40 -176 138c0 115 106 149 229 171l110 20v25c0 62 -47 97 -115 97c-63 0 -104 -24 -162 -83l-55 49c61 72 129 105 214 105zM230 55c85 0 154 48 154 129v65l-90 -18
c-96 -20 -165 -38 -165 -106c0 -45 38 -70 101 -70z" />
    <glyph glyph-name="aacute" unicode="&#xe1;" horiz-adv-x="532" 
d="M396 716l-92 -144h-76l72 144h96zM266 506c130 0 200 -68 200 -164v-342h-78v60c-33 -49 -93 -76 -167 -76c-96 0 -176 40 -176 138c0 115 106 149 229 171l110 20v25c0 62 -47 97 -115 97c-63 0 -104 -24 -162 -83l-55 49c61 72 129 105 214 105zM230 55
c85 0 154 48 154 129v65l-90 -18c-96 -20 -165 -38 -165 -106c0 -45 38 -70 101 -70z" />
    <glyph glyph-name="abreve" unicode="&#x103;" horiz-adv-x="532" 
d="M268 571c-86 0 -144 50 -144 131h68c0 -42 22 -78 76 -78s75 36 75 78h68c0 -81 -58 -131 -143 -131zM266 506c130 0 200 -68 200 -164v-342h-78v60c-33 -49 -93 -76 -167 -76c-96 0 -176 40 -176 138c0 115 106 149 229 171l110 20v25c0 62 -47 97 -115 97
c-63 0 -104 -24 -162 -83l-55 49c61 72 129 105 214 105zM230 55c85 0 154 48 154 129v65l-90 -18c-96 -20 -165 -38 -165 -106c0 -45 38 -70 101 -70z" />
    <glyph glyph-name="acircumflex" unicode="&#xe2;" horiz-adv-x="532" 
d="M268 673l-80 -101h-74l100 144h108l100 -144h-74zM266 506c130 0 200 -68 200 -164v-342h-78v60c-33 -49 -93 -76 -167 -76c-96 0 -176 40 -176 138c0 115 106 149 229 171l110 20v25c0 62 -47 97 -115 97c-63 0 -104 -24 -162 -83l-55 49c61 72 129 105 214 105zM230 55
c85 0 154 48 154 129v65l-90 -18c-96 -20 -165 -38 -165 -106c0 -45 38 -70 101 -70z" />
    <glyph glyph-name="adieresis" unicode="&#xe4;" horiz-adv-x="532" 
d="M222 692v-103h-84v103h84zM399 692v-103h-84v103h84zM266 506c130 0 200 -68 200 -164v-342h-78v60c-33 -49 -93 -76 -167 -76c-96 0 -176 40 -176 138c0 115 106 149 229 171l110 20v25c0 62 -47 97 -115 97c-63 0 -104 -24 -162 -83l-55 49c61 72 129 105 214 105z
M230 55c85 0 154 48 154 129v65l-90 -18c-96 -20 -165 -38 -165 -106c0 -45 38 -70 101 -70z" />
    <glyph glyph-name="adieresis.ss02" horiz-adv-x="532" 
d="M180 588c-31 0 -55 25 -55 55c0 29 24 54 55 54c30 0 55 -25 55 -54c0 -30 -25 -55 -55 -55zM358 588c-30 0 -55 25 -55 55c0 29 25 54 55 54c31 0 55 -25 55 -54c0 -30 -24 -55 -55 -55zM266 506c130 0 200 -68 200 -164v-342h-78v60c-33 -49 -93 -76 -167 -76
c-96 0 -176 40 -176 138c0 115 106 149 229 171l110 20v25c0 62 -47 97 -115 97c-63 0 -104 -24 -162 -83l-55 49c61 72 129 105 214 105zM230 55c85 0 154 48 154 129v65l-90 -18c-96 -20 -165 -38 -165 -106c0 -45 38 -70 101 -70z" />
    <glyph glyph-name="agrave" unicode="&#xe0;" horiz-adv-x="532" 
d="M308 572h-76l-92 144h96zM266 506c130 0 200 -68 200 -164v-342h-78v60c-33 -49 -93 -76 -167 -76c-96 0 -176 40 -176 138c0 115 106 149 229 171l110 20v25c0 62 -47 97 -115 97c-63 0 -104 -24 -162 -83l-55 49c61 72 129 105 214 105zM230 55c85 0 154 48 154 129v65
l-90 -18c-96 -20 -165 -38 -165 -106c0 -45 38 -70 101 -70z" />
    <glyph glyph-name="amacron" unicode="&#x101;" horiz-adv-x="532" 
d="M408 660v-66h-279v66h279zM266 506c130 0 200 -68 200 -164v-342h-78v60c-33 -49 -93 -76 -167 -76c-96 0 -176 40 -176 138c0 115 106 149 229 171l110 20v25c0 62 -47 97 -115 97c-63 0 -104 -24 -162 -83l-55 49c61 72 129 105 214 105zM230 55c85 0 154 48 154 129
v65l-90 -18c-96 -20 -165 -38 -165 -106c0 -45 38 -70 101 -70z" />
    <glyph glyph-name="aogonek" unicode="&#x105;" horiz-adv-x="532" 
d="M466 0c-58 -40 -79 -77 -79 -110c0 -28 20 -42 51 -42c11 0 19 1 26 3v-54c-11 -5 -27 -6 -38 -6c-61 0 -102 30 -102 84c0 43 21 84 72 125h-8v60c-33 -49 -93 -76 -167 -76c-96 0 -176 40 -176 138c0 115 106 149 229 171l110 20v25c0 62 -47 97 -115 97
c-63 0 -104 -24 -162 -83l-55 49c61 72 129 105 214 105c130 0 200 -68 200 -164v-342zM230 55c85 0 154 48 154 129v65l-90 -18c-96 -20 -165 -38 -165 -106c0 -45 38 -70 101 -70z" />
    <glyph glyph-name="aring" unicode="&#xe5;" horiz-adv-x="532" 
d="M268 559c-60 0 -107 47 -107 104c0 58 47 104 107 104c59 0 107 -46 107 -104c0 -57 -48 -104 -107 -104zM268 724c-34 0 -60 -25 -60 -61s26 -61 60 -61s59 25 59 61s-25 61 -59 61zM266 506c130 0 200 -68 200 -164v-342h-78v60c-33 -49 -93 -76 -167 -76
c-96 0 -176 40 -176 138c0 115 106 149 229 171l110 20v25c0 62 -47 97 -115 97c-63 0 -104 -24 -162 -83l-55 49c61 72 129 105 214 105zM230 55c85 0 154 48 154 129v65l-90 -18c-96 -20 -165 -38 -165 -106c0 -45 38 -70 101 -70z" />
    <glyph glyph-name="atilde" unicode="&#xe3;" horiz-adv-x="532" 
d="M201 637c-24 0 -34 -24 -34 -51h-55c0 68 36 110 89 110c58 0 96 -53 137 -53c25 0 32 24 32 53h54c0 -68 -31 -111 -81 -111c-52 0 -98 52 -142 52zM266 506c130 0 200 -68 200 -164v-342h-78v60c-33 -49 -93 -76 -167 -76c-96 0 -176 40 -176 138
c0 115 106 149 229 171l110 20v25c0 62 -47 97 -115 97c-63 0 -104 -24 -162 -83l-55 49c61 72 129 105 214 105zM230 55c85 0 154 48 154 129v65l-90 -18c-96 -20 -165 -38 -165 -106c0 -45 38 -70 101 -70z" />
    <glyph glyph-name="ae" unicode="&#xe6;" horiz-adv-x="881" 
d="M791 140l51 -52c-73 -77 -136 -102 -215 -102c-84 0 -151 33 -193 90c-53 -58 -121 -92 -211 -92c-101 0 -178 42 -178 136c0 90 60 136 192 162l147 28v22c0 70 -39 103 -112 103c-54 0 -101 -21 -161 -79l-53 52c67 69 132 98 218 98s141 -30 168 -79
c40 50 101 79 175 79c141 0 222 -92 222 -237c0 -9 -1 -27 -2 -39h-369c5 -89 51 -172 158 -172c64 0 101 23 163 82zM618 438c-80 0 -133 -53 -146 -145h285c-4 87 -52 145 -139 145zM231 55c73 0 132 34 170 82c-10 28 -16 57 -17 109l-125 -26c-89 -19 -129 -46 -129 -94
c0 -49 42 -71 101 -71z" />
    <glyph glyph-name="b" unicode="b" horiz-adv-x="572" 
d="M316 505c127 0 217 -103 217 -259s-92 -259 -217 -259c-79 0 -135 32 -168 88v-75h-81v710h86v-287c35 52 89 82 163 82zM303 61c85 0 142 74 142 185s-56 186 -142 186c-89 0 -153 -69 -153 -186c0 -118 65 -185 153 -185z" />
    <glyph glyph-name="c" unicode="c" horiz-adv-x="500" 
d="M417 360c-55 59 -95 74 -143 74c-101 0 -149 -92 -149 -188s48 -187 151 -187c53 0 89 19 147 82l56 -48c-65 -81 -123 -107 -203 -107c-145 0 -239 102 -239 260c0 157 96 260 239 260c81 0 137 -25 197 -93z" />
    <glyph glyph-name="cacute" unicode="&#x107;" horiz-adv-x="500" 
d="M401 716l-92 -144h-76l72 144h96zM417 360c-55 59 -95 74 -143 74c-101 0 -149 -92 -149 -188s48 -187 151 -187c53 0 89 19 147 82l56 -48c-65 -81 -123 -107 -203 -107c-145 0 -239 102 -239 260c0 157 96 260 239 260c81 0 137 -25 197 -93z" />
    <glyph glyph-name="ccaron" unicode="&#x10d;" horiz-adv-x="500" 
d="M427 716l-100 -144h-108l-100 144h74l80 -102l80 102h74zM417 360c-55 59 -95 74 -143 74c-101 0 -149 -92 -149 -188s48 -187 151 -187c53 0 89 19 147 82l56 -48c-65 -81 -123 -107 -203 -107c-145 0 -239 102 -239 260c0 157 96 260 239 260c81 0 137 -25 197 -93z
" />
    <glyph glyph-name="ccedilla" unicode="&#xe7;" horiz-adv-x="500" 
d="M479 93c-61 -76 -115 -103 -187 -107l-25 -53c63 3 108 -29 108 -78c0 -53 -43 -90 -106 -90c-40 0 -74 14 -108 36l25 41c32 -17 53 -27 82 -27s53 13 53 39c0 24 -26 37 -58 37c-8 0 -20 -1 -28 -3l-28 27l34 73c-125 15 -204 113 -204 258c0 157 96 260 239 260
c81 0 137 -25 197 -93l-56 -53c-55 59 -95 74 -143 74c-101 0 -149 -92 -149 -188s48 -187 151 -187c53 0 89 19 147 82z" />
    <glyph glyph-name="cdotaccent" unicode="&#x10b;" horiz-adv-x="500" 
d="M316 692v-103h-86v103h86zM417 360c-55 59 -95 74 -143 74c-101 0 -149 -92 -149 -188s48 -187 151 -187c53 0 89 19 147 82l56 -48c-65 -81 -123 -107 -203 -107c-145 0 -239 102 -239 260c0 157 96 260 239 260c81 0 137 -25 197 -93z" />
    <glyph glyph-name="cdotaccent.ss02" horiz-adv-x="500" 
d="M273 585c-33 0 -57 25 -57 56s24 56 57 56c32 0 56 -25 56 -56s-24 -56 -56 -56zM417 360c-55 59 -95 74 -143 74c-101 0 -149 -92 -149 -188s48 -187 151 -187c53 0 89 19 147 82l56 -48c-65 -81 -123 -107 -203 -107c-145 0 -239 102 -239 260c0 157 96 260 239 260
c81 0 137 -25 197 -93z" />
    <glyph glyph-name="d" unicode="d" horiz-adv-x="572" 
d="M419 710h86v-710h-81v77c-34 -57 -90 -90 -168 -90c-126 0 -217 103 -217 259s93 259 219 259c74 0 127 -29 161 -79v284zM269 60c89 0 153 69 153 186s-64 185 -153 185c-85 0 -142 -74 -142 -185s55 -186 142 -186z" />
    <glyph glyph-name="eth" unicode="&#xf0;" horiz-adv-x="569" 
d="M379 621c91 -71 140 -172 140 -328c0 -190 -91 -309 -244 -309c-150 0 -238 119 -238 248s83 244 219 244c82 0 145 -40 180 -100c-13 87 -50 149 -126 200l-104 -67l-30 44l83 53c-22 11 -46 22 -72 32l-46 18l32 67l43 -16c43 -15 82 -33 116 -54l86 56l30 -44zM275 59
c91 0 150 77 150 172c0 94 -66 171 -156 171c-91 0 -145 -77 -145 -171c0 -95 57 -172 151 -172z" />
    <glyph glyph-name="dcaron" unicode="&#x10f;" horiz-adv-x="716" 
d="M417 426v284h86v-710h-81v76c-34 -56 -90 -89 -168 -89c-126 0 -217 103 -217 259s93 259 219 259c74 0 127 -29 161 -79zM618 710h86l-61 -198h-55zM267 60c89 0 153 69 153 186s-64 185 -153 185c-85 0 -142 -74 -142 -185s55 -186 142 -186z" />
    <glyph glyph-name="dcroat" unicode="&#x111;" horiz-adv-x="598" 
d="M581 628v-62h-77v-566h-79v77c-34 -57 -91 -90 -169 -90c-126 0 -217 103 -217 257c0 155 93 257 219 257c73 0 126 -28 160 -77v142h-128v62h128v82h86v-82h77zM269 60c89 0 153 69 153 184c0 116 -64 184 -153 184c-85 0 -142 -74 -142 -184c0 -109 55 -184 142 -184z
" />
    <glyph glyph-name="e" unicode="e" horiz-adv-x="534" 
d="M444 140l51 -52c-72 -77 -134 -102 -215 -102c-150 0 -243 103 -243 257s91 263 235 263c141 0 222 -92 222 -237c0 -10 -1 -29 -2 -38h-370c5 -91 52 -173 159 -173c64 0 101 23 163 82zM271 437c-80 0 -133 -51 -146 -142h284c-4 85 -53 142 -138 142z" />
    <glyph glyph-name="eacute" unicode="&#xe9;" horiz-adv-x="534" 
d="M404 716l-92 -144h-76l72 144h96zM444 140l51 -52c-72 -77 -134 -102 -215 -102c-150 0 -243 103 -243 257s91 263 235 263c141 0 222 -92 222 -237c0 -10 -1 -29 -2 -38h-370c5 -91 52 -173 159 -173c64 0 101 23 163 82zM271 437c-80 0 -133 -51 -146 -142h284
c-4 85 -53 142 -138 142z" />
    <glyph glyph-name="ecaron" unicode="&#x11b;" horiz-adv-x="534" 
d="M330 572h-108l-100 144h74l80 -102l80 102h74zM444 140l51 -52c-72 -77 -134 -102 -215 -102c-150 0 -243 103 -243 257s91 263 235 263c141 0 222 -92 222 -237c0 -10 -1 -29 -2 -38h-370c5 -91 52 -173 159 -173c64 0 101 23 163 82zM271 437c-80 0 -133 -51 -146 -142
h284c-4 85 -53 142 -138 142z" />
    <glyph glyph-name="ecircumflex" unicode="&#xea;" horiz-adv-x="534" 
d="M276 673l-80 -101h-74l100 144h108l100 -144h-74zM444 140l51 -52c-72 -77 -134 -102 -215 -102c-150 0 -243 103 -243 257s91 263 235 263c141 0 222 -92 222 -237c0 -10 -1 -29 -2 -38h-370c5 -91 52 -173 159 -173c64 0 101 23 163 82zM271 437
c-80 0 -133 -51 -146 -142h284c-4 85 -53 142 -138 142z" />
    <glyph glyph-name="edieresis" unicode="&#xeb;" horiz-adv-x="534" 
d="M230 692v-103h-84v103h84zM407 692v-103h-84v103h84zM444 140l51 -52c-72 -77 -134 -102 -215 -102c-150 0 -243 103 -243 257s91 263 235 263c141 0 222 -92 222 -237c0 -10 -1 -29 -2 -38h-370c5 -91 52 -173 159 -173c64 0 101 23 163 82zM271 437
c-80 0 -133 -51 -146 -142h284c-4 85 -53 142 -138 142z" />
    <glyph glyph-name="edieresis.ss02" horiz-adv-x="534" 
d="M188 588c-31 0 -55 25 -55 55c0 29 24 54 55 54c30 0 55 -25 55 -54c0 -30 -25 -55 -55 -55zM366 588c-30 0 -55 25 -55 55c0 29 25 54 55 54c31 0 55 -25 55 -54c0 -30 -24 -55 -55 -55zM444 140l51 -52c-72 -77 -134 -102 -215 -102c-150 0 -243 103 -243 257
s91 263 235 263c141 0 222 -92 222 -237c0 -10 -1 -29 -2 -38h-370c5 -91 52 -173 159 -173c64 0 101 23 163 82zM271 437c-80 0 -133 -51 -146 -142h284c-4 85 -53 142 -138 142z" />
    <glyph glyph-name="edotaccent" unicode="&#x117;" horiz-adv-x="534" 
d="M319 692v-103h-86v103h86zM444 140l51 -52c-72 -77 -134 -102 -215 -102c-150 0 -243 103 -243 257s91 263 235 263c141 0 222 -92 222 -237c0 -10 -1 -29 -2 -38h-370c5 -91 52 -173 159 -173c64 0 101 23 163 82zM271 437c-80 0 -133 -51 -146 -142h284
c-4 85 -53 142 -138 142z" />
    <glyph glyph-name="edotaccent.ss02" horiz-adv-x="534" 
d="M276 585c-33 0 -57 25 -57 56s24 56 57 56c32 0 56 -25 56 -56s-24 -56 -56 -56zM444 140l51 -52c-72 -77 -134 -102 -215 -102c-150 0 -243 103 -243 257s91 263 235 263c141 0 222 -92 222 -237c0 -10 -1 -29 -2 -38h-370c5 -91 52 -173 159 -173c64 0 101 23 163 82z
M271 437c-80 0 -133 -51 -146 -142h284c-4 85 -53 142 -138 142z" />
    <glyph glyph-name="egrave" unicode="&#xe8;" horiz-adv-x="534" 
d="M316 572h-76l-92 144h96zM444 140l51 -52c-72 -77 -134 -102 -215 -102c-150 0 -243 103 -243 257s91 263 235 263c141 0 222 -92 222 -237c0 -10 -1 -29 -2 -38h-370c5 -91 52 -173 159 -173c64 0 101 23 163 82zM271 437c-80 0 -133 -51 -146 -142h284
c-4 85 -53 142 -138 142z" />
    <glyph glyph-name="emacron" unicode="&#x113;" horiz-adv-x="534" 
d="M416 660v-66h-279v66h279zM444 140l51 -52c-72 -77 -134 -102 -215 -102c-150 0 -243 103 -243 257s91 263 235 263c141 0 222 -92 222 -237c0 -10 -1 -29 -2 -38h-370c5 -91 52 -173 159 -173c64 0 101 23 163 82zM271 437c-80 0 -133 -51 -146 -142h284
c-4 85 -53 142 -138 142z" />
    <glyph glyph-name="eogonek" unicode="&#x119;" horiz-adv-x="534" 
d="M404 -209c-60 0 -107 28 -107 90c0 31 11 71 47 112c-20 -5 -41 -7 -64 -7c-150 0 -243 103 -243 257s91 263 235 263c141 0 222 -92 222 -237c0 -10 -1 -29 -2 -38h-370c6 -90 52 -173 159 -173c64 0 101 23 163 82l51 -52c-15 -17 -30 -30 -45 -43
c-70 -64 -89 -110 -89 -150c0 -31 21 -47 54 -47c9 0 20 1 27 3v-55c-10 -4 -27 -5 -38 -5zM125 295h283c-3 85 -52 142 -137 142c-80 0 -133 -50 -146 -142z" />
    <glyph glyph-name="f" unicode="f" horiz-adv-x="339" 
d="M271 654c-54 0 -76 -25 -76 -90v-72h124v-65h-124v-427h-86v427h-91v65h91v82c0 97 52 152 148 152c30 0 60 -4 99 -17l-17 -66c-31 8 -49 11 -68 11z" />
    <glyph glyph-name="g" unicode="g" horiz-adv-x="565" 
d="M418 492h80v-481c0 -129 -88 -204 -223 -204c-82 0 -155 25 -223 73l43 63c62 -39 112 -63 179 -63c77 0 139 38 139 138v68c-32 -50 -84 -80 -157 -80c-128 0 -216 104 -216 250s88 250 216 250c77 0 130 -32 162 -86v72zM270 79c87 0 145 73 145 177
c0 103 -58 177 -145 177c-90 0 -142 -74 -142 -177c0 -104 52 -177 142 -177z" />
    <glyph glyph-name="gbreve" unicode="&#x11f;" horiz-adv-x="565" 
d="M283 571c-86 0 -144 50 -144 131h68c0 -42 22 -78 76 -78s75 36 75 78h68c0 -81 -58 -131 -143 -131zM418 492h80v-481c0 -129 -88 -204 -223 -204c-82 0 -155 25 -223 73l43 63c62 -39 112 -63 179 -63c77 0 139 38 139 138v68c-32 -50 -84 -80 -157 -80
c-128 0 -216 104 -216 250s88 250 216 250c77 0 130 -32 162 -86v72zM270 79c87 0 145 73 145 177c0 103 -58 177 -145 177c-90 0 -142 -74 -142 -177c0 -104 52 -177 142 -177z" />
    <glyph glyph-name="gcommaaccent" unicode="&#x123;" horiz-adv-x="565" 
d="M331 675v-88h-101v88l57 100h48l-51 -100h47zM418 492h80v-481c0 -129 -88 -204 -223 -204c-82 0 -155 25 -223 73l43 63c62 -39 112 -63 179 -63c77 0 139 38 139 138v68c-32 -50 -84 -80 -157 -80c-128 0 -216 104 -216 250s88 250 216 250c77 0 130 -32 162 -86v72z
M270 79c87 0 145 73 145 177c0 103 -58 177 -145 177c-90 0 -142 -74 -142 -177c0 -104 52 -177 142 -177z" />
    <glyph glyph-name="gcommaaccent.ss02" horiz-adv-x="565" 
d="M287 586c-34 0 -64 24 -64 72c0 60 44 113 113 112v-35c-24 -2 -58 -18 -66 -53c5 2 12 3 18 3c33 0 54 -19 54 -48c0 -30 -25 -51 -55 -51zM418 492h80v-481c0 -129 -88 -204 -223 -204c-82 0 -155 25 -223 73l43 63c62 -39 112 -63 179 -63c77 0 139 38 139 138v68
c-32 -50 -84 -80 -157 -80c-128 0 -216 104 -216 250s88 250 216 250c77 0 130 -32 162 -86v72zM270 79c87 0 145 73 145 177c0 103 -58 177 -145 177c-90 0 -142 -74 -142 -177c0 -104 52 -177 142 -177z" />
    <glyph glyph-name="gdotaccent" unicode="&#x121;" horiz-adv-x="565" 
d="M326 692v-103h-86v103h86zM418 492h80v-481c0 -129 -88 -204 -223 -204c-82 0 -155 25 -223 73l43 63c62 -39 112 -63 179 -63c77 0 139 38 139 138v68c-32 -50 -84 -80 -157 -80c-128 0 -216 104 -216 250s88 250 216 250c77 0 130 -32 162 -86v72zM270 79
c87 0 145 73 145 177c0 103 -58 177 -145 177c-90 0 -142 -74 -142 -177c0 -104 52 -177 142 -177z" />
    <glyph glyph-name="gdotaccent.ss02" horiz-adv-x="565" 
d="M284 585c-33 0 -57 25 -57 56s24 56 57 56c32 0 56 -25 56 -56s-24 -56 -56 -56zM418 492h80v-481c0 -129 -88 -204 -223 -204c-82 0 -155 25 -223 73l43 63c62 -39 112 -63 179 -63c77 0 139 38 139 138v68c-32 -50 -84 -80 -157 -80c-128 0 -216 104 -216 250
s88 250 216 250c77 0 130 -32 162 -86v72zM270 79c87 0 145 73 145 177c0 103 -58 177 -145 177c-90 0 -142 -74 -142 -177c0 -104 52 -177 142 -177z" />
    <glyph glyph-name="h" unicode="h" horiz-adv-x="545" 
d="M303 506c119 0 176 -77 176 -169v-337h-86v310c0 81 -40 123 -113 123c-71 0 -127 -55 -127 -128v-305h-86v710h86v-274c33 47 87 70 150 70z" />
    <glyph glyph-name="hbar" unicode="&#x127;" horiz-adv-x="571" 
d="M330 503c120 0 176 -77 176 -169v-334h-86v306c0 81 -41 123 -114 123c-69 0 -126 -55 -126 -128v-301h-86v566h-77v62h77v82h86v-82h127v-62h-127v-139c32 51 86 76 150 76z" />
    <glyph glyph-name="i" unicode="i" horiz-adv-x="220" 
d="M153 692v-103h-86v103h86zM153 492v-492h-86v492h86z" />
    <glyph glyph-name="i.ss02" horiz-adv-x="220" 
d="M111 585c-33 0 -57 25 -57 56s24 56 57 56c32 0 56 -25 56 -56s-24 -56 -56 -56zM153 492v-492h-86v492h86z" />
    <glyph glyph-name="dotlessi" unicode="&#x131;" horiz-adv-x="220" 
d="M153 492v-492h-86v492h86z" />
    <glyph glyph-name="iacute" unicode="&#xed;" horiz-adv-x="220" 
d="M239 716l-92 -144h-76l72 144h96zM153 492v-492h-86v492h86z" />
    <glyph glyph-name="icircumflex" unicode="&#xee;" horiz-adv-x="220" 
d="M190 572l-80 101l-80 -101h-74l100 144h108l100 -144h-74zM153 492v-492h-86v492h86z" />
    <glyph glyph-name="idieresis" unicode="&#xef;" horiz-adv-x="220" 
d="M64 692v-103h-84v103h84zM241 692v-103h-84v103h84zM153 492v-492h-86v492h86z" />
    <glyph glyph-name="idieresis.ss02" horiz-adv-x="220" 
d="M22 588c-31 0 -55 25 -55 55c0 29 24 54 55 54c30 0 55 -25 55 -54c0 -30 -25 -55 -55 -55zM200 588c-30 0 -55 25 -55 55c0 29 25 54 55 54c31 0 55 -25 55 -54c0 -30 -24 -55 -55 -55zM153 492v-492h-86v492h86z" />
    <glyph glyph-name="i.loclTRK" horiz-adv-x="220" 
d="M153 692v-103h-86v103h86zM153 492v-492h-86v492h86z" />
    <glyph glyph-name="i.loclTRK.ss02" horiz-adv-x="220" 
d="M111 585c-33 0 -57 25 -57 56s24 56 57 56c32 0 56 -25 56 -56s-24 -56 -56 -56zM153 492v-492h-86v492h86z" />
    <glyph glyph-name="igrave" unicode="&#xec;" horiz-adv-x="220" 
d="M-18 716h96l72 -144h-76zM153 492v-492h-86v492h86z" />
    <glyph glyph-name="ij" unicode="&#x133;" horiz-adv-x="444" 
d="M153 692v-103h-86v103h86zM376 692v-103h-86v103h86zM153 492v-492h-86v492h86zM159 -111c26 -7 48 -10 68 -10c48 0 63 28 63 83v530h86v-530c0 -100 -43 -154 -139 -154c-34 0 -66 6 -95 15z" />
    <glyph glyph-name="ij.ss02" horiz-adv-x="444" 
d="M111 585c-33 0 -57 25 -57 56s24 56 57 56c32 0 56 -25 56 -56s-24 -56 -56 -56zM334 585c-33 0 -57 25 -57 56s24 56 57 56c32 0 56 -25 56 -56s-24 -56 -56 -56zM153 492v-492h-86v492h86zM159 -111c26 -7 48 -10 68 -10c48 0 63 28 63 83v530h86v-530
c0 -100 -43 -154 -139 -154c-34 0 -66 6 -95 15z" />
    <glyph glyph-name="imacron" unicode="&#x12b;" horiz-adv-x="220" 
d="M250 660v-66h-279v66h279zM153 492v-492h-86v492h86z" />
    <glyph glyph-name="iogonek" unicode="&#x12f;" horiz-adv-x="220" 
d="M67 692h86v-103h-86v103zM67 0v492h86v-492c-58 -40 -80 -77 -80 -110c0 -28 20 -42 51 -42c12 0 20 1 27 3v-54c-11 -5 -27 -6 -39 -6c-60 0 -101 30 -101 84c0 43 21 84 71 125h-15z" />
    <glyph glyph-name="iogonek.ss02" horiz-adv-x="220" 
d="M110 584c-32 0 -57 25 -57 57c0 31 25 55 57 55s57 -24 57 -55c0 -32 -25 -57 -57 -57zM67 0v492h86v-492c-58 -40 -80 -77 -80 -110c0 -28 20 -42 51 -42c12 0 20 1 27 3v-54c-11 -5 -27 -6 -39 -6c-60 0 -101 30 -101 84c0 43 21 84 71 125h-15z" />
    <glyph glyph-name="j" unicode="j" horiz-adv-x="224" 
d="M156 692v-103h-86v103h86zM-61 -111c26 -7 48 -10 68 -10c48 0 63 28 63 83v530h86v-530c0 -100 -43 -154 -139 -154c-34 0 -66 6 -95 15z" />
    <glyph glyph-name="j.calt" horiz-adv-x="222" 
d="M69 589v103h86v-103h-86zM36 -192c-23 0 -40 2 -53 5l9 67c7 -1 20 -2 29 -2c39 0 48 22 48 62v552h86v-556c0 -86 -32 -128 -119 -128z" />
    <glyph glyph-name="j.calt.ss02" horiz-adv-x="224" 
d="M113 585c-32 0 -57 25 -57 56s25 56 57 56s57 -25 57 -56s-25 -56 -57 -56zM36 -192c-24 0 -42 3 -53 5l9 67c7 -1 20 -2 29 -2c39 0 48 22 48 62v552h86v-556c0 -86 -32 -128 -119 -128z" />
    <glyph glyph-name="j.ss02" horiz-adv-x="224" 
d="M114 585c-33 0 -57 25 -57 56s24 56 57 56c32 0 56 -25 56 -56s-24 -56 -56 -56zM-61 -111c26 -7 48 -10 68 -10c48 0 63 28 63 83v530h86v-530c0 -100 -43 -154 -139 -154c-34 0 -66 6 -95 15z" />
    <glyph glyph-name="uni0237" unicode="&#x237;" horiz-adv-x="224" 
d="M-61 -111c26 -7 48 -10 68 -10c48 0 63 28 63 83v530h86v-530c0 -100 -43 -154 -139 -154c-34 0 -66 6 -95 15z" />
    <glyph glyph-name="k" unicode="k" horiz-adv-x="508" 
d="M407 0l-165 247l-89 -90v-157h-86v710h86v-456l228 238h101l-181 -189l201 -303h-95z" />
    <glyph glyph-name="k.ss01" horiz-adv-x="508" 
d="M407 0l-154 231l-98 -93v-138h-88v710h88v-473l274 265l53 -53l-171 -162l191 -287h-95z" />
    <glyph glyph-name="kcommaaccent" unicode="&#x137;" horiz-adv-x="508" 
d="M301 303l201 -303h-95l-165 247l-89 -90v-157h-86v710h86v-456l228 238h101zM222 -159v86h100v-86l-57 -94h-48l52 94h-47z" />
    <glyph glyph-name="kcommaaccent.ss01" horiz-adv-x="508" 
d="M311 287l191 -287h-95l-154 231l-98 -93v-138h-88v710h88v-473l274 265l53 -53zM226 -159v86h100v-86l-57 -94h-48l52 94h-47z" />
    <glyph glyph-name="kcommaaccent.ss01.ss02" horiz-adv-x="508" 
d="M311 287l191 -287h-95l-154 231l-98 -93v-138h-88v710h88v-473l274 265l53 -53zM272 -69c35 0 65 -24 65 -71c0 -61 -45 -113 -113 -113v36c24 2 56 17 65 52c-5 -1 -11 -2 -17 -2c-33 0 -54 18 -54 48s25 50 54 50z" />
    <glyph glyph-name="kcommaaccent.ss02" horiz-adv-x="508" 
d="M301 303l201 -303h-95l-165 247l-89 -90v-157h-86v710h86v-456l228 238h101zM268 -69c35 0 65 -24 65 -71c0 -61 -45 -113 -113 -113v36c24 2 56 17 65 52c-5 -1 -11 -2 -17 -2c-33 0 -54 18 -54 48s25 50 54 50z" />
    <glyph glyph-name="l" unicode="l" horiz-adv-x="226" 
d="M156 710v-710h-86v710h86z" />
    <glyph glyph-name="lacute" unicode="&#x13a;" horiz-adv-x="226" 
d="M240 910l-92 -144h-76l72 144h96zM156 710v-710h-86v710h86z" />
    <glyph glyph-name="lcaron" unicode="&#x13e;" horiz-adv-x="370" 
d="M156 710v-710h-86v710h86zM359 710l-61 -198h-55l30 198h86z" />
    <glyph glyph-name="lcommaaccent" unicode="&#x13c;" horiz-adv-x="226" 
d="M156 710v-710h-86v710h86zM164 -73v-86l-57 -94h-48l52 94h-47v86h100z" />
    <glyph glyph-name="lcommaaccent.ss02" horiz-adv-x="226" 
d="M156 710v-710h-86v710h86zM110 -69c35 0 65 -24 65 -71c0 -61 -45 -113 -113 -113v36c24 2 56 17 65 52c-5 -1 -11 -2 -17 -2c-33 0 -54 18 -54 48s25 50 54 50z" />
    <glyph glyph-name="ldot" unicode="&#x140;" horiz-adv-x="396" 
d="M156 710v-710h-86v710h86zM357 367v-108h-102v108h102z" />
    <glyph glyph-name="ldot.ss02" horiz-adv-x="418" 
d="M156 710v-710h-86v710h86zM317 246c-34 0 -62 29 -62 63c0 33 28 62 62 62s62 -29 62 -62c0 -34 -28 -63 -62 -63z" />
    <glyph glyph-name="lslash" unicode="&#x142;" horiz-adv-x="342" 
d="M305 496v-75l-88 -52v-369h-86v319l-94 -55v75l94 55v316h86v-266z" />
    <glyph glyph-name="m" unicode="m" horiz-adv-x="812" 
d="M582 506c110 0 164 -70 164 -163v-343h-86v319c0 71 -31 114 -98 114c-69 0 -113 -52 -113 -124v-309h-86v319c0 71 -31 114 -98 114c-64 0 -112 -47 -112 -124v-309h-86v492h81v-60c28 47 74 74 141 74c70 0 118 -32 142 -80c31 47 79 80 151 80z" />
    <glyph glyph-name="n" unicode="n" horiz-adv-x="545" 
d="M303 506c120 0 176 -77 176 -169v-337h-86v310c0 81 -40 123 -113 123c-71 0 -127 -55 -127 -128v-305h-86v492h81v-64c32 52 88 78 155 78z" />
    <glyph glyph-name="nacute" unicode="&#x144;" horiz-adv-x="545" 
d="M401 716l-92 -144h-76l72 144h96zM303 506c120 0 176 -77 176 -169v-337h-86v310c0 81 -40 123 -113 123c-71 0 -127 -55 -127 -128v-305h-86v492h81v-64c32 52 88 78 155 78z" />
    <glyph glyph-name="ncaron" unicode="&#x148;" horiz-adv-x="545" 
d="M327 572h-108l-100 144h74l80 -102l80 102h74zM303 506c120 0 176 -77 176 -169v-337h-86v310c0 81 -40 123 -113 123c-71 0 -127 -55 -127 -128v-305h-86v492h81v-64c32 52 88 78 155 78z" />
    <glyph glyph-name="ncommaaccent" unicode="&#x146;" horiz-adv-x="545" 
d="M303 506c120 0 176 -77 176 -169v-337h-86v310c0 81 -40 123 -113 123c-71 0 -127 -55 -127 -128v-305h-86v492h81v-64c32 52 88 78 155 78zM220 -159v86h100v-86l-57 -94h-48l52 94h-47z" />
    <glyph glyph-name="ncommaaccent.ss02" horiz-adv-x="545" 
d="M303 506c120 0 176 -77 176 -169v-337h-86v310c0 81 -40 123 -113 123c-71 0 -127 -55 -127 -128v-305h-86v492h81v-64c32 52 88 78 155 78zM266 -69c35 0 65 -24 65 -71c0 -61 -45 -113 -113 -113v36c24 2 56 17 65 52c-5 -1 -11 -2 -17 -2c-33 0 -54 18 -54 48
s25 50 54 50z" />
    <glyph glyph-name="eng" unicode="&#x14b;" horiz-adv-x="546" 
d="M303 506c120 0 176 -77 176 -169v-375c0 -100 -44 -154 -139 -154c-35 0 -66 6 -96 15l18 66c26 -7 48 -10 68 -10c48 0 63 28 63 83v348c0 81 -40 123 -113 123c-71 0 -127 -55 -127 -128v-305h-86v492h81v-64c32 52 88 78 155 78z" />
    <glyph glyph-name="ntilde" unicode="&#xf1;" horiz-adv-x="545" 
d="M206 637c-24 0 -34 -24 -34 -51h-55c0 68 36 110 89 110c58 0 96 -53 137 -53c25 0 32 24 32 53h54c0 -68 -31 -111 -81 -111c-52 0 -98 52 -142 52zM303 506c120 0 176 -77 176 -169v-337h-86v310c0 81 -40 123 -113 123c-71 0 -127 -55 -127 -128v-305h-86v492h81v-64
c32 52 88 78 155 78z" />
    <glyph glyph-name="o" unicode="o" horiz-adv-x="561" 
d="M280 506c144 0 244 -106 244 -260s-100 -260 -244 -260c-143 0 -243 106 -243 260s100 260 243 260zM280 434c-95 0 -155 -77 -155 -188s60 -188 155 -188s156 77 156 188s-61 188 -156 188z" />
    <glyph glyph-name="oacute" unicode="&#xf3;" horiz-adv-x="561" 
d="M407 716l-92 -144h-76l72 144h96zM280 506c144 0 244 -106 244 -260s-100 -260 -244 -260c-143 0 -243 106 -243 260s100 260 243 260zM280 434c-95 0 -155 -77 -155 -188s60 -188 155 -188s156 77 156 188s-61 188 -156 188z" />
    <glyph glyph-name="ocircumflex" unicode="&#xf4;" horiz-adv-x="561" 
d="M358 572l-80 101l-80 -101h-74l100 144h108l100 -144h-74zM280 506c144 0 244 -106 244 -260s-100 -260 -244 -260c-143 0 -243 106 -243 260s100 260 243 260zM280 434c-95 0 -155 -77 -155 -188s60 -188 155 -188s156 77 156 188s-61 188 -156 188z" />
    <glyph glyph-name="odieresis" unicode="&#xf6;" horiz-adv-x="561" 
d="M232 692v-103h-84v103h84zM409 692v-103h-84v103h84zM280 506c144 0 244 -106 244 -260s-100 -260 -244 -260c-143 0 -243 106 -243 260s100 260 243 260zM280 434c-95 0 -155 -77 -155 -188s60 -188 155 -188s156 77 156 188s-61 188 -156 188z" />
    <glyph glyph-name="odieresis.ss02" horiz-adv-x="561" 
d="M190 588c-31 0 -55 25 -55 55c0 29 24 54 55 54c30 0 55 -25 55 -54c0 -30 -25 -55 -55 -55zM368 588c-30 0 -55 25 -55 55c0 29 25 54 55 54c31 0 55 -25 55 -54c0 -30 -24 -55 -55 -55zM280 506c144 0 244 -106 244 -260s-100 -260 -244 -260c-143 0 -243 106 -243 260
s100 260 243 260zM280 434c-95 0 -155 -77 -155 -188s60 -188 155 -188s156 77 156 188s-61 188 -156 188z" />
    <glyph glyph-name="ograve" unicode="&#xf2;" horiz-adv-x="561" 
d="M150 716h96l72 -144h-76zM280 506c144 0 244 -106 244 -260s-100 -260 -244 -260c-143 0 -243 106 -243 260s100 260 243 260zM280 434c-95 0 -155 -77 -155 -188s60 -188 155 -188s156 77 156 188s-61 188 -156 188z" />
    <glyph glyph-name="ohungarumlaut" unicode="&#x151;" horiz-adv-x="561" 
d="M328 716l-93 -145h-66l72 145h87zM483 716l-94 -145h-67l74 145h87zM280 506c144 0 244 -106 244 -260s-100 -260 -244 -260c-143 0 -243 106 -243 260s100 260 243 260zM280 434c-95 0 -155 -77 -155 -188s60 -188 155 -188s156 77 156 188s-61 188 -156 188z" />
    <glyph glyph-name="omacron" unicode="&#x14d;" horiz-adv-x="561" 
d="M418 660v-66h-279v66h279zM280 506c144 0 244 -106 244 -260s-100 -260 -244 -260c-143 0 -243 106 -243 260s100 260 243 260zM280 434c-95 0 -155 -77 -155 -188s60 -188 155 -188s156 77 156 188s-61 188 -156 188z" />
    <glyph glyph-name="oslash" unicode="&#xf8;" horiz-adv-x="561" 
d="M450 440c47 -46 74 -114 74 -194c0 -154 -100 -260 -244 -260c-47 0 -89 11 -125 32l-28 -40l-48 35l29 42c-45 46 -71 112 -71 191c0 154 100 260 243 260c46 0 88 -11 123 -30l29 41l48 -34zM125 246c0 -48 11 -90 32 -122l202 289c-22 14 -49 21 -79 21
c-95 0 -155 -77 -155 -188zM280 58c95 0 156 77 156 188c0 50 -12 93 -34 125l-203 -290c23 -15 50 -23 81 -23z" />
    <glyph glyph-name="otilde" unicode="&#xf5;" horiz-adv-x="561" 
d="M211 696c58 0 96 -53 137 -53c25 0 32 24 32 53h54c0 -68 -31 -111 -81 -111c-52 0 -98 52 -142 52c-24 0 -34 -24 -34 -51h-55c0 68 36 110 89 110zM280 506c144 0 244 -106 244 -260s-100 -260 -244 -260c-143 0 -243 106 -243 260s100 260 243 260zM280 434
c-95 0 -155 -77 -155 -188s60 -188 155 -188s156 77 156 188s-61 188 -156 188z" />
    <glyph glyph-name="oe" unicode="&#x153;" horiz-adv-x="935" 
d="M845 140l51 -52c-72 -77 -135 -102 -215 -102c-92 0 -162 39 -202 105c-41 -66 -111 -105 -199 -105c-143 0 -243 106 -243 260s100 260 243 260c88 0 159 -40 200 -106c39 66 106 106 193 106c141 0 222 -92 222 -237c0 -9 -1 -27 -2 -39h-369c5 -90 51 -172 158 -172
c65 0 101 23 163 82zM673 438c-80 0 -133 -53 -146 -145h284c-3 86 -52 145 -138 145zM280 58c95 0 156 77 156 188s-61 188 -156 188s-155 -77 -155 -188s60 -188 155 -188z" />
    <glyph glyph-name="p" unicode="p" horiz-adv-x="572" 
d="M316 505c126 0 217 -103 217 -258c0 -157 -91 -260 -217 -260c-75 0 -129 28 -163 78v-245h-86v672h81v-77c34 57 90 90 168 90zM303 61c85 0 142 74 142 186c0 110 -55 185 -142 185c-89 0 -153 -69 -153 -185c0 -118 65 -186 153 -186z" />
    <glyph glyph-name="thorn" unicode="&#xfe;" horiz-adv-x="572" 
d="M316 505c126 0 217 -103 217 -258c0 -157 -91 -260 -217 -260c-75 0 -129 28 -163 78v-245h-86v890h86v-286c35 51 89 81 163 81zM303 61c85 0 142 74 142 186c0 110 -55 185 -142 185c-89 0 -153 -69 -153 -185c0 -118 65 -186 153 -186z" />
    <glyph glyph-name="q" unicode="q" horiz-adv-x="572" 
d="M424 492h81v-672h-86v247c-34 -51 -88 -80 -162 -80c-126 0 -218 103 -218 259s93 259 218 259c78 0 134 -32 167 -88v75zM269 60c89 0 153 69 153 186c0 118 -64 185 -153 185c-85 0 -142 -74 -142 -185s56 -186 142 -186z" />
    <glyph glyph-name="r" unicode="r" horiz-adv-x="358" 
d="M270 497c29 0 55 -6 78 -14l-16 -72c-25 7 -45 10 -64 10c-66 0 -115 -57 -115 -157v-264h-86v492h81v-75c22 48 64 80 122 80z" />
    <glyph glyph-name="racute" unicode="&#x155;" horiz-adv-x="358" 
d="M333 716l-92 -144h-76l72 144h96zM270 497c29 0 55 -6 78 -14l-16 -72c-25 7 -45 10 -64 10c-66 0 -115 -57 -115 -157v-264h-86v492h81v-75c22 48 64 80 122 80z" />
    <glyph glyph-name="rcaron" unicode="&#x159;" horiz-adv-x="358" 
d="M258 572h-108l-100 144h74l80 -102l80 102h74zM148 417c22 48 64 80 122 80c29 0 55 -6 78 -14l-16 -72c-25 7 -45 10 -64 10c-66 0 -115 -57 -115 -157v-264h-86v492h81v-75z" />
    <glyph glyph-name="rcommaaccent" unicode="&#x157;" horiz-adv-x="358" 
d="M270 497c29 0 55 -6 78 -14l-16 -72c-25 7 -45 10 -64 10c-66 0 -115 -57 -115 -157v-264h-86v492h81v-75c22 48 64 80 122 80zM59 -159v86h100v-86l-57 -94h-48l52 94h-47z" />
    <glyph glyph-name="rcommaaccent.ss02" horiz-adv-x="358" 
d="M270 497c29 0 55 -6 78 -14l-16 -72c-25 7 -45 10 -64 10c-66 0 -115 -57 -115 -157v-264h-86v492h81v-75c22 48 64 80 122 80zM105 -69c35 0 65 -24 65 -71c0 -61 -45 -113 -113 -113v36c24 2 56 17 65 52c-5 -1 -11 -2 -17 -2c-33 0 -54 18 -54 48s25 50 54 50z" />
    <glyph glyph-name="s" unicode="s" horiz-adv-x="479" 
d="M235 506c80 0 136 -19 202 -72l-47 -58c-64 49 -102 60 -155 60c-67 0 -108 -31 -108 -73c0 -43 42 -53 132 -73c128 -29 186 -64 186 -151c0 -91 -78 -153 -197 -153c-87 0 -149 23 -227 92l51 56c73 -61 117 -77 177 -77c64 0 112 29 112 78c0 54 -59 69 -138 86
c-131 28 -179 57 -179 139c0 86 77 146 191 146z" />
    <glyph glyph-name="sacute" unicode="&#x15b;" horiz-adv-x="479" 
d="M360 716l-92 -144h-76l72 144h96zM235 506c80 0 136 -19 202 -72l-47 -58c-64 49 -102 60 -155 60c-67 0 -108 -31 -108 -73c0 -43 42 -53 132 -73c128 -29 186 -64 186 -151c0 -91 -78 -153 -197 -153c-87 0 -149 23 -227 92l51 56c73 -61 117 -77 177 -77
c64 0 112 29 112 78c0 54 -59 69 -138 86c-131 28 -179 57 -179 139c0 86 77 146 191 146z" />
    <glyph glyph-name="scaron" unicode="&#x161;" horiz-adv-x="479" 
d="M386 716l-100 -144h-108l-100 144h74l80 -102l80 102h74zM235 506c80 0 136 -19 202 -72l-47 -58c-64 49 -102 60 -155 60c-67 0 -108 -31 -108 -73c0 -43 42 -53 132 -73c128 -29 186 -64 186 -151c0 -91 -78 -153 -197 -153c-87 0 -149 23 -227 92l51 56
c73 -61 117 -77 177 -77c64 0 112 29 112 78c0 54 -59 69 -138 86c-131 28 -179 57 -179 139c0 86 77 146 191 146z" />
    <glyph glyph-name="scedilla" unicode="&#x15f;" horiz-adv-x="479" 
d="M445 139c0 -90 -76 -152 -193 -153l-25 -53c63 3 108 -29 108 -78c0 -53 -43 -90 -106 -90c-40 0 -74 13 -108 35l25 42c32 -18 53 -27 82 -27s53 13 53 39c0 24 -26 37 -58 37c-8 0 -20 -1 -28 -3l-28 27l34 74c-64 7 -116 33 -180 89l51 56c73 -61 117 -77 177 -77
c64 0 112 29 112 78c0 54 -59 69 -138 86c-131 28 -179 57 -179 139c0 86 77 146 191 146c80 0 136 -19 202 -72l-47 -58c-64 49 -102 60 -155 60c-67 0 -108 -31 -108 -73c0 -43 42 -53 132 -73c128 -29 186 -64 186 -151z" />
    <glyph glyph-name="scommaaccent" unicode="&#x219;" horiz-adv-x="479" 
d="M235 506c80 0 136 -19 202 -72l-47 -58c-64 49 -102 60 -155 60c-67 0 -108 -31 -108 -73c0 -43 42 -53 132 -73c128 -29 186 -64 186 -151c0 -91 -78 -153 -197 -153c-87 0 -149 23 -227 92l51 56c73 -61 117 -77 177 -77c64 0 112 29 112 78c0 54 -59 69 -138 86
c-131 28 -179 57 -179 139c0 86 77 146 191 146zM283 -73v-86l-57 -94h-48l52 94h-47v86h100z" />
    <glyph glyph-name="scommaaccent.ss02" horiz-adv-x="479" 
d="M259 290c128 -29 186 -64 186 -151c0 -91 -78 -153 -197 -153c-87 0 -149 23 -227 92l51 56c73 -61 117 -77 177 -77c64 0 112 29 112 78c0 54 -59 69 -138 86c-131 28 -179 57 -179 139c0 86 77 146 191 146c80 0 136 -19 202 -72l-47 -58c-64 49 -102 60 -155 60
c-67 0 -108 -31 -108 -73c0 -43 42 -53 132 -73zM229 -69c35 0 65 -24 65 -71c0 -61 -45 -113 -113 -113v36c24 2 56 17 65 52c-5 -1 -11 -2 -17 -2c-33 0 -54 18 -54 48s25 50 54 50z" />
    <glyph glyph-name="germandbls" unicode="&#xdf;" horiz-adv-x="581" 
d="M395 406c90 -27 147 -95 147 -195c0 -120 -83 -219 -217 -219c-48 0 -86 9 -116 17l14 69c25 -6 58 -14 96 -14c76 0 136 56 136 148c0 94 -64 148 -180 148h-25v68h25c80 0 120 46 120 116c0 66 -51 108 -118 108c-77 0 -124 -47 -124 -140v-512h-86v519
c0 135 91 205 211 205c119 0 201 -80 201 -177c0 -72 -37 -118 -84 -141z" />
    <glyph glyph-name="t" unicode="t" horiz-adv-x="356" 
d="M325 76l13 -68c-36 -13 -72 -17 -101 -17c-94 0 -127 45 -127 123v313h-92v65h92v165h86v-165h133v-65h-133v-303c0 -44 17 -60 58 -60c18 0 38 3 71 12z" />
    <glyph glyph-name="tbar" unicode="&#x167;" horiz-adv-x="356" 
d="M325 76l13 -68c-36 -13 -72 -17 -101 -17c-94 0 -127 45 -127 123v114h-92v67h92v132h-92v65h92v165h86v-165h133v-65h-133v-132h133v-67h-133v-104c0 -44 17 -60 58 -60c18 0 38 3 71 12z" />
    <glyph glyph-name="tcaron" unicode="&#x165;" horiz-adv-x="356" 
d="M391 773l-62 -198h-54l30 198h86zM254 64c18 0 38 3 71 12l13 -68c-36 -13 -72 -17 -101 -17c-94 0 -127 45 -127 123v313h-92v65h92v165h86v-165h133v-65h-133v-303c0 -44 17 -60 58 -60z" />
    <glyph glyph-name="uni0163" unicode="&#x163;" horiz-adv-x="356" 
d="M209 -67c63 3 107 -29 107 -78c0 -53 -43 -90 -106 -90c-39 0 -74 13 -107 35l25 42c31 -18 52 -27 81 -27s53 13 53 39c0 24 -25 37 -57 37c-9 0 -21 -1 -29 -3l-28 27l38 81c-55 15 -76 56 -76 118v313h-92v65h92v165h86v-165h133v-65h-133v-303c0 -44 17 -60 58 -60
c18 0 38 3 71 12l13 -68c-36 -13 -72 -17 -101 -17h-1z" />
    <glyph glyph-name="uni021B" unicode="&#x21b;" horiz-adv-x="356" 
d="M338 8c-36 -13 -72 -17 -101 -17c-94 0 -127 45 -127 123v313h-92v65h92v165h86v-165h133v-65h-133v-303c0 -44 17 -60 58 -60c18 0 38 3 71 12zM173 -159v86h100v-86l-57 -94h-48l52 94h-47z" />
    <glyph glyph-name="uni021B.ss02" horiz-adv-x="356" 
d="M338 8c-36 -13 -72 -17 -101 -17c-94 0 -127 45 -127 123v313h-92v65h92v165h86v-165h133v-65h-133v-303c0 -44 17 -60 58 -60c18 0 38 3 71 12zM219 -69c35 0 65 -24 65 -71c0 -61 -45 -113 -113 -113v36c24 2 56 17 65 52c-5 -1 -11 -2 -17 -2c-33 0 -54 18 -54 48
s25 50 54 50z" />
    <glyph glyph-name="u" unicode="u" horiz-adv-x="537" 
d="M384 492h86v-492h-80v61c-29 -48 -83 -75 -149 -75c-125 0 -175 72 -175 161v345h86v-324c0 -70 36 -108 103 -108c72 0 129 44 129 132v300z" />
    <glyph glyph-name="uacute" unicode="&#xfa;" horiz-adv-x="537" 
d="M389 716l-92 -144h-76l72 144h96zM384 492h86v-492h-80v61c-29 -48 -83 -75 -149 -75c-125 0 -175 72 -175 161v345h86v-324c0 -70 36 -108 103 -108c72 0 129 44 129 132v300z" />
    <glyph glyph-name="ucircumflex" unicode="&#xfb;" horiz-adv-x="537" 
d="M260 673l-80 -101h-74l100 144h108l100 -144h-74zM384 492h86v-492h-80v61c-29 -48 -83 -75 -149 -75c-125 0 -175 72 -175 161v345h86v-324c0 -70 36 -108 103 -108c72 0 129 44 129 132v300z" />
    <glyph glyph-name="udieresis" unicode="&#xfc;" horiz-adv-x="537" 
d="M214 692v-103h-84v103h84zM391 692v-103h-84v103h84zM384 492h86v-492h-80v61c-29 -48 -83 -75 -149 -75c-125 0 -175 72 -175 161v345h86v-324c0 -70 36 -108 103 -108c72 0 129 44 129 132v300z" />
    <glyph glyph-name="udieresis.ss02" horiz-adv-x="537" 
d="M172 588c-31 0 -55 25 -55 55c0 29 24 54 55 54c30 0 55 -25 55 -54c0 -30 -25 -55 -55 -55zM350 588c-30 0 -55 25 -55 55c0 29 25 54 55 54c31 0 55 -25 55 -54c0 -30 -24 -55 -55 -55zM384 492h86v-492h-80v61c-29 -48 -83 -75 -149 -75c-125 0 -175 72 -175 161v345
h86v-324c0 -70 36 -108 103 -108c72 0 129 44 129 132v300z" />
    <glyph glyph-name="ugrave" unicode="&#xf9;" horiz-adv-x="537" 
d="M300 572h-76l-92 144h96zM384 492h86v-492h-80v61c-29 -48 -83 -75 -149 -75c-125 0 -175 72 -175 161v345h86v-324c0 -70 36 -108 103 -108c72 0 129 44 129 132v300z" />
    <glyph glyph-name="uhungarumlaut" unicode="&#x171;" horiz-adv-x="537" 
d="M310 716l-93 -145h-66l72 145h87zM371 571h-67l74 145h87zM384 492h86v-492h-80v61c-29 -48 -83 -75 -149 -75c-125 0 -175 72 -175 161v345h86v-324c0 -70 36 -108 103 -108c72 0 129 44 129 132v300z" />
    <glyph glyph-name="umacron" unicode="&#x16b;" horiz-adv-x="537" 
d="M400 660v-66h-279v66h279zM384 492h86v-492h-80v61c-29 -48 -83 -75 -149 -75c-125 0 -175 72 -175 161v345h86v-324c0 -70 36 -108 103 -108c72 0 129 44 129 132v300z" />
    <glyph glyph-name="uogonek" unicode="&#x173;" horiz-adv-x="537" 
d="M470 0c-58 -40 -80 -77 -80 -110c0 -28 20 -42 51 -42c12 0 19 1 26 3v-54c-11 -5 -26 -6 -38 -6c-61 0 -101 30 -101 84c0 43 21 84 71 125h-9v61c-29 -48 -83 -75 -149 -75c-125 0 -175 72 -175 161v345h86v-324c0 -70 36 -108 103 -108c72 0 129 44 129 132v300h86
v-492z" />
    <glyph glyph-name="uring" unicode="&#x16f;" horiz-adv-x="537" 
d="M261 559c-60 0 -107 47 -107 104c0 58 47 104 107 104c59 0 107 -46 107 -104c0 -57 -48 -104 -107 -104zM261 724c-34 0 -60 -25 -60 -61s26 -61 60 -61s59 25 59 61s-25 61 -59 61zM384 492h86v-492h-80v61c-29 -48 -83 -75 -149 -75c-125 0 -175 72 -175 161v345h86
v-324c0 -70 36 -108 103 -108c72 0 129 44 129 132v300z" />
    <glyph glyph-name="v" unicode="v" horiz-adv-x="480" 
d="M377 492h88l-171 -492h-109l-170 492h90l61 -181c31 -96 56 -176 75 -244c19 68 43 148 75 244z" />
    <glyph glyph-name="w" unicode="w" horiz-adv-x="735" 
d="M626 492h88l-138 -492h-104l-46 157c-28 98 -46 171 -60 231c-14 -60 -32 -133 -60 -232l-43 -156h-104l-138 492h89l49 -184c24 -90 41 -167 56 -233c16 66 35 143 60 233l52 184h81l52 -184c26 -91 45 -167 61 -234c14 67 32 143 56 234z" />
    <glyph glyph-name="wacute" unicode="&#x1e83;" horiz-adv-x="735" 
d="M496 716l-92 -144h-76l72 144h96zM626 492h88l-138 -492h-104l-46 157c-28 98 -46 171 -60 231c-14 -60 -32 -133 -60 -232l-43 -156h-104l-138 492h89l49 -184c24 -90 41 -167 56 -233c16 66 35 143 60 233l52 184h81l52 -184c26 -91 45 -167 61 -234
c14 67 32 143 56 234z" />
    <glyph glyph-name="wcircumflex" unicode="&#x175;" horiz-adv-x="735" 
d="M367 673l-80 -101h-74l100 144h108l100 -144h-74zM626 492h88l-138 -492h-104l-46 157c-28 98 -46 171 -60 231c-14 -60 -32 -133 -60 -232l-43 -156h-104l-138 492h89l49 -184c24 -90 41 -167 56 -233c16 66 35 143 60 233l52 184h81l52 -184c26 -91 45 -167 61 -234
c14 67 32 143 56 234z" />
    <glyph glyph-name="wdieresis" unicode="&#x1e85;" horiz-adv-x="735" 
d="M321 692v-103h-84v103h84zM498 692v-103h-84v103h84zM626 492h88l-138 -492h-104l-46 157c-28 98 -46 171 -60 231c-14 -60 -32 -133 -60 -232l-43 -156h-104l-138 492h89l49 -184c24 -90 41 -167 56 -233c16 66 35 143 60 233l52 184h81l52 -184c26 -91 45 -167 61 -234
c14 67 32 143 56 234z" />
    <glyph glyph-name="wdieresis.ss02" horiz-adv-x="735" 
d="M279 588c-31 0 -55 25 -55 55c0 29 24 54 55 54c30 0 55 -25 55 -54c0 -30 -25 -55 -55 -55zM457 588c-30 0 -55 25 -55 55c0 29 25 54 55 54c31 0 55 -25 55 -54c0 -30 -24 -55 -55 -55zM626 492h88l-138 -492h-104l-46 157c-28 98 -46 171 -60 231
c-14 -60 -32 -133 -60 -232l-43 -156h-104l-138 492h89l49 -184c24 -90 41 -167 56 -233c16 66 35 143 60 233l52 184h81l52 -184c26 -91 45 -167 61 -234c14 67 32 143 56 234z" />
    <glyph glyph-name="wgrave" unicode="&#x1e81;" horiz-adv-x="735" 
d="M407 572h-76l-92 144h96zM626 492h88l-138 -492h-104l-46 157c-28 98 -46 171 -60 231c-14 -60 -32 -133 -60 -232l-43 -156h-104l-138 492h89l49 -184c24 -90 41 -167 56 -233c16 66 35 143 60 233l52 184h81l52 -184c26 -91 45 -167 61 -234c14 67 32 143 56 234z" />
    <glyph glyph-name="x" unicode="x" horiz-adv-x="480" 
d="M468 0h-95l-133 198l-134 -198h-94l179 257l-164 235h95l119 -175l117 175h94l-161 -232z" />
    <glyph glyph-name="y" unicode="y" horiz-adv-x="484" 
d="M379 492h87l-197 -560c-30 -85 -62 -125 -148 -125c-27 0 -55 4 -76 10l15 66c18 -4 37 -6 53 -6c38 0 62 16 83 78l6 18l-185 519h91l55 -163c27 -78 58 -172 81 -241c23 70 53 163 80 243z" />
    <glyph glyph-name="yacute" unicode="&#xfd;" horiz-adv-x="484" 
d="M369 716l-92 -144h-76l72 144h96zM379 492h87l-197 -560c-30 -85 -62 -125 -148 -125c-27 0 -55 4 -76 10l15 66c18 -4 37 -6 53 -6c38 0 62 16 83 78l6 18l-185 519h91l55 -163c27 -78 58 -172 81 -241c23 70 53 163 80 243z" />
    <glyph glyph-name="ycircumflex" unicode="&#x177;" horiz-adv-x="484" 
d="M240 673l-80 -101h-74l100 144h108l100 -144h-74zM379 492h87l-197 -560c-30 -85 -62 -125 -148 -125c-27 0 -55 4 -76 10l15 66c18 -4 37 -6 53 -6c38 0 62 16 83 78l6 18l-185 519h91l55 -163c27 -78 58 -172 81 -241c23 70 53 163 80 243z" />
    <glyph glyph-name="ydieresis" unicode="&#xff;" horiz-adv-x="484" 
d="M194 692v-103h-84v103h84zM371 692v-103h-84v103h84zM379 492h87l-197 -560c-30 -85 -62 -125 -148 -125c-27 0 -55 4 -76 10l15 66c18 -4 37 -6 53 -6c38 0 62 16 83 78l6 18l-185 519h91l55 -163c27 -78 58 -172 81 -241c23 70 53 163 80 243z" />
    <glyph glyph-name="ydieresis.ss02" horiz-adv-x="484" 
d="M152 588c-31 0 -55 25 -55 55c0 29 24 54 55 54c30 0 55 -25 55 -54c0 -30 -25 -55 -55 -55zM330 588c-30 0 -55 25 -55 55c0 29 25 54 55 54c31 0 55 -25 55 -54c0 -30 -24 -55 -55 -55zM379 492h87l-197 -560c-30 -85 -62 -125 -148 -125c-27 0 -55 4 -76 10l15 66
c18 -4 37 -6 53 -6c38 0 62 16 83 78l6 18l-185 519h91l55 -163c27 -78 58 -172 81 -241c23 70 53 163 80 243z" />
    <glyph glyph-name="ygrave" unicode="&#x1ef3;" horiz-adv-x="484" 
d="M280 572h-76l-92 144h96zM379 492h87l-197 -560c-30 -85 -62 -125 -148 -125c-27 0 -55 4 -76 10l15 66c18 -4 37 -6 53 -6c38 0 62 16 83 78l6 18l-185 519h91l55 -163c27 -78 58 -172 81 -241c23 70 53 163 80 243z" />
    <glyph glyph-name="z" unicode="z" horiz-adv-x="478" 
d="M434 492v-63l-290 -358h290v-71h-396v64l290 358h-272v70h378z" />
    <glyph glyph-name="zacute" unicode="&#x17a;" horiz-adv-x="478" 
d="M369 716l-92 -144h-76l72 144h96zM434 492v-63l-290 -358h290v-71h-396v64l290 358h-272v70h378z" />
    <glyph glyph-name="zcaron" unicode="&#x17e;" horiz-adv-x="478" 
d="M295 572h-108l-100 144h74l80 -102l80 102h74zM434 492v-63l-290 -358h290v-71h-396v64l290 358h-272v70h378z" />
    <glyph glyph-name="zdotaccent" unicode="&#x17c;" horiz-adv-x="478" 
d="M284 692v-103h-86v103h86zM434 492v-63l-290 -358h290v-71h-396v64l290 358h-272v70h378z" />
    <glyph glyph-name="zdotaccent.ss02" horiz-adv-x="478" 
d="M241 585c-33 0 -57 25 -57 56s24 56 57 56c32 0 56 -25 56 -56s-24 -56 -56 -56zM434 492v-63l-290 -358h290v-71h-396v64l290 358h-272v70h378z" />
    <glyph glyph-name="f_f_i.liga.ss02" horiz-adv-x="872" 
d="M271 650c-54 0 -76 -25 -76 -89v-69h102v-65h-102v-427h-86v427h-91v65h91v78c0 97 52 152 148 152c30 0 60 -4 99 -17l-17 -66c-31 9 -49 11 -68 11zM428 570c0 97 51 152 145 152c28 0 54 -5 80 -12l-13 -66c-23 4 -37 6 -52 6c-55 0 -74 -26 -74 -90v-68h123v-65h-123
v-427h-86v427h-82v65h82v78zM762 584c-32 0 -57 25 -57 57c0 31 25 55 57 55s57 -24 57 -55c0 -32 -25 -57 -57 -57zM719 0v492h86v-492h-86z" />
    <glyph glyph-name="f_f_j.liga.ss02" horiz-adv-x="872" 
d="M271 650c-54 0 -76 -25 -76 -89v-69h102v-65h-102v-427h-86v427h-91v65h91v78c0 97 52 152 148 152c30 0 60 -4 99 -17l-17 -66c-31 9 -49 11 -68 11zM637 427h-123v-427h-86v427h-82v65h82v78c0 97 51 152 145 152c28 0 54 -5 80 -12l-13 -66c-23 4 -37 6 -52 6
c-55 0 -74 -26 -74 -90v-68h123v-65zM762 584c-32 0 -57 25 -57 57c0 31 25 55 57 55s57 -24 57 -55c0 -32 -25 -57 -57 -57zM719 -38v530h86v-530c0 -100 -43 -154 -139 -154c-34 0 -66 6 -96 15l18 66c26 -7 48 -10 68 -10c48 0 63 28 63 83z" />
    <glyph glyph-name="f_j.liga.ss02" horiz-adv-x="553" 
d="M318 427h-123v-427h-86v427h-91v65h91v78c0 97 51 152 146 152c27 0 53 -5 79 -12l-13 -66c-23 4 -37 6 -52 6c-55 0 -74 -26 -74 -90v-68h123v-65zM443 584c-32 0 -57 25 -57 57c0 31 25 55 57 55s56 -24 56 -55c0 -32 -24 -57 -56 -57zM400 -38v530h86v-530
c0 -100 -44 -154 -139 -154c-35 0 -67 6 -96 15l18 66c26 -7 48 -10 68 -10c48 0 63 28 63 83z" />
    <glyph glyph-name="fi.ss02" horiz-adv-x="554" 
d="M109 570c0 97 51 152 146 152c27 0 53 -5 79 -12l-13 -66c-23 4 -37 6 -52 6c-55 0 -74 -26 -74 -90v-68h123v-65h-123v-427h-86v427h-91v65h91v78zM443 584c-32 0 -57 25 -57 57c0 31 25 55 57 55s57 -24 57 -55c0 -32 -25 -57 -57 -57zM400 0v492h86v-492h-86z" />
    <glyph glyph-name="ordfeminine" unicode="&#xaa;" horiz-adv-x="416" 
d="M209 715c102 0 155 -52 155 -127v-260h-63v49c-24 -39 -68 -61 -132 -61c-74 0 -132 34 -132 105c0 86 81 113 178 131l82 15v14c0 51 -36 77 -90 77c-46 0 -82 -20 -122 -62l-44 40c48 56 104 79 168 79zM179 373c67 0 118 35 118 102v39l-68 -13
c-71 -15 -124 -28 -124 -75c0 -34 27 -53 74 -53z" />
    <glyph glyph-name="ordmasculine" unicode="&#xba;" horiz-adv-x="452" 
d="M226 717c109 0 185 -82 185 -200c0 -117 -76 -199 -185 -199c-108 0 -184 82 -184 199c0 118 76 200 184 200zM226 659c-70 0 -113 -57 -113 -142c0 -83 43 -140 113 -140s114 57 114 140c0 85 -44 142 -114 142z" />
    <glyph glyph-name="uni0394" unicode="&#x394;" horiz-adv-x="669" 
d="M395 710l258 -710h-95h-498h-43l257 710h121zM138 77h392l-97 274c-39 109 -73 205 -100 292c-26 -87 -60 -183 -99 -293z" />
    <glyph glyph-name="uni03A9" unicode="&#x3a9;" horiz-adv-x="781" 
d="M515 78h219v-78h-307v78v43c116 21 203 118 203 264c0 153 -96 260 -243 260c-146 0 -243 -107 -243 -260c0 -145 88 -243 203 -264v-62v-59h-300v78h212c-129 45 -209 159 -209 307c0 196 128 341 337 341c210 0 337 -145 337 -341c0 -148 -80 -262 -209 -307z" />
    <glyph glyph-name="uni03BC" unicode="&#x3bc;" horiz-adv-x="537" 
d="M384 492h86v-492h-78v68c-27 -52 -77 -82 -139 -82c-47 0 -80 13 -101 34v-203h-86v675h86v-324c0 -70 36 -108 108 -108c67 0 124 44 124 132v300z" />
    <glyph glyph-name="pi" unicode="&#x3c0;" horiz-adv-x="604" 
d="M575 73l10 -67c-33 -12 -58 -16 -85 -16c-93 0 -117 45 -117 125v311h-187v-426h-86v426h-92v66h539v-66h-88v-296c0 -51 11 -67 49 -67c11 0 24 0 57 10z" />
    <glyph glyph-name="zero" unicode="0" 
d="M295 696c97 0 167 -48 207 -126c32 -62 48 -142 48 -230s-16 -168 -48 -230c-40 -78 -110 -126 -207 -126s-167 48 -207 126c-32 62 -48 142 -48 230s16 168 48 230c40 78 110 126 207 126zM295 620c-59 0 -102 -31 -129 -88c-24 -49 -36 -116 -36 -192s12 -143 36 -192
c27 -57 70 -88 129 -88s102 31 129 88c24 49 36 116 36 192s-12 143 -36 192c-27 57 -70 88 -129 88z" />
    <glyph glyph-name="one" unicode="1" horiz-adv-x="460" 
d="M243 680h67v-680h-88v568l-144 -102l-44 61z" />
    <glyph glyph-name="two" unicode="2" horiz-adv-x="572" 
d="M131 75h396v-75h-486v33c0 150 94 208 204 276c94 58 191 91 191 192c0 79 -62 119 -132 119c-81 0 -130 -39 -197 -122l-65 46c66 94 144 152 260 152c137 0 223 -84 223 -192c0 -144 -116 -188 -228 -257c-87 -53 -155 -88 -166 -172z" />
    <glyph glyph-name="three" unicode="3" horiz-adv-x="575" 
d="M295 407c127 0 227 -71 227 -201c0 -106 -80 -222 -240 -222c-90 0 -165 26 -252 84l45 65c82 -52 136 -73 204 -73c95 0 154 62 154 145c0 82 -58 134 -163 134c-37 0 -64 -6 -81 -13l-41 56l245 223h-329v75h438v-73l-220 -201c4 0 9 1 13 1z" />
    <glyph glyph-name="four" unicode="4" horiz-adv-x="580" 
d="M460 232h102v-73h-102v-159h-86v159h-345v80l282 441h98l-286 -448h251v155h86v-155z" />
    <glyph glyph-name="five" unicode="5" horiz-adv-x="587" 
d="M310 439c136 0 225 -91 225 -217c0 -125 -94 -238 -242 -238c-103 0 -164 27 -257 90l44 65c87 -58 134 -79 205 -79c98 0 161 71 161 158c0 88 -55 147 -152 147c-57 0 -104 -20 -139 -54l-77 8l30 361h395v-75h-319l-18 -211c33 26 80 45 144 45z" />
    <glyph glyph-name="six" unicode="6" horiz-adv-x="589" 
d="M322 445c141 0 227 -106 227 -228c0 -120 -89 -232 -246 -232c-160 0 -251 114 -251 265c0 156 91 274 209 384l49 46h118v-1l-108 -99c-71 -64 -127 -131 -158 -197c36 38 90 62 160 62zM303 60c99 0 157 68 157 156c0 87 -56 155 -153 155c-102 0 -164 -68 -164 -155
c0 -88 62 -156 160 -156z" />
    <glyph glyph-name="seven" unicode="7" horiz-adv-x="535" 
d="M24 680h488v-64c-121 -151 -244 -384 -277 -616h-96c30 217 154 450 271 606h-386v74z" />
    <glyph glyph-name="eight" unicode="8" horiz-adv-x="589" 
d="M419 369c83 -32 131 -97 131 -182c0 -114 -94 -203 -256 -203c-161 0 -255 89 -255 203c0 85 48 150 131 182c-59 28 -96 80 -96 148c0 106 88 179 220 179c133 0 221 -73 221 -179c0 -68 -37 -120 -96 -148zM294 625c-83 0 -135 -46 -135 -110c0 -67 54 -114 135 -114
s136 47 136 114c0 64 -52 110 -136 110zM294 58c105 0 166 59 166 134c0 81 -62 139 -166 139c-103 0 -165 -58 -165 -139c0 -75 61 -134 165 -134z" />
    <glyph glyph-name="nine" unicode="9" horiz-adv-x="589" 
d="M286 695c161 0 251 -114 251 -265c0 -156 -91 -274 -209 -384l-49 -46h-117v1l108 99c70 64 127 131 158 197c-36 -38 -90 -62 -161 -62c-140 0 -227 106 -227 228c0 120 90 232 246 232zM283 309c101 0 163 68 163 155c0 88 -62 156 -160 156s-157 -68 -157 -156
c0 -87 56 -155 154 -155z" />
    <glyph glyph-name="zero.case" horiz-adv-x="600" 
d="M300 726c99 0 170 -50 211 -131c33 -65 49 -148 49 -240s-16 -174 -49 -239c-41 -81 -112 -132 -211 -132s-170 51 -211 132c-33 65 -49 147 -49 239s16 175 49 240c41 81 112 131 211 131zM300 650c-61 0 -105 -33 -133 -93c-25 -52 -37 -122 -37 -202s12 -149 37 -201
c28 -60 72 -94 133 -94s105 34 133 94c25 52 37 121 37 201s-12 150 -37 202c-28 60 -72 93 -133 93z" />
    <glyph glyph-name="one.case" horiz-adv-x="468" 
d="M253 710h67v-710h-88v598l-154 -109l-44 61z" />
    <glyph glyph-name="two.case" horiz-adv-x="582" 
d="M132 75h407v-75h-496v33c0 156 92 217 206 288c98 61 199 95 199 202c0 85 -66 126 -140 126c-85 0 -130 -42 -201 -129l-65 46c74 104 152 159 264 159c141 0 230 -86 230 -199c0 -150 -120 -195 -235 -267c-90 -56 -158 -94 -169 -184z" />
    <glyph glyph-name="three.case" horiz-adv-x="585" 
d="M298 425c134 0 236 -73 236 -209c0 -110 -82 -232 -247 -232c-93 0 -171 28 -260 88l45 65c85 -55 142 -77 212 -77c99 0 161 67 161 155c0 87 -58 141 -170 141c-38 0 -65 -6 -83 -13l-41 56l255 236h-343v75h451v-73l-230 -213c5 0 9 1 14 1z" />
    <glyph glyph-name="four.case" 
d="M469 240h106v-73h-106v-167h-86v167h-356v80l292 463h99l-297 -470h262v164h86v-164z" />
    <glyph glyph-name="five.case" horiz-adv-x="597" 
d="M315 459c140 0 231 -94 231 -227c0 -128 -94 -247 -248 -247c-105 0 -169 27 -265 93l45 65c89 -61 138 -83 212 -83c105 0 167 77 167 170c0 96 -57 154 -158 154c-59 0 -108 -21 -145 -57l-77 8l31 375h406v-75h-330l-19 -224c34 28 84 48 150 48z" />
    <glyph glyph-name="six.case" horiz-adv-x="600" 
d="M325 466c148 0 237 -111 237 -239c0 -125 -92 -242 -254 -242c-166 0 -258 120 -258 276c0 164 94 285 216 400l51 49h117v-1l-98 -91c-90 -83 -150 -155 -181 -225c37 45 95 73 170 73zM308 60c104 0 165 73 165 166s-58 165 -161 165c-105 0 -171 -72 -171 -165
s65 -166 167 -166z" />
    <glyph glyph-name="seven.case" horiz-adv-x="542" 
d="M21 710h501v-64c-128 -159 -252 -406 -286 -646h-97c33 229 159 475 282 636h-400v74z" />
    <glyph glyph-name="eight.case" horiz-adv-x="599" 
d="M426 384c86 -33 136 -102 136 -190c0 -119 -96 -211 -263 -211c-166 0 -262 92 -262 211c0 88 50 157 136 190c-62 29 -100 83 -100 154c0 111 91 187 226 187c136 0 227 -76 227 -187c0 -71 -39 -125 -100 -154zM299 654c-87 0 -141 -49 -141 -117
c0 -72 57 -121 141 -121s142 49 142 121c0 68 -54 117 -142 117zM299 58c110 0 173 61 173 141c0 85 -65 146 -173 146c-107 0 -172 -61 -172 -146c0 -80 63 -141 172 -141z" />
    <glyph glyph-name="nine.case" horiz-adv-x="599" 
d="M291 725c167 0 258 -119 258 -275c0 -164 -95 -283 -216 -400l-51 -50h-117v1l99 91c89 83 150 156 180 226c-37 -45 -95 -73 -170 -73c-148 0 -237 111 -237 238c0 126 93 242 254 242zM287 319c105 0 171 73 171 165c0 94 -65 166 -167 166c-103 0 -165 -72 -165 -166
c0 -92 58 -165 161 -165z" />
    <glyph glyph-name="zero.tf" 
d="M295 696c97 0 167 -48 207 -126c32 -62 48 -142 48 -230s-16 -168 -48 -230c-40 -78 -110 -126 -207 -126s-167 48 -207 126c-32 62 -48 142 -48 230s16 168 48 230c40 78 110 126 207 126zM295 620c-59 0 -102 -31 -129 -88c-24 -49 -36 -116 -36 -192s12 -143 36 -192
c27 -57 70 -88 129 -88s102 31 129 88c24 49 36 116 36 192s-12 143 -36 192c-27 57 -70 88 -129 88z" />
    <glyph glyph-name="one.tf" 
d="M371 69h165v-69h-254h-175v69h175v500l-152 -109l-44 61l218 159h67v-611z" />
    <glyph glyph-name="two.tf" 
d="M138 75h396v-75h-485v33c0 150 94 208 203 276c95 58 192 91 192 192c0 79 -62 119 -132 119c-82 0 -131 -39 -198 -122l-64 46c66 94 144 152 259 152c137 0 223 -84 223 -192c0 -144 -116 -188 -228 -257c-86 -53 -155 -88 -166 -172z" />
    <glyph glyph-name="three.tf" 
d="M296 407c127 0 226 -71 226 -201c0 -106 -80 -222 -239 -222c-91 0 -165 26 -252 84l45 65c82 -52 135 -73 204 -73c95 0 153 62 153 145c0 82 -57 134 -163 134c-37 0 -63 -6 -80 -13l-41 56l244 223h-328v75h438v-73l-220 -200h13z" />
    <glyph glyph-name="four.tf" 
d="M470 232h102v-73h-102v-159h-87v159h-344v80l281 441h99l-287 -448h251v155h87v-155z" />
    <glyph glyph-name="five.tf" 
d="M312 439c136 0 225 -91 225 -217c0 -125 -94 -238 -242 -238c-103 0 -164 27 -257 90l44 65c87 -58 134 -79 205 -79c98 0 161 71 161 158c0 88 -55 147 -153 147c-56 0 -103 -20 -138 -54l-77 8l30 361h395v-75h-320l-17 -211c33 26 80 45 144 45z" />
    <glyph glyph-name="six.tf" 
d="M323 445c140 0 227 -106 227 -228c0 -120 -90 -232 -246 -232c-161 0 -251 114 -251 265c0 156 91 274 209 384l49 46h117v-1l-108 -99c-70 -64 -126 -130 -157 -196c36 38 90 61 160 61zM304 60c98 0 157 68 157 156c0 87 -56 155 -154 155c-101 0 -163 -68 -163 -155
c0 -88 62 -156 160 -156z" />
    <glyph glyph-name="seven.tf" 
d="M44 680h489v-64c-121 -151 -244 -384 -277 -616h-97c31 217 155 451 272 606h-387v74z" />
    <glyph glyph-name="eight.tf" 
d="M419 369c83 -32 131 -97 131 -182c0 -114 -94 -203 -256 -203c-161 0 -255 89 -255 203c0 85 48 150 131 182c-59 28 -96 80 -96 148c0 106 88 179 220 179c133 0 221 -73 221 -179c0 -68 -37 -120 -96 -148zM294 625c-83 0 -135 -46 -135 -110c0 -67 54 -114 135 -114
s136 47 136 114c0 64 -52 110 -136 110zM294 58c105 0 166 59 166 134c0 81 -62 139 -166 139c-103 0 -165 -58 -165 -139c0 -75 61 -134 165 -134z" />
    <glyph glyph-name="nine.tf" 
d="M286 695c161 0 251 -114 251 -265c0 -156 -91 -274 -209 -384l-49 -46h-117v1l108 99c70 64 127 131 158 197c-36 -38 -90 -62 -161 -62c-140 0 -227 106 -227 228c0 120 90 232 246 232zM283 309c101 0 163 68 163 155c0 88 -62 156 -160 156s-157 -68 -157 -156
c0 -87 56 -155 154 -155z" />
    <glyph glyph-name="zero.zero" 
d="M502 570c32 -62 48 -142 48 -230s-16 -168 -48 -230c-40 -78 -110 -126 -207 -126s-167 48 -207 126c-32 62 -48 142 -48 230s16 168 48 230c40 78 110 126 207 126s167 -48 207 -126zM166 532c-24 -49 -36 -116 -36 -192c0 -66 9 -124 27 -170l239 405
c-25 30 -59 45 -101 45c-59 0 -102 -31 -129 -88zM424 148c24 49 36 116 36 192c0 68 -10 128 -28 174l-241 -407c26 -31 61 -47 104 -47c59 0 102 31 129 88z" />
    <glyph glyph-name="fraction" unicode="&#x2044;" horiz-adv-x="195" 
d="M308 695l54 -33l-476 -677l-53 34z" />
    <glyph glyph-name="onehalf" unicode="&#xbd;" horiz-adv-x="910" 
d="M626 695l54 -33l-476 -677l-53 34zM218 272h-69v323l-75 -55l-35 48l126 92h53v-408zM724 147c-50 -28 -89 -48 -97 -88h242v-59h-314v28c0 90 59 130 130 168c58 31 114 50 114 101c0 39 -32 60 -80 60c-39 0 -74 -17 -118 -55l-40 46c55 51 110 70 159 70
c95 0 150 -54 150 -118c0 -86 -70 -111 -146 -153z" />
    <glyph glyph-name="uni2154" unicode="&#x2154;" horiz-adv-x="1005" 
d="M725 695l54 -33l-476 -677l-53 34zM356 331v-59h-314v28c0 90 59 130 130 168c58 31 114 50 114 101c0 39 -32 60 -80 60c-39 0 -74 -17 -118 -55l-40 46c55 51 110 70 159 70c95 0 150 -54 150 -118c0 -86 -70 -111 -146 -153c-49 -27 -89 -48 -97 -88h242zM822 245
c77 0 140 -44 140 -121c0 -66 -52 -134 -155 -134c-53 0 -99 11 -164 52l35 50c57 -33 91 -41 128 -41c53 0 85 31 85 73c0 43 -35 70 -92 70c-27 0 -43 -3 -52 -7l-31 43l145 119h-199v59h285v-58l-129 -105h4z" />
    <glyph glyph-name="onequarter" unicode="&#xbc;" horiz-adv-x="879" 
d="M626 695l54 -33l-476 -677l-53 34zM218 272h-69v323l-75 -55l-35 48l126 92h53v-408zM792 149h57v-57h-57v-92h-69v92h-207v65l168 251h76l-173 -259h136v86h69v-86z" />
    <glyph glyph-name="threequarters" unicode="&#xbe;" horiz-adv-x="954" 
d="M701 695l54 -33l-476 -677l-53 34zM349 396c0 -66 -52 -134 -155 -134c-53 0 -99 11 -164 52l35 50c57 -33 91 -41 128 -41c53 0 85 31 85 73c0 43 -35 70 -92 70c-27 0 -43 -3 -52 -7l-31 43l145 119h-199v59h285v-58l-129 -105h4c77 0 140 -44 140 -121zM867 149h57
v-57h-57v-92h-69v92h-207v65l168 251h76l-173 -259h136v86h69v-86z" />
    <glyph glyph-name="oneeighth" unicode="&#x215b;" horiz-adv-x="913" 
d="M626 695l54 -33l-476 -677l-53 34zM218 272h-69v323l-75 -55l-35 48l126 92h53v-408zM797 217c50 -19 79 -56 79 -105c0 -68 -58 -122 -163 -122s-163 54 -163 122c0 49 28 87 79 105c-38 19 -62 51 -62 92c0 62 56 110 146 110c89 0 146 -48 146 -110
c0 -41 -24 -73 -62 -92zM713 363c-49 0 -81 -25 -81 -60s34 -62 81 -62c48 0 80 27 80 62s-32 60 -80 60zM713 49c60 0 92 30 92 68c0 41 -32 72 -92 72c-61 0 -93 -31 -93 -72c0 -38 32 -68 93 -68z" />
    <glyph glyph-name="threeeighths" unicode="&#x215c;" horiz-adv-x="988" 
d="M701 695l54 -33l-476 -677l-53 34zM349 396c0 -66 -52 -134 -155 -134c-53 0 -99 11 -164 52l35 50c57 -33 91 -41 128 -41c53 0 85 31 85 73c0 43 -35 70 -92 70c-27 0 -43 -3 -52 -7l-31 43l145 119h-199v59h285v-58l-129 -105h4c77 0 140 -44 140 -121zM872 217
c50 -19 79 -56 79 -105c0 -68 -58 -122 -163 -122s-163 54 -163 122c0 49 28 87 79 105c-38 19 -62 51 -62 92c0 62 56 110 146 110c89 0 146 -48 146 -110c0 -41 -24 -73 -62 -92zM788 363c-49 0 -81 -25 -81 -60s34 -62 81 -62c48 0 80 27 80 62s-32 60 -80 60zM788 49
c60 0 92 30 92 68c0 41 -32 72 -92 72c-61 0 -93 -31 -93 -72c0 -38 32 -68 93 -68z" />
    <glyph glyph-name="fiveeighths" unicode="&#x215d;" horiz-adv-x="990" 
d="M703 695l54 -33l-476 -677l-53 34zM360 408c0 -84 -62 -146 -161 -146c-59 0 -106 17 -167 54l35 51c50 -29 84 -44 130 -44c54 0 91 34 91 81c0 46 -28 76 -87 76c-32 0 -63 -10 -88 -32l-55 6l20 226h262v-59h-205l-11 -111c23 17 54 29 97 29c86 0 139 -61 139 -131z
M875 217c50 -19 79 -56 79 -105c0 -68 -58 -122 -163 -122s-163 54 -163 122c0 49 28 87 79 105c-38 19 -62 51 -62 92c0 62 56 110 146 110c89 0 146 -48 146 -110c0 -41 -24 -73 -62 -92zM791 363c-49 0 -81 -25 -81 -60s34 -62 81 -62c48 0 80 27 80 62s-32 60 -80 60z
M791 49c60 0 92 30 92 68c0 41 -32 72 -92 72c-61 0 -93 -31 -93 -72c0 -38 32 -68 93 -68z" />
    <glyph glyph-name="seveneighths" unicode="&#x215e;" horiz-adv-x="908" 
d="M621 695l54 -33l-476 -677l-53 34zM178 272h-75c10 115 82 256 166 349h-242v59h319v-54c-99 -111 -159 -236 -168 -354zM792 217c50 -19 79 -56 79 -105c0 -68 -58 -122 -163 -122s-163 54 -163 122c0 49 28 87 79 105c-38 19 -62 51 -62 92c0 62 56 110 146 110
c89 0 146 -48 146 -110c0 -41 -24 -73 -62 -92zM708 363c-49 0 -81 -25 -81 -60s34 -62 81 -62c48 0 80 27 80 62s-32 60 -80 60zM708 49c60 0 92 30 92 68c0 41 -32 72 -92 72c-61 0 -93 -31 -93 -72c0 -38 32 -68 93 -68z" />
    <glyph glyph-name="zero.dnom" horiz-adv-x="399" 
d="M199 -10c-111 0 -165 93 -165 214s54 214 165 214c110 0 164 -93 164 -214s-54 -214 -164 -214zM199 51c59 0 92 59 92 153s-33 153 -92 153c-60 0 -93 -59 -93 -153s33 -153 93 -153z" />
    <glyph glyph-name="one.dnom" horiz-adv-x="318" 
d="M165 408h53v-408h-69v323l-75 -55l-35 48z" />
    <glyph glyph-name="two.dnom" horiz-adv-x="397" 
d="M211 147c-50 -28 -89 -48 -97 -88h242v-59h-314v28c0 90 59 130 130 168c58 31 114 50 114 101c0 39 -32 60 -80 60c-39 0 -74 -17 -118 -55l-40 46c55 51 110 70 159 70c95 0 150 -54 150 -118c0 -86 -70 -111 -146 -153z" />
    <glyph glyph-name="three.dnom" horiz-adv-x="393" 
d="M209 245c77 0 140 -44 140 -121c0 -66 -52 -134 -155 -134c-53 0 -99 11 -164 52l35 50c57 -33 91 -41 128 -41c53 0 85 31 85 73c0 43 -35 70 -92 70c-27 0 -43 -3 -52 -7l-31 43l145 119h-199v59h285v-58l-129 -105h4z" />
    <glyph glyph-name="four.dnom" horiz-adv-x="396" 
d="M309 149h57v-57h-57v-92h-69v92h-207v65l168 251h76l-173 -259h136v86h69v-86z" />
    <glyph glyph-name="five.dnom" horiz-adv-x="395" 
d="M221 267c86 0 139 -61 139 -131c0 -84 -62 -146 -161 -146c-59 0 -106 17 -167 54l35 51c50 -29 84 -44 130 -44c54 0 91 34 91 81c0 46 -28 76 -87 76c-32 0 -63 -10 -88 -32l-55 6l20 226h262v-59h-205l-11 -112c23 18 54 30 97 30z" />
    <glyph glyph-name="six.dnom" horiz-adv-x="398" 
d="M219 274c89 0 144 -65 144 -139c0 -73 -59 -145 -162 -145c-107 0 -165 70 -165 168c0 103 64 186 155 250h98v-1c-76 -49 -143 -107 -171 -171c23 24 57 38 101 38zM201 51c58 0 94 35 94 82c0 46 -34 82 -90 82s-97 -36 -97 -82s36 -82 93 -82z" />
    <glyph glyph-name="seven.dnom" horiz-adv-x="370" 
d="M27 408h319v-54c-99 -111 -159 -236 -168 -354h-75c10 116 82 256 166 349h-242v59z" />
    <glyph glyph-name="eight.dnom" horiz-adv-x="400" 
d="M284 217c50 -19 79 -56 79 -105c0 -68 -58 -122 -163 -122s-163 54 -163 122c0 49 28 87 79 105c-38 19 -62 51 -62 92c0 62 56 110 146 110c89 0 146 -48 146 -110c0 -41 -24 -73 -62 -92zM200 363c-49 0 -81 -25 -81 -60s34 -62 81 -62c48 0 80 27 80 62s-32 60 -80 60
zM200 49c60 0 92 30 92 68c0 41 -32 72 -92 72c-61 0 -93 -31 -93 -72c0 -38 32 -68 93 -68z" />
    <glyph glyph-name="nine.dnom" horiz-adv-x="397" 
d="M195 418c108 0 165 -70 165 -168c0 -103 -64 -186 -154 -250h-98v1c74 48 140 105 168 168c-23 -22 -56 -35 -98 -35c-90 0 -145 65 -145 139c0 73 59 145 162 145zM192 193c56 0 96 36 96 82s-35 82 -93 82c-57 0 -93 -35 -93 -82c0 -46 34 -82 90 -82z" />
    <glyph glyph-name="zero.numr" horiz-adv-x="399" 
d="M199 262c-111 0 -165 93 -165 214s54 214 165 214c110 0 164 -93 164 -214s-54 -214 -164 -214zM199 323c59 0 92 59 92 153s-33 153 -92 153c-60 0 -93 -59 -93 -153s33 -153 93 -153z" />
    <glyph glyph-name="one.numr" horiz-adv-x="318" 
d="M165 680h53v-408h-69v323l-75 -55l-35 48z" />
    <glyph glyph-name="two.numr" horiz-adv-x="397" 
d="M211 419c-49 -27 -89 -48 -97 -88h242v-59h-314v28c0 90 59 130 130 168c58 31 114 50 114 101c0 39 -32 60 -80 60c-39 0 -74 -17 -118 -55l-40 46c55 51 110 70 159 70c95 0 150 -54 150 -118c0 -86 -70 -111 -146 -153z" />
    <glyph glyph-name="three.numr" horiz-adv-x="393" 
d="M209 517c77 0 140 -44 140 -121c0 -66 -52 -134 -155 -134c-53 0 -99 11 -164 52l35 50c57 -33 91 -41 128 -41c53 0 85 31 85 73c0 43 -35 70 -92 70c-27 0 -43 -3 -52 -7l-31 43l145 119h-199v59h285v-58l-129 -105h4z" />
    <glyph glyph-name="four.numr" horiz-adv-x="396" 
d="M309 421h57v-57h-57v-92h-69v92h-207v65l168 251h76l-172 -259h135v86h69v-86z" />
    <glyph glyph-name="five.numr" horiz-adv-x="395" 
d="M221 539c86 0 139 -61 139 -131c0 -84 -62 -146 -161 -146c-59 0 -106 17 -167 54l35 51c50 -29 84 -44 130 -44c54 0 91 34 91 81c0 46 -28 76 -87 76c-32 0 -63 -10 -88 -32l-55 6l20 226h262v-59h-205l-11 -111c23 17 54 29 97 29z" />
    <glyph glyph-name="six.numr" horiz-adv-x="398" 
d="M219 546c89 0 144 -65 144 -139c0 -73 -59 -145 -162 -145c-107 0 -165 70 -165 168c0 103 64 186 155 250h98v-1c-75 -49 -142 -107 -170 -170c23 23 56 37 100 37zM201 323c58 0 94 35 94 82c0 46 -34 82 -90 82s-97 -36 -97 -82s36 -82 93 -82z" />
    <glyph glyph-name="seven.numr" horiz-adv-x="370" 
d="M27 680h319v-54c-99 -111 -159 -236 -168 -354h-75c10 115 82 256 166 349h-242v59z" />
    <glyph glyph-name="eight.numr" horiz-adv-x="400" 
d="M284 492c50 -18 79 -56 79 -105c0 -68 -58 -122 -163 -122s-163 54 -163 122c0 49 28 87 79 105c-39 19 -62 51 -62 92c0 62 56 110 146 110c89 0 146 -48 146 -110c0 -41 -24 -73 -62 -92zM200 638c-49 0 -81 -25 -81 -60s34 -62 81 -62c48 0 80 27 80 62s-32 60 -80 60
zM200 324c60 0 92 30 92 68c0 41 -32 72 -92 72c-61 0 -93 -31 -93 -72c0 -38 32 -68 93 -68z" />
    <glyph glyph-name="nine.numr" horiz-adv-x="397" 
d="M195 690c108 0 165 -70 165 -168c0 -103 -64 -186 -154 -250h-98v1c74 48 139 106 167 168c-22 -22 -55 -35 -97 -35c-90 0 -145 65 -145 139c0 73 59 145 162 145zM192 465c56 0 96 36 96 82s-35 82 -93 82c-57 0 -93 -35 -93 -82c0 -46 34 -82 90 -82z" />
    <glyph glyph-name="uni00B9" unicode="&#xb9;" horiz-adv-x="318" 
d="M161 710h53v-408h-69v323l-75 -55l-35 48z" />
    <glyph glyph-name="uni00B2" unicode="&#xb2;" horiz-adv-x="397" 
d="M209 449c-50 -28 -89 -48 -97 -88h242v-59h-314v28c0 90 59 130 130 168c58 31 114 50 114 101c0 39 -32 60 -80 60c-39 0 -74 -17 -118 -55l-40 46c55 51 110 70 159 70c95 0 150 -54 150 -118c0 -86 -70 -111 -146 -153z" />
    <glyph glyph-name="uni00B3" unicode="&#xb3;" horiz-adv-x="393" 
d="M203 547c77 0 140 -44 140 -121c0 -66 -52 -134 -155 -134c-53 0 -99 11 -164 52l35 50c57 -33 91 -41 128 -41c53 0 85 31 85 73c0 43 -35 70 -92 70c-27 0 -43 -3 -52 -7l-31 43l145 119h-199v59h285v-58l-129 -105h4z" />
    <glyph glyph-name="asterisk" unicode="*" horiz-adv-x="436" 
d="M247 710v-134l124 42l18 -51l-128 -41l84 -108l-45 -34l-84 111l-80 -109l-46 35l85 105l-128 42l17 51l124 -43v134h59z" />
    <glyph glyph-name="backslash" unicode="\" horiz-adv-x="438" 
d="M22 710h84l310 -710h-84z" />
    <glyph glyph-name="periodcentered" unicode="&#xb7;" horiz-adv-x="216" 
d="M159 367v-108h-102v108h102z" />
    <glyph glyph-name="bullet" unicode="&#x2022;" horiz-adv-x="500" 
d="M250 475c96 0 176 -78 176 -176c0 -96 -80 -177 -176 -177c-98 0 -177 81 -177 177c0 98 79 176 177 176z" />
    <glyph glyph-name="exclamdown.case" horiz-adv-x="265" 
d="M82 602v108h103v-108h-103zM87 0v213l20 296h53l20 -296v-213h-93z" />
    <glyph glyph-name="questiondown.case" horiz-adv-x="485" 
d="M210 602v108h102v-108h-102zM226 -16c-115 0 -215 63 -215 180c0 96 73 146 133 200c49 44 74 67 80 121l3 29h71v-36c0 -75 -15 -102 -93 -170c-51 -45 -103 -80 -103 -142c0 -63 51 -102 126 -102c62 0 108 24 178 82l53 -59c-74 -67 -144 -103 -233 -103z" />
    <glyph glyph-name="colon" unicode=":" horiz-adv-x="256" 
d="M179 492v-108h-102v108h102zM179 108v-108h-102v108h102z" />
    <glyph glyph-name="comma" unicode="," horiz-adv-x="216" 
d="M165 108v-108l-61 -125h-52l55 125h-50v108h108z" />
    <glyph glyph-name="ellipsis" unicode="&#x2026;" horiz-adv-x="630" 
d="M159 108v-108h-102v108h102zM366 108v-108h-102v108h102zM574 108v-108h-102v108h102z" />
    <glyph glyph-name="exclam" unicode="!" horiz-adv-x="273" 
d="M188 710v-213l-20 -296h-53l-20 296v213h93zM193 108v-108h-103v108h103z" />
    <glyph glyph-name="exclamdown" unicode="&#xa1;" horiz-adv-x="225" 
d="M62 385v108h102v-108h-102zM66 -217v213l21 296h53l20 -296v-213h-94z" />
    <glyph glyph-name="numbersign" unicode="#" 
d="M568 436h-98l-40 -190h97l-13 -61h-97l-40 -185h-70l39 185h-155l-39 -185h-70l39 185h-100l13 61h100l40 190h-99l13 61h99l39 183h70l-39 -183h156l38 183h70l-38 -183h98zM359 246l41 190h-156l-40 -190h155z" />
    <glyph glyph-name="period" unicode="." horiz-adv-x="216" 
d="M159 108v-108h-102v108h102z" />
    <glyph glyph-name="question" unicode="?" horiz-adv-x="491" 
d="M260 726c115 0 214 -63 214 -180c0 -96 -73 -146 -132 -200c-50 -44 -75 -67 -80 -121l-3 -29h-71v36c0 75 14 102 92 170c52 45 103 80 103 142c0 63 -51 102 -125 102c-62 0 -108 -24 -179 -82l-52 59c74 67 144 103 233 103zM276 108v-108h-102v108h102z" />
    <glyph glyph-name="questiondown" unicode="&#xbf;" horiz-adv-x="464" 
d="M205 385v108h102v-108h-102zM221 -233c-115 0 -215 63 -215 181c0 95 73 145 133 199c49 44 74 67 80 121l3 29h71v-35c0 -76 -15 -103 -93 -171c-51 -45 -103 -80 -103 -142c0 -63 51 -102 126 -102c62 0 108 24 178 83l53 -60c-74 -67 -144 -103 -233 -103z" />
    <glyph glyph-name="quotedbl" unicode="&#x22;" horiz-adv-x="375" 
d="M139 710l-9 -234h-64l-9 234h82zM318 710l-9 -234h-64l-10 234h83z" />
    <glyph glyph-name="quotesingle" unicode="'" horiz-adv-x="196" 
d="M139 710l-9 -234h-64l-9 234h82z" />
    <glyph glyph-name="semicolon" unicode=";" horiz-adv-x="256" 
d="M186 492v-108h-103v108h103zM190 108v-108l-62 -125h-51l54 125h-50v108h109z" />
    <glyph glyph-name="slash" unicode="/" horiz-adv-x="438" 
d="M416 710l-310 -710h-84l310 710h84z" />
    <glyph glyph-name="periodcentered.ss02" horiz-adv-x="238" 
d="M119 250c-34 0 -62 29 -62 63c0 33 28 62 62 62s62 -29 62 -62c0 -34 -28 -63 -62 -63z" />
    <glyph glyph-name="exclamdown.case.ss02" horiz-adv-x="265" 
d="M134 719c34 0 62 -29 62 -63c0 -33 -28 -62 -62 -62s-62 29 -62 62c0 34 28 63 62 63zM86 0v213l21 296h53l20 -296v-213h-94z" />
    <glyph glyph-name="questiondown.case.ss02" horiz-adv-x="485" 
d="M264 726c34 0 62 -29 62 -63c0 -33 -28 -62 -62 -62s-62 29 -62 62c0 34 28 63 62 63zM298 521v-35c0 -76 -15 -103 -93 -171c-51 -45 -103 -80 -103 -142c0 -63 51 -102 126 -102c62 0 108 24 178 83l53 -60c-74 -67 -144 -103 -233 -103c-115 0 -215 63 -215 181
c0 95 73 145 133 199c49 44 74 67 80 121l3 29h71z" />
    <glyph glyph-name="colon.ss02" horiz-adv-x="258" 
d="M129 373c-34 0 -62 29 -62 63c0 33 28 62 62 62s62 -29 62 -62c0 -34 -28 -63 -62 -63zM129 -9c-34 0 -62 29 -62 63c0 33 28 62 62 62s62 -29 62 -62c0 -34 -28 -63 -62 -63z" />
    <glyph glyph-name="comma.ss02" horiz-adv-x="218" 
d="M110 115c39 0 72 -30 72 -92c0 -68 -43 -150 -129 -154v42c31 4 68 35 75 84c-6 -2 -13 -3 -19 -3c-35 0 -62 25 -62 61c0 35 29 62 63 62z" />
    <glyph glyph-name="ellipsis.ss02" horiz-adv-x="653" 
d="M119 -9c-34 0 -62 29 -62 63c0 33 28 62 62 62s62 -29 62 -62c0 -34 -28 -63 -62 -63zM327 -9c-35 0 -63 29 -63 63c0 33 28 62 63 62c33 0 61 -29 61 -62c0 -34 -28 -63 -61 -63zM534 -9c-34 0 -62 29 -62 63c0 33 28 62 62 62s62 -29 62 -62c0 -34 -28 -63 -62 -63z
" />
    <glyph glyph-name="exclam.ss02" horiz-adv-x="273" 
d="M188 710v-213l-20 -296h-53l-20 296v213h93zM141 -9c-34 0 -62 29 -62 63c0 33 28 62 62 62s62 -29 62 -62c0 -34 -28 -63 -62 -63z" />
    <glyph glyph-name="exclamdown.ss02" horiz-adv-x="225" 
d="M137 502c33 0 61 -29 61 -63c0 -33 -28 -62 -61 -62c-35 0 -63 29 -63 62c0 34 28 63 63 63zM89 -217v213l20 296h53l20 -296v-213h-93z" />
    <glyph glyph-name="period.ss02" horiz-adv-x="218" 
d="M109 -9c-34 0 -62 29 -62 63c0 33 28 62 62 62s62 -29 62 -62c0 -34 -28 -63 -62 -63z" />
    <glyph glyph-name="question.ss02" horiz-adv-x="491" 
d="M188 196v36c0 75 14 102 92 170c52 45 103 80 103 142c0 63 -51 102 -125 102c-62 0 -108 -24 -179 -82l-52 59c74 67 144 103 233 103c115 0 214 -63 214 -180c0 -96 -73 -146 -132 -200c-50 -44 -75 -67 -80 -121l-3 -29h-71zM222 -9c-34 0 -62 29 -62 63
c0 33 28 62 62 62s62 -29 62 -62c0 -34 -28 -63 -62 -63z" />
    <glyph glyph-name="questiondown.ss02" horiz-adv-x="464" 
d="M259 501c34 0 62 -28 62 -63c0 -33 -28 -61 -62 -61s-62 28 -62 61c0 35 28 63 62 63zM293 296v-35c0 -75 -15 -102 -93 -170c-51 -45 -103 -81 -103 -143s51 -102 126 -102c62 0 108 25 178 83l53 -59c-74 -67 -144 -103 -233 -103c-115 0 -215 62 -215 180
c0 96 73 145 133 199c49 45 74 67 80 121l3 29h71z" />
    <glyph glyph-name="semicolon.ss02" horiz-adv-x="258" 
d="M129 373c-34 0 -62 29 -62 63c0 33 28 62 62 62s62 -29 62 -62c0 -34 -28 -63 -62 -63zM130 115c39 0 72 -30 72 -92c0 -68 -43 -150 -129 -154v42c31 4 68 35 75 84c-6 -2 -13 -3 -19 -3c-35 0 -62 25 -62 61c0 35 29 62 63 62z" />
    <glyph glyph-name="underscore" unicode="_" horiz-adv-x="600" 
d="M605 -130v-60h-610v60h610z" />
    <glyph glyph-name="braceleft" unicode="{" horiz-adv-x="366" 
d="M329 759v-64h-34c-74 0 -68 -32 -68 -105v-153c0 -65 -16 -112 -94 -125v-2c78 -13 94 -60 94 -125v-159c0 -73 -6 -105 68 -105h34v-63h-53c-96 0 -132 28 -132 152v162c0 74 -26 98 -94 98v82c68 0 94 24 94 98v157c0 124 36 152 132 152h53z" />
    <glyph glyph-name="braceright" unicode="}" horiz-adv-x="366" 
d="M37 759h53c96 0 132 -28 132 -152v-157c0 -74 26 -98 94 -98v-82c-68 0 -94 -24 -94 -98v-162c0 -124 -36 -152 -132 -152h-53v63h35c74 0 68 32 68 105v159c0 65 16 112 94 125v2c-78 13 -94 60 -94 125v153c0 73 6 105 -68 105h-35v64z" />
    <glyph glyph-name="bracketleft" unicode="[" horiz-adv-x="328" 
d="M291 759v-64h-112v-774h112v-63h-194v901h194z" />
    <glyph glyph-name="bracketright" unicode="]" horiz-adv-x="328" 
d="M37 759h194v-901h-194v63h111v774h-111v64z" />
    <glyph glyph-name="parenleft" unicode="(" horiz-adv-x="337" 
d="M275 783l55 -46c-108 -133 -171 -257 -171 -430c0 -172 63 -297 171 -430l-55 -46c-116 127 -201 271 -201 476s85 349 201 476z" />
    <glyph glyph-name="parenright" unicode=")" horiz-adv-x="337" 
d="M62 -168l-55 46c108 134 171 257 171 430c0 172 -63 297 -171 430l55 46c116 -127 202 -270 202 -476c0 -205 -86 -349 -202 -476z" />
    <glyph glyph-name="emdash.case" horiz-adv-x="966" 
d="M886 384v-74h-807v74h807z" />
    <glyph glyph-name="endash.case" horiz-adv-x="723" 
d="M655 384v-74h-587v74h587z" />
    <glyph glyph-name="hyphen.case" horiz-adv-x="405" 
d="M348 385v-77h-291v77h291z" />
    <glyph glyph-name="emdash" unicode="&#x2014;" horiz-adv-x="966" 
d="M886 324v-73h-807v73h807z" />
    <glyph glyph-name="endash" unicode="&#x2013;" horiz-adv-x="723" 
d="M655 324v-73h-587v73h587z" />
    <glyph glyph-name="hyphen" unicode="-" horiz-adv-x="405" 
d="M348 326v-77h-291v77h291z" />
    <glyph glyph-name="guillemotleft.case" horiz-adv-x="571" 
d="M287 551l-141 -218l141 -218h-86l-139 218l139 218h86zM505 551l-141 -218l141 -218h-86l-139 218l139 218h86z" />
    <glyph glyph-name="guillemotright.case" horiz-adv-x="571" 
d="M67 551h85l140 -218l-140 -218h-85l139 218zM285 551h85l140 -218l-140 -218h-85l139 218z" />
    <glyph glyph-name="guilsinglleft.case" horiz-adv-x="354" 
d="M287 551l-141 -218l141 -218h-86l-139 218l139 218h86z" />
    <glyph glyph-name="guilsinglright.case" horiz-adv-x="354" 
d="M67 551h85l140 -218l-140 -218h-85l139 218z" />
    <glyph glyph-name="guillemotleft" unicode="&#xab;" horiz-adv-x="571" 
d="M287 471l-141 -218l141 -218h-86l-139 218l139 218h86zM505 471l-141 -218l141 -218h-86l-139 218l139 218h86z" />
    <glyph glyph-name="guillemotright" unicode="&#xbb;" horiz-adv-x="571" 
d="M67 471h85l140 -218l-140 -218h-85l139 218zM285 471h85l140 -218l-140 -218h-85l139 218z" />
    <glyph glyph-name="guilsinglleft" unicode="&#x2039;" horiz-adv-x="354" 
d="M287 471l-141 -218l141 -218h-86l-139 218l139 218h86z" />
    <glyph glyph-name="guilsinglright" unicode="&#x203a;" horiz-adv-x="354" 
d="M67 471h85l140 -218l-140 -218h-85l139 218z" />
    <glyph glyph-name="quotedblbase" unicode="&#x201e;" horiz-adv-x="378" 
d="M150 104v-104l-58 -114h-48l49 114h-47v104h104zM331 104v-104l-58 -114h-48l49 114h-47v104h104z" />
    <glyph glyph-name="quotedblleft" unicode="&#x201c;" horiz-adv-x="381" 
d="M47 489v102l58 119h51l-53 -119h48v-102h-104zM228 489v102l58 119h51l-53 -119h48v-102h-104z" />
    <glyph glyph-name="quotedblright" unicode="&#x201d;" horiz-adv-x="381" 
d="M153 710v-102l-59 -119h-50l53 119h-48v102h104zM334 710v-102l-59 -119h-50l53 119h-48v102h104z" />
    <glyph glyph-name="quoteleft" unicode="&#x2018;" horiz-adv-x="200" 
d="M47 489v102l58 119h51l-53 -119h48v-102h-104z" />
    <glyph glyph-name="quoteright" unicode="&#x2019;" horiz-adv-x="200" 
d="M153 710v-102l-59 -119h-50l53 119h-48v102h104z" />
    <glyph glyph-name="quotesinglbase" unicode="&#x201a;" horiz-adv-x="197" 
d="M150 104v-104l-58 -114h-48l49 114h-47v104h104z" />
    <glyph glyph-name="quotedblbase.ss02" horiz-adv-x="400" 
d="M104 109c37 0 69 -28 69 -87c0 -65 -41 -142 -123 -146v39c30 4 65 34 71 80c-5 -2 -12 -3 -17 -3c-34 0 -60 24 -60 58c0 33 28 59 60 59zM284 109c37 0 69 -28 69 -87c0 -65 -41 -142 -123 -146v39c30 4 65 34 72 80c-6 -2 -13 -3 -18 -3c-34 0 -60 24 -60 58
c0 33 28 59 60 59z" />
    <glyph glyph-name="quotedblleft.ss02" horiz-adv-x="403" 
d="M116 598c34 0 60 -24 60 -58c0 -33 -28 -58 -60 -58c-37 0 -69 27 -69 87c0 65 41 142 123 146v-40c-30 -4 -65 -33 -71 -80c6 2 12 3 17 3zM300 598c33 0 59 -24 59 -58c0 -33 -28 -58 -60 -58c-37 0 -69 27 -69 87c0 65 41 142 124 146v-40c-31 -4 -66 -33 -72 -80
c6 2 12 3 18 3z" />
    <glyph glyph-name="quotedblright.ss02" horiz-adv-x="400" 
d="M104 714c37 0 69 -28 69 -87c0 -65 -41 -142 -123 -146v39c30 4 65 34 71 80c-5 -2 -12 -3 -17 -3c-34 0 -60 24 -60 58c0 33 28 59 60 59zM284 714c37 0 69 -28 69 -87c0 -65 -41 -142 -123 -146v39c30 4 65 34 72 80c-6 -2 -13 -3 -18 -3c-34 0 -60 24 -60 58
c0 33 28 59 60 59z" />
    <glyph glyph-name="quoteleft.ss02" horiz-adv-x="220" 
d="M116 598c34 0 60 -24 60 -58c0 -33 -28 -58 -60 -58c-37 0 -69 27 -69 87c0 65 41 142 123 146v-40c-30 -4 -65 -33 -71 -80c6 2 12 3 17 3z" />
    <glyph glyph-name="quoteright.ss02" horiz-adv-x="220" 
d="M104 714c37 0 69 -28 69 -87c0 -65 -41 -142 -123 -146v39c30 4 65 34 71 80c-5 -2 -12 -3 -17 -3c-34 0 -60 24 -60 58c0 33 28 59 60 59z" />
    <glyph glyph-name="quotesinglbase.ss02" horiz-adv-x="220" 
d="M104 109c37 0 69 -28 69 -87c0 -65 -41 -142 -123 -146v39c30 4 65 34 71 80c-5 -2 -12 -3 -17 -3c-34 0 -60 24 -60 58c0 33 28 59 60 59z" />
    <glyph glyph-name="space" unicode=" " horiz-adv-x="227" 
 />
    <glyph glyph-name="cent" unicode="&#xa2;" 
d="M515 93c-56 -69 -106 -98 -168 -105v-88h-67v88c-127 13 -208 112 -208 258s83 245 208 259v90h67v-91c63 -7 112 -34 161 -92l-56 -52c-41 43 -72 63 -105 70v-367c35 8 67 30 111 78zM160 246c0 -86 39 -168 120 -184v369c-80 -16 -120 -99 -120 -185z" />
    <glyph glyph-name="currency" unicode="&#xa4;" 
d="M486 575l44 -43l-66 -66c26 -34 41 -77 41 -126s-15 -92 -41 -126l65 -65l-44 -43l-66 66c-34 -22 -76 -34 -122 -34c-47 0 -90 13 -124 36l-69 -69l-43 43l68 68c-26 34 -40 76 -40 124c0 47 14 89 39 123l-68 68l44 43l68 -69c34 24 78 37 125 37c46 0 87 -12 121 -34z
M297 477c-80 0 -139 -54 -139 -137s59 -137 139 -137s139 54 139 137s-59 137 -139 137z" />
    <glyph glyph-name="dollar" unicode="$" horiz-adv-x="610" 
d="M553 189c0 -114 -85 -193 -212 -203v-86h-66v86c-90 7 -159 42 -241 115l54 59c78 -69 131 -91 187 -97v260c-155 42 -208 83 -208 185c0 104 91 177 208 187v85h66v-86c80 -7 143 -37 209 -97l-54 -60c-58 53 -103 75 -155 81v-230c153 -41 212 -91 212 -199zM151 510
c0 -60 42 -82 124 -105v214c-77 -9 -124 -53 -124 -109zM341 62c74 9 127 54 127 124c0 69 -50 96 -127 119v-243z" />
    <glyph glyph-name="Euro" unicode="&#x20ac;" horiz-adv-x="610" 
d="M393 60c56 0 92 12 147 52l48 -62c-64 -46 -114 -66 -195 -66c-145 0 -237 105 -265 255h-73v63h65c0 13 -1 25 -1 38c0 19 1 37 3 55h-67v64h77c31 140 121 237 261 237c81 0 132 -20 195 -66l-48 -62c-55 40 -91 52 -147 52c-84 0 -144 -62 -170 -161h258v-64h-269
c-2 -17 -3 -36 -3 -55c0 -13 1 -25 2 -38h270v-63h-262c23 -110 85 -179 174 -179z" />
    <glyph glyph-name="florin" unicode="&#x192;" 
d="M320 462h129v-65h-129v-438c0 -100 -44 -153 -139 -153c-34 0 -66 5 -96 15l18 65c26 -6 48 -10 68 -10c48 0 63 28 63 84v437h-112v65h112v82c0 97 52 151 148 151c31 0 60 -3 100 -17l-18 -66c-30 9 -49 12 -68 12c-54 0 -76 -26 -76 -90v-72z" />
    <glyph glyph-name="uni20BA" unicode="&#x20ba;" 
d="M468 299l80 -13l-12 -61c-32 -173 -119 -225 -286 -225h-111v257l-93 -41v66l93 41v105l-93 -41v66l93 41v186h88v-147l165 74v-66l-165 -74v-105l165 74v-66l-165 -74v-220h12c132 0 191 27 218 166z" />
    <glyph glyph-name="uni20BD" unicode="&#x20bd;" horiz-adv-x="610" 
d="M340 283h-120v-92h215v-62h-215v-129h-88v129h-94v62h94v92h-94v67h94v330h208c127 0 219 -78 219 -201c0 -122 -92 -196 -219 -196zM220 605v-255h111c86 0 142 47 142 128s-56 127 -142 127h-111z" />
    <glyph glyph-name="uni20B9" unicode="&#x20b9;" 
d="M545 617h-115c27 -27 45 -63 51 -105h64v-62h-63c-14 -105 -101 -169 -218 -169h-68l297 -281h-121l-291 281v68h173c77 0 130 35 141 101h-314v62h313c-14 62 -66 93 -140 93h-173v75h464v-63z" />
    <glyph glyph-name="sterling" unicode="&#xa3;" 
d="M528 100l31 -68c-57 -36 -103 -45 -145 -45c-92 0 -158 37 -235 37c-58 0 -86 -16 -114 -29l-27 70c54 21 132 54 133 150c0 26 -3 48 -6 68h-98v67h80c-14 41 -27 84 -27 152c0 123 100 191 213 191c82 0 146 -26 212 -79l-49 -63c-62 47 -106 66 -162 66
c-72 0 -124 -43 -124 -117c0 -64 14 -107 27 -150h216v-67h-200c2 -18 4 -37 4 -58c-1 -67 -33 -105 -70 -130c92 -6 142 -33 221 -33c40 0 73 11 120 38z" />
    <glyph glyph-name="yen" unicode="&#xa5;" 
d="M557 680l-155 -268h120v-64h-157l-27 -45v-47h184v-64h-184v-192h-88v192h-182v64h182v48l-26 44h-156v64h120l-155 268h98l166 -297l165 297h95z" />
    <glyph glyph-name="approxequal" unicode="&#x2248;" horiz-adv-x="603" 
d="M201 468c76 0 138 -56 201 -56c35 0 53 8 100 51l43 -49c-57 -59 -86 -72 -141 -72c-70 0 -133 55 -202 55c-39 0 -62 -13 -102 -51l-43 49c53 55 91 73 144 73zM201 268c76 0 138 -56 201 -56c35 0 53 8 100 51l43 -49c-57 -59 -86 -72 -141 -72c-70 0 -132 55 -202 55
c-39 0 -62 -13 -102 -51l-43 49c53 55 91 73 144 73z" />
    <glyph glyph-name="asciitilde" unicode="~" horiz-adv-x="600" 
d="M195 403c87 0 150 -57 218 -57c41 0 55 20 58 53h72c-2 -72 -43 -124 -122 -124c-83 0 -152 59 -223 59c-41 0 -65 -23 -69 -54h-72c3 72 54 123 138 123z" />
    <glyph glyph-name="divide" unicode="&#xf7;" horiz-adv-x="600" 
d="M351 543v-109h-102v109h102zM560 347v-74h-520v74h520zM351 186v-109h-102v109h102z" />
    <glyph glyph-name="equal" unicode="=" horiz-adv-x="600" 
d="M560 447v-74h-520v74h520zM560 247v-74h-520v74h520z" />
    <glyph glyph-name="greater" unicode="&#x3e;" horiz-adv-x="600" 
d="M60 529l480 -180v-78l-480 -180v80l384 139l-384 139v80z" />
    <glyph glyph-name="greaterequal" unicode="&#x2265;" horiz-adv-x="600" 
d="M60 548l480 -180v-77l-480 -180v79l384 139l-384 140v79zM560 74v-74h-520v74h520z" />
    <glyph glyph-name="infinity" unicode="&#x221e;" horiz-adv-x="807" 
d="M590 456c98 0 166 -72 166 -166s-69 -165 -160 -165c-73 0 -132 41 -190 108l-4 5c-71 -83 -121 -113 -193 -113c-89 0 -157 71 -157 165s69 166 167 166c72 0 126 -40 184 -110l1 -2c70 82 128 112 186 112zM212 192c52 0 91 28 147 95l-2 2c-51 58 -78 98 -139 98
c-57 0 -94 -41 -94 -98c0 -58 38 -97 88 -97zM593 192c53 0 90 38 90 97c0 57 -36 98 -94 98c-52 0 -97 -35 -142 -95l4 -5c43 -52 85 -95 142 -95z" />
    <glyph glyph-name="integral" unicode="&#x222b;" horiz-adv-x="600" 
d="M320 -41c0 -100 -44 -153 -139 -153c-34 0 -66 5 -96 15l18 65c26 -6 48 -10 68 -10c48 0 63 28 63 84v614c0 97 52 151 148 151c31 0 60 -3 100 -17l-18 -66c-30 9 -49 12 -68 12c-54 0 -76 -26 -76 -90v-605z" />
    <glyph glyph-name="less" unicode="&#x3c;" horiz-adv-x="600" 
d="M540 529v-80l-384 -139l384 -139v-80l-480 180v78z" />
    <glyph glyph-name="lessequal" unicode="&#x2264;" horiz-adv-x="600" 
d="M540 548v-79l-384 -140l384 -139v-79l-480 180v77zM560 74v-74h-520v74h520z" />
    <glyph glyph-name="logicalnot" unicode="&#xac;" horiz-adv-x="600" 
d="M40 347h520v-74v-199h-75v199h-445v74z" />
    <glyph glyph-name="minus" unicode="&#x2212;" horiz-adv-x="600" 
d="M560 347v-74h-520v74h520z" />
    <glyph glyph-name="multiply" unicode="&#xd7;" horiz-adv-x="600" 
d="M529 488l-177 -178l177 -178l-51 -51l-178 177l-178 -177l-52 51l178 178l-178 178l52 52l178 -178l178 178z" />
    <glyph glyph-name="uni2924" unicode="&#x2924;" horiz-adv-x="632" 
d="M149 765h363v-363h-71v241l-26 -26c-112 -116 -210 -214 -210 -340c0 -120 100 -218 213 -337l-59 -56c-120 126 -239 242 -239 393c0 158 119 269 240 393l24 26h-235v69z" />
    <glyph glyph-name="uni2923" unicode="&#x2923;" horiz-adv-x="632" 
d="M272 670c120 -124 240 -235 240 -393c0 -151 -119 -267 -239 -393l-59 56c113 119 212 217 212 337c0 126 -98 224 -210 340l-25 26v-241h-71v363h363v-69h-236z" />
    <glyph glyph-name="notequal" unicode="&#x2260;" horiz-adv-x="600" 
d="M560 373h-202l-46 -126h248v-74h-275l-44 -118h-76l43 118h-168v74h195l46 126h-241v74h268l42 114h77l-42 -114h175v-74z" />
    <glyph glyph-name="partialdiff" unicode="&#x2202;" horiz-adv-x="555" 
d="M153 720c248 -32 366 -189 366 -427c0 -190 -91 -309 -244 -309c-150 0 -238 119 -238 248s83 244 219 244c80 0 143 -38 178 -96c-24 140 -111 239 -300 266zM275 59c91 0 150 77 150 172c0 94 -66 171 -156 171c-91 0 -145 -77 -145 -171c0 -95 57 -172 151 -172z" />
    <glyph glyph-name="percent" unicode="%" horiz-adv-x="858" 
d="M642 695l54 -33l-477 -677l-52 34zM212 691c87 0 155 -65 155 -159c0 -95 -68 -160 -155 -160s-155 65 -155 160c0 94 68 159 155 159zM212 633c-55 0 -89 -44 -89 -101c0 -59 34 -102 89 -102s89 43 89 102c0 57 -34 101 -89 101zM646 308c87 0 156 -65 156 -158
c0 -96 -69 -160 -156 -160s-155 64 -155 160c0 93 68 158 155 158zM646 251c-55 0 -88 -44 -88 -101c0 -59 33 -102 88 -102s89 43 89 102c0 57 -34 101 -89 101z" />
    <glyph glyph-name="perthousand" unicode="&#x2030;" horiz-adv-x="1238" 
d="M642 695l54 -33l-477 -677l-52 34zM212 691c87 0 155 -65 155 -159c0 -95 -68 -160 -155 -160s-155 65 -155 160c0 94 68 159 155 159zM212 633c-55 0 -89 -44 -89 -101c0 -59 34 -102 89 -102s89 43 89 102c0 57 -34 101 -89 101zM646 308c87 0 156 -65 156 -158
c0 -96 -69 -160 -156 -160s-155 64 -155 160c0 93 68 158 155 158zM1012 308c87 0 156 -65 156 -158c0 -96 -69 -160 -156 -160s-155 64 -155 160c0 93 68 158 155 158zM646 251c-55 0 -88 -44 -88 -101c0 -59 33 -102 88 -102s89 43 89 102c0 57 -34 101 -89 101zM1012 251
c-55 0 -88 -44 -88 -101c0 -59 33 -102 88 -102s89 43 89 102c0 57 -34 101 -89 101z" />
    <glyph glyph-name="plus" unicode="+" horiz-adv-x="600" 
d="M338 570v-223h222v-74h-222v-223h-76v223h-222v74h222v223h76z" />
    <glyph glyph-name="plusminus" unicode="&#xb1;" horiz-adv-x="600" 
d="M338 662v-223h222v-74h-222v-223h-76v223h-222v74h222v223h76zM560 74v-74h-520v74h520z" />
    <glyph glyph-name="product" unicode="&#x220f;" horiz-adv-x="716" 
d="M635 710v-820h-93v743h-368v-743h-93v820h554z" />
    <glyph glyph-name="radical" unicode="&#x221a;" horiz-adv-x="611" 
d="M491 710h94l-254 -710h-121l-183 492h95l150 -412z" />
    <glyph glyph-name="uni2925" unicode="&#x2925;" horiz-adv-x="632" 
d="M441 291h71v-363h-363v69h236l-25 26c-121 124 -240 235 -240 393c0 151 119 267 239 393l59 -56c-113 -119 -213 -217 -213 -337c0 -126 98 -224 210 -340l26 -27v242z" />
    <glyph glyph-name="uni2926" unicode="&#x2926;" horiz-adv-x="632" 
d="M272 23l-25 -26h236v-69h-363v363h71v-241l25 26c112 116 210 214 210 340c0 120 -99 218 -212 337l59 56c120 -126 239 -242 239 -393c0 -158 -120 -269 -240 -393z" />
    <glyph glyph-name="divide.ss02" horiz-adv-x="600" 
d="M301 434c-34 0 -63 28 -63 63c0 33 29 61 63 61c33 0 62 -28 62 -61c0 -35 -29 -63 -62 -63zM560 347v-74h-520v74h520zM301 62c-34 0 -63 28 -63 62s29 62 63 62c33 0 62 -28 62 -62s-29 -62 -62 -62z" />
    <glyph glyph-name="summation" unicode="&#x2211;" horiz-adv-x="597" 
d="M540 710v-77h-379l249 -332l-252 -337h409v-77h-517v72l252 342l-249 337v72h487z" />
    <glyph glyph-name="arrowup" unicode="&#x2191;" horiz-adv-x="728" 
d="M688 441l-51 -52l-232 235v-624h-80v625l-233 -236l-52 52l325 325z" />
    <glyph glyph-name="uni2197" unicode="&#x2197;" horiz-adv-x="731" 
d="M172 710h489v-489h-73v363l-505 -505l-53 52l507 507h-365v72z" />
    <glyph glyph-name="arrowright" unicode="&#x2192;" horiz-adv-x="923" 
d="M552 680l341 -341l-341 -341l-53 53l255 252h-701v73h700l-254 251z" />
    <glyph glyph-name="uni2198" unicode="&#x2198;" horiz-adv-x="731" 
d="M588 489h73v-489h-489v72h365l-507 507l53 52l505 -505v363z" />
    <glyph glyph-name="arrowdown" unicode="&#x2193;" horiz-adv-x="728" 
d="M637 321l51 -52l-323 -325l-325 325l52 52l233 -236v625h80v-624z" />
    <glyph glyph-name="uni2199" unicode="&#x2199;" horiz-adv-x="731" 
d="M701 579l-506 -507h364v-72h-489v489h74v-363l504 505z" />
    <glyph glyph-name="arrowleft" unicode="&#x2190;" horiz-adv-x="923" 
d="M870 376v-73h-701l256 -252l-54 -53l-341 341l341 341l54 -53l-255 -251h700z" />
    <glyph glyph-name="uni2196" unicode="&#x2196;" horiz-adv-x="731" 
d="M701 131l-53 -52l-504 505v-363h-74v489h489v-72h-364z" />
    <glyph glyph-name="lozenge" unicode="&#x25ca;" horiz-adv-x="609" 
d="M356 710l216 -356l-216 -354h-103l-216 354l216 356h103zM305 640l-175 -286l175 -284l173 284z" />
    <glyph glyph-name="bar" unicode="|" horiz-adv-x="383" 
d="M230 800v-940h-76v940h76z" />
    <glyph glyph-name="brokenbar" unicode="&#xa6;" horiz-adv-x="383" 
d="M230 800v-400h-76v400h76zM230 260v-400h-76v400h76z" />
    <glyph glyph-name="at" unicode="@" horiz-adv-x="947" 
d="M695 460l-56 -262c-13 -58 -14 -125 66 -125c71 0 126 79 126 207c0 227 -157 339 -345 339c-224 0 -367 -164 -367 -384c0 -211 131 -365 383 -365h218v-60h-235c-276 0 -438 176 -438 427c0 255 168 444 435 444c245 0 418 -156 418 -398c0 -163 -82 -267 -200 -267
c-94 0 -125 54 -131 96c-38 -59 -94 -96 -168 -96c-96 0 -149 59 -149 156c0 137 91 296 236 296c69 0 111 -32 123 -79l12 71h72zM411 79c120 0 167 158 167 232c0 60 -22 95 -84 95c-101 0 -165 -125 -165 -228c0 -66 30 -99 82 -99z" />
    <glyph glyph-name="ampersand" unicode="&#x26;" horiz-adv-x="699" 
d="M692 0h-106l-86 100c-61 -69 -126 -115 -231 -115c-131 0 -222 80 -222 190c0 102 59 159 188 234c-42 50 -78 100 -78 159c-1 91 76 154 174 154c100 0 170 -64 170 -146c0 -74 -33 -119 -144 -186l144 -167l101 127l62 -45l-112 -142zM330 657c-50 0 -92 -34 -91 -88
c0 -42 32 -80 71 -124c87 50 111 82 111 131c0 48 -40 81 -91 81zM273 57c75 0 124 41 177 102l-168 196c-109 -65 -148 -106 -148 -174c0 -73 57 -124 139 -124z" />
    <glyph glyph-name="paragraph" unicode="&#xb6;" horiz-adv-x="648" 
d="M412 710v-810h-71v372h-77c-135 0 -227 84 -227 219s92 219 227 219h148zM567 710v-810h-72v810h72z" />
    <glyph glyph-name="copyright" unicode="&#xa9;" horiz-adv-x="856" 
d="M428 -13c-208 0 -368 158 -368 368s160 368 368 368s368 -158 368 -368s-160 -368 -368 -368zM428 40c178 0 306 137 306 315s-128 315 -306 315s-306 -137 -306 -315s128 -315 306 -315zM432 134c-126 0 -208 96 -208 221s82 221 208 221c84 0 141 -38 176 -107l-60 -28
c-31 53 -64 74 -115 74c-84 0 -137 -69 -137 -160s53 -159 137 -159c55 0 85 20 118 83l60 -30c-40 -79 -90 -115 -179 -115z" />
    <glyph glyph-name="registered" unicode="&#xae;" horiz-adv-x="556" 
d="M278 280c-125 0 -221 95 -221 221s96 221 221 221s221 -95 221 -221s-96 -221 -221 -221zM278 318c103 0 178 79 178 183s-75 183 -178 183c-105 0 -178 -79 -178 -183s73 -183 178 -183zM192 380v249h103c47 0 80 -34 80 -78c0 -33 -19 -59 -49 -71l61 -100h-50l-56 95
h-43v-95h-46zM238 513h48c30 0 44 14 44 38c0 21 -14 37 -44 37h-48v-75z" />
    <glyph glyph-name="uni2117" unicode="&#x2117;" horiz-adv-x="856" 
d="M428 -13c-208 0 -368 158 -368 368s160 368 368 368s368 -158 368 -368s-160 -368 -368 -368zM428 40c178 0 306 137 306 315s-128 315 -306 315s-306 -137 -306 -315s128 -315 306 -315zM295 148v414h167c79 0 133 -55 133 -129c0 -86 -54 -123 -133 -123h-102v-162h-65
zM360 364h87c58 0 84 27 84 70c0 41 -26 70 -84 70h-87v-140z" />
    <glyph glyph-name="section" unicode="&#xa7;" 
d="M441 194c47 -24 67 -57 67 -110c0 -94 -87 -159 -211 -159c-90 0 -153 22 -226 79l46 59c73 -55 117 -67 180 -67c78 0 129 36 129 85c0 50 -52 62 -155 85c-144 31 -219 70 -219 164c0 62 37 101 97 125c-47 24 -67 57 -67 110c0 94 87 159 211 159
c90 0 153 -22 226 -79l-46 -59c-73 54 -117 67 -180 67c-78 0 -129 -37 -129 -86s52 -62 155 -85c144 -31 219 -69 219 -163c0 -62 -37 -102 -97 -125zM136 334c0 -63 79 -80 171 -100c12 -2 23 -5 33 -7c64 11 114 39 114 88c0 62 -79 79 -171 98l-36 9
c-62 -12 -111 -39 -111 -88z" />
    <glyph glyph-name="trademark" unicode="&#x2122;" horiz-adv-x="955" 
d="M373 710v-54h-136v-333h-64v333h-136v54h336zM881 710v-387h-59v310l-127 -310h-57l-131 306v-306h-60v387h88l132 -313l125 313h89z" />
    <glyph glyph-name="degree" unicode="&#xb0;" horiz-adv-x="408" 
d="M204 439c-80 0 -144 60 -144 142c0 81 64 141 144 141s144 -60 144 -141c0 -82 -64 -142 -144 -142zM204 497c48 0 82 35 82 84c0 48 -34 83 -82 83c-49 0 -83 -35 -83 -83c0 -49 34 -84 83 -84z" />
    <glyph glyph-name="uni2116" unicode="&#x2116;" horiz-adv-x="1098" 
d="M897 332c-105 0 -185 74 -185 192c0 117 80 192 185 192c104 0 184 -75 184 -192c0 -118 -78 -192 -184 -192zM533 386v324h90v-710h-101l-197 323c-57 94 -111 182 -158 266c4 -85 4 -176 4 -270v-319h-90v710h102l200 -328c56 -94 109 -179 154 -263
c-3 85 -4 173 -4 267zM897 650c-60 0 -109 -48 -109 -126s49 -126 109 -126s109 48 109 126s-49 126 -109 126zM731 202v68h332v-68h-332z" />
    <glyph glyph-name="asciicircum" unicode="^" 
d="M335 710l199 -430h-76l-163 353l-162 -353h-77l200 430h79z" />
    <glyph glyph-name="dagger" unicode="&#x2020;" 
d="M550 442v-77h-210v-562h-87v562h-210v77h210v268h87v-268h210z" />
    <glyph glyph-name="daggerdbl" unicode="&#x2021;" 
d="M550 415h-210v-230h210v-77h-210v-305h-87v305h-210v77h210v230h-210v77h210v218h87v-218h210v-77z" />
    <glyph glyph-name="registered.ss03" horiz-adv-x="856" 
d="M428 723c208 0 368 -158 368 -368s-160 -368 -368 -368s-368 158 -368 368s160 368 368 368zM428 670c-178 0 -306 -137 -306 -315s128 -315 306 -315s306 137 306 315s-128 315 -306 315zM452 567c79 0 133 -55 133 -129c0 -54 -30 -95 -81 -114l106 -171h-73l-98 162
h-89v-162h-65v414h167zM437 509h-87v-140h87c58 0 84 27 84 70c0 41 -26 70 -84 70z" />
    <glyph glyph-name="uni0326" unicode="&#x326;" horiz-adv-x="0" 
d="M-100 -73v-86l-57 -94h-48l52 94h-47v86h100z" />
    <glyph glyph-name="uni0326.alt" horiz-adv-x="0" 
d="M-205 587v88l57 100h48l-51 -100h47v-88h-101z" />
    <glyph glyph-name="uni0326.ss02" horiz-adv-x="0" 
d="M-154 -69c35 0 65 -24 65 -71c0 -61 -45 -113 -113 -113v36c24 2 57 17 65 53c-5 -2 -11 -3 -17 -3c-33 0 -54 18 -54 48s25 50 54 50z" />
    <glyph glyph-name="uni0326.alt.ss02" horiz-adv-x="0" 
d="M-150 685c33 0 54 -19 54 -48c0 -30 -25 -51 -55 -51c-34 0 -64 24 -64 72c0 60 44 113 113 112v-35c-24 -2 -57 -18 -66 -53c6 2 12 3 18 3z" />
    <glyph glyph-name="acute" unicode="&#xb4;" horiz-adv-x="341" 
d="M264 716l-92 -144h-76l72 144h96z" />
    <glyph glyph-name="caron.alt" horiz-adv-x="296" 
d="M209 710l-61 -198h-55l30 198h86z" />
    <glyph glyph-name="breve" unicode="&#x2d8;" horiz-adv-x="490" 
d="M245 571c85 0 143 50 143 131h-68c0 -42 -21 -78 -75 -78s-76 36 -76 78h-68c0 -81 58 -131 144 -131z" />
    <glyph glyph-name="caron" unicode="&#x2c7;" horiz-adv-x="488" 
d="M398 716l-100 -144h-108l-100 144h74l80 -102l80 102h74z" />
    <glyph glyph-name="cedilla" unicode="&#xb8;" horiz-adv-x="413" 
d="M213 -67c63 3 107 -29 107 -78c0 -53 -43 -90 -105 -90c-40 0 -74 14 -108 36l25 41c31 -17 52 -27 81 -27c30 0 53 13 53 39c0 24 -25 37 -57 37c-9 0 -21 -1 -29 -3l-28 27l49 104l43 -19z" />
    <glyph glyph-name="circumflex" unicode="&#x2c6;" horiz-adv-x="467" 
d="M315 572l-80 101l-80 -101h-74l100 144h108l100 -144h-74z" />
    <glyph glyph-name="dieresis" unicode="&#xa8;" horiz-adv-x="461" 
d="M184 692v-103h-84v103h84zM361 692v-103h-84v103h84z" />
    <glyph glyph-name="dotaccent" unicode="&#x2d9;" horiz-adv-x="286" 
d="M186 692v-103h-86v103h86z" />
    <glyph glyph-name="grave" unicode="`" horiz-adv-x="341" 
d="M77 716h96l72 -144h-76z" />
    <glyph glyph-name="hungarumlaut" unicode="&#x2dd;" horiz-adv-x="507" 
d="M257 716l-93 -145h-66l72 145h87zM412 716l-94 -145h-67l74 145h87z" />
    <glyph glyph-name="macron" unicode="&#xaf;" horiz-adv-x="468" 
d="M374 660v-66h-279v66h279z" />
    <glyph glyph-name="ogonek" unicode="&#x2db;" horiz-adv-x="358" 
d="M231 23l39 -23c-58 -40 -80 -77 -80 -110c0 -28 20 -42 51 -42c11 0 19 1 26 3v-54c-11 -5 -26 -6 -38 -6c-61 0 -101 30 -101 84c0 50 29 99 103 148z" />
    <glyph glyph-name="ring" unicode="&#x2da;" horiz-adv-x="426" 
d="M213 767c59 0 107 -46 107 -104c0 -57 -48 -104 -107 -104c-60 0 -107 47 -107 104c0 58 47 104 107 104zM213 724c-34 0 -60 -25 -60 -61s26 -61 60 -61s59 25 59 61s-25 61 -59 61z" />
    <glyph glyph-name="dieresis.ss02" horiz-adv-x="461" 
d="M142 588c-31 0 -55 25 -55 55c0 29 24 54 55 54c30 0 55 -25 55 -54c0 -30 -25 -55 -55 -55zM320 588c-30 0 -55 25 -55 55c0 29 25 54 55 54c31 0 55 -25 55 -54c0 -30 -24 -55 -55 -55z" />
    <glyph glyph-name="dotaccent.ss02" horiz-adv-x="286" 
d="M143 585c-33 0 -57 25 -57 56s24 56 57 56c32 0 56 -25 56 -56s-24 -56 -56 -56z" />
    <glyph glyph-name="tilde" unicode="&#x2dc;" horiz-adv-x="520" 
d="M193 696c58 0 96 -53 137 -53c25 0 32 24 32 53h54c0 -68 -31 -111 -81 -111c-52 0 -98 52 -142 52c-24 0 -34 -24 -34 -51h-55c0 68 36 110 89 110z" />
    <glyph glyph-name="uniE000" unicode="&#xe000;" horiz-adv-x="1792" 
d="M315 0h-265v230h13c51 -136 149 -217 250 -217c86 0 130 65 130 130c0 30 -10 65 -38 94c-76 74 -204 58 -290 144c-34 34 -58 82 -58 144c0 101 68 185 175 185h243v-197h-10c-13 23 -36 66 -76 106c-47 48 -98 78 -158 78c-43 0 -114 -21 -114 -109
c0 -29 11 -65 34 -88c77 -77 221 -58 317 -155c32 -31 50 -80 50 -135c0 -132 -82 -210 -203 -210zM503 710h375c196 0 324 -164 324 -367c0 -160 -90 -343 -333 -343h-365v13h20c74 0 109 29 109 99v486c0 69 -35 99 -109 99h-21v13zM1149 13h16c75 0 110 30 110 99v486
c0 70 -35 99 -110 99h-17v13h384v-13h-27c-74 0 -108 -29 -108 -99v-486c0 -73 18 -99 75 -99h66c63 0 98 32 192 231h12v-244h-593v13zM1654 697v13h-55v-13h20v-54h15v54h20zM1742 643v67h-22l-17 -45l-16 45h-23v-67h15v49l18 -49h11l19 49v-49h15zM862 13
c158 0 210 153 210 316c0 272 -106 368 -213 368h-65c-31 0 -39 -12 -39 -46v-554c0 -54 37 -84 107 -84z" />
    <glyph glyph-name="uniE001" unicode="&#xe001;" horiz-adv-x="1011" 
d="M313 -39c62 -29 127 -43 192 -43c171 0 336 97 413 263c29 62 43 127 43 191c0 171 -98 336 -263 413c-62 29 -128 43 -192 43c-172 0 -336 -97 -413 -263c-29 -62 -43 -127 -43 -191c0 -171 98 -336 263 -413zM692 773c160 -75 254 -234 254 -401
c0 -62 -13 -126 -41 -186c-74 -160 -234 -254 -400 -254c-63 0 -126 13 -186 41c-161 75 -255 234 -255 401c0 62 13 126 41 186c75 160 234 254 401 254c62 0 126 -13 186 -41zM535 784l-8 -64l22 -3l3 23l22 -3l2 16l-22 3l1 9l23 -2l2 15zM429 734l1 -11
c3 -3 10 -8 22 -8c24 0 31 10 33 16l-2 18c-3 4 -10 7 -27 8h-2c-4 0 -6 1 -7 2v4c0 1 2 2 5 3c2 0 5 -1 6 -2v-4l23 3l-2 11c-2 3 -8 9 -21 9c-23 0 -32 -11 -34 -16l3 -18c3 -4 9 -8 27 -8h2c3 0 6 -1 6 -2l1 -5c-1 -1 -3 -2 -5 -3c-3 0 -6 1 -6 2l-1 4zM617 723l4 -23
l17 -6l4 12l-4 14c4 1 7 3 10 5l7 21c-2 7 -7 13 -16 16l-35 12l-20 -62l22 -7l6 20zM385 720l17 -16l18 6l-4 12l-12 8c3 3 4 7 5 11l-7 20c-3 3 -8 5 -14 5c-2 0 -5 0 -8 -1l-35 -12l21 -61l21 7l-6 20zM624 736l-7 3l4 13l7 -3c3 -1 4 -2 5 -4l-3 -8c-1 -1 -3 -1 -6 -1z
M384 736l-8 -3l-4 12l7 3c3 1 5 0 6 0l3 -9c-1 -1 -2 -3 -4 -3zM282 720l32 -57l41 23l-7 14l-22 -12l-4 8l19 11l-7 14l-20 -11l-4 7l21 12l-8 14zM675 735l-20 -35c0 -7 3 -17 18 -26c8 -4 14 -5 20 -5c5 0 9 1 12 4l20 35c0 7 -3 17 -19 26c-7 4 -14 5 -19 5
s-9 -1 -12 -4zM703 714l-15 -26c-1 -1 -4 -1 -7 1c-2 1 -4 3 -4 4l15 27c1 1 4 0 6 -1c3 -1 5 -3 5 -5zM244 670l32 -37l17 14l-31 38l11 9l-10 12l-40 -33l10 -12zM753 704l-43 -48l15 -14l22 25l2 -2l-8 -23l7 -7l23 10l1 -1l-22 -25l16 -14l43 48l-21 19l-20 -11l-2 2
l8 22zM371 84c43 -20 89 -30 134 -30c120 0 235 68 289 184c20 44 30 89 30 134c0 121 -68 235 -184 290c-43 20 -89 30 -134 30c-120 0 -235 -68 -289 -184c-20 -43 -30 -89 -30 -134c0 -120 68 -235 184 -290zM634 649c111 -52 177 -161 177 -276c0 -43 -10 -87 -29 -129
c-52 -111 -162 -176 -277 -176c-43 0 -87 10 -128 29c-111 52 -177 162 -177 277c0 43 10 87 29 128c52 111 162 176 277 176c43 0 87 -10 128 -29zM194 618l38 -32l14 18l-37 31l9 12l-12 10l-33 -40l12 -11zM808 584l-9 -5c-1 -2 -3 -6 -3 -11s2 -11 6 -19
c9 -16 20 -18 25 -18l16 9c1 2 2 5 2 8c0 5 -2 11 -5 20l-1 2c-1 3 -1 6 -1 7l4 2c1 0 3 -1 4 -4c2 -2 2 -5 1 -6l-4 -2l12 -19l9 5c2 3 3 6 3 11s-1 12 -6 19c-9 15 -20 18 -25 18l-15 -9c-1 -2 -2 -5 -2 -9s1 -10 5 -19l1 -2c1 -3 1 -6 0 -7l-4 -2c-1 0 -3 1 -4 4
c-2 2 -2 5 -1 6l4 2zM137 557l56 -32l23 41l-13 8l-12 -22l-8 5l11 20l-14 7l-11 -19l-7 4l12 21l-14 8zM510 516c3 7 5 15 5 21c0 13 -5 21 -17 21c-10 0 -21 -8 -28 -23c-3 -7 -5 -15 -5 -21c0 -13 5 -21 16 -21c10 0 22 9 29 23zM874 532l-47 -25l8 -26l24 1l1 -1
l-21 -12l7 -26l53 6l12 4l-6 18l-36 -5v1l32 18l-5 16l-37 -3v2l33 14l-6 21zM113 498l61 -23l14 39l-15 5l-6 -17l-46 17zM652 450c3 7 5 15 5 21c0 13 -5 21 -17 21c-10 0 -21 -8 -28 -23c-3 -7 -5 -15 -5 -21c0 -13 5 -21 17 -21c10 0 21 8 28 23zM140 425c1 2 1 4 1 6
c0 4 -2 8 -6 9c-2 1 -4 1 -6 1c-4 0 -8 -2 -10 -6c0 -1 -1 -3 -1 -5c0 -4 3 -9 7 -11c2 0 3 -1 5 -1c4 0 9 3 10 7zM914 426l-65 -5l4 -47l15 2l-1 24l9 1l1 -23l16 1l-1 23l8 1l2 -25l15 2zM612 271l15 -7c-28 -50 -81 -79 -136 -79c-22 0 -45 5 -66 15
c-57 26 -91 83 -91 142c0 18 3 36 10 54l15 -7c-5 -15 -8 -31 -8 -47c0 -52 30 -103 81 -127c19 -9 39 -13 59 -13c48 0 95 26 121 69zM96 322l65 4l-1 15l-35 -2v1l24 7l-1 8l-24 4v2l35 2l-1 15l-66 -4l2 -20l21 -4l1 -1l-22 -7zM917 355l-64 7l-4 -33v-3
c0 -11 5 -18 10 -22l40 -4c6 2 13 9 15 22zM865 331l1 7l33 -3l-1 -7c0 -3 -1 -5 -2 -5l-29 3c-1 1 -2 3 -2 5zM106 272l64 14l-7 29l-12 -3l3 -12l-52 -12zM905 274l-61 20l-14 -46l15 -4l7 23l9 -2l-7 -22l15 -5l7 22l8 -2l-7 -24l15 -4zM133 217l45 16c1 1 5 6 5 14
c0 2 -1 5 -2 9c-5 12 -14 15 -17 15l-44 -16c-2 -1 -5 -6 -5 -14c0 -2 0 -6 1 -9c5 -12 14 -15 17 -15zM131 242l33 12c1 0 3 -1 4 -3c0 -2 -1 -4 -1 -4l-34 -12c-1 0 -2 0 -3 2s0 4 1 5zM883 207l-57 30l-10 -18l25 -13l-1 -2h-32l-11 -21l57 -30l10 18l-25 13l1 2h32z
M153 158l58 32l-8 14l-24 -13l-3 7l23 13l-8 14l-57 -31l8 -15l21 12l4 -6l-22 -12zM188 110l52 39l-10 13l-14 -10l-3 -1l12 18l-8 11l-9 -7l-15 -24l-20 -2l-8 -6l7 -11l19 4v-1l-13 -10zM237 72l33 34c0 1 1 2 1 4c0 5 -2 11 -8 18c-8 8 -16 8 -20 7l-15 -15l11 -11l10 9
c0 1 2 1 4 -1c1 -1 1 -3 1 -4l-25 -25h-2c-4 0 -4 5 -3 5l8 9l-11 11l-14 -14c0 -4 0 -12 8 -20c9 -10 19 -8 22 -7zM800 118c1 1 1 3 1 4c0 4 -2 9 -7 11c-2 1 -3 1 -5 1c-4 0 -8 -3 -10 -7c-1 -1 -1 -3 -1 -4c0 -5 2 -9 6 -11c2 -1 3 -1 5 -1c4 0 9 3 11 7zM769 55l-39 53
l-12 -9l20 -28l-1 -1l-18 16l-6 -4l9 -23l-1 -1l-21 28l-13 -9l39 -53l16 12l-8 20l1 1l17 -14zM285 35l27 38v4c0 4 -2 11 -10 17c-11 8 -20 5 -22 3l-28 -38v-3c0 -4 2 -12 10 -17c11 -8 20 -5 23 -4zM269 54l21 29s2 1 4 0c2 -2 2 -4 2 -4l-21 -29c-1 -1 -3 -1 -5 0
c-1 1 -2 3 -1 4zM662 46l-9 14l-14 -7l5 -10l32 -45l23 11l-17 53l-4 10l-13 -7l5 -15zM325 17l25 46l-14 8l-25 -47l-9 5l-6 -12l32 -16l6 11zM398 21l4 13c0 4 -4 11 -15 15c-3 1 -6 2 -9 2c-5 0 -10 -3 -12 -4l-7 -20c0 -5 1 -10 12 -18h1c2 -2 3 -3 3 -5l-2 -5
c-1 -1 -2 -1 -3 -1c-3 0 -4 2 -4 3l2 6l-15 5l-4 -12c1 -4 4 -12 15 -16c3 -1 6 -1 8 -1c6 0 11 2 13 3l7 19c0 5 -2 10 -12 18l-1 1c-2 1 -3 3 -3 4l2 7c1 1 3 1 4 0c2 0 3 -1 3 -3l-2 -6zM648 -14l-19 63l-24 -8c-9 -3 -12 -9 -12 -13l14 -45c4 -4 10 -7 18 -4zM674 38
l7 -19l-2 -1l-11 17zM589 -31l-11 65l-30 -5l2 -13l14 3l2 -14l-13 -3l2 -12l13 2l3 -13l-14 -2l2 -13zM474 -38l9 65l-16 2l-4 -32l-1 1l-5 32l-18 2l-8 -65l16 -2l4 31h1l5 -32zM613 30l4 1l12 -38l-4 -1c-2 -1 -3 0 -4 1l-11 34c0 2 1 3 3 3zM512 -39v65l-17 1v-66h17z
" />
    <glyph glyph-name="uniE002" unicode="&#xe002;" 
d="M553 191c0 -104 -65 -174 -166 -188v-103h-64v100h-80v-100h-64v100h-110v680h110v100h64v-100h80v100h64v-105c84 -16 143 -72 143 -167c0 -74 -41 -126 -100 -148c74 -24 123 -83 123 -169zM159 607v-215h156c81 0 128 42 128 111s-46 104 -128 104h-156zM320 73
c96 0 144 47 144 123c0 75 -51 123 -143 123h-162v-246h161z" />
    </font>
</defs>
</svg>
