<?xml version="1.0" standalone="no"?>
<!DOCTYPE svg PUBLIC "-//W3C//DTD SVG 1.1//EN" "http://www.w3.org/Graphics/SVG/1.1/DTD/svg11.dtd" >
<svg xmlns="http://www.w3.org/2000/svg" xmlns:xlink="http://www.w3.org/1999/xlink" version="1.1">
<metadata>
Created by FontForge 20170924 at Mon Oct 20 21:45:47 2014
 By www-data
Copyright (c) 2014 Swiss Typefaces Sa`rl. All rights reserved.
</metadata>
<defs>
<font id="RomainHeadline" horiz-adv-x="744" >
  <font-face 
    font-family="Romain Headline"
    font-weight="400"
    font-stretch="normal"
    units-per-em="1000"
    panose-1="2 2 0 0 0 0 0 0 0 0"
    ascent="786"
    descent="-214"
    x-height="481"
    cap-height="817"
    bbox="-65 -346 1259 1101"
    underline-thickness="30"
    underline-position="-150"
    stemh="21"
    stemv="115"
    unicode-range="U+000D-FB06"
  />
<missing-glyph horiz-adv-x="697" 
d="M100 0v787h497v-787h-497zM112 777v-767h473v767h-473z" />
    <glyph glyph-name="f_f" unicode="ff" horiz-adv-x="668" 
d="M27 455v26h79v74c0 182 92 254 215 254c73 0 121 -24 145 -49c37 48 92 69 159 69c115 0 163 -57 163 -90c0 -25 -16 -36 -38 -36c-19 0 -38 11 -48 43c-14 45 -39 64 -80 64c-81 0 -113 -64 -113 -232v-97h165v-26h-165v-367c0 -55 22 -67 77 -67h25v-21h-276v21h25
c45 0 57 12 57 55v379h-219v-367c0 -55 22 -67 77 -67h25v-21h-276v21h25c45 0 57 12 57 55v379h-79zM198 558v-77h219v94c0 41 4 76 12 106c-11 6 -22 18 -28 39c-14 45 -39 70 -80 70c-81 0 -123 -64 -123 -232z" />
    <glyph glyph-name="f_i" unicode="fi" horiz-adv-x="610" 
d="M27 455v26h79v94c0 182 99 254 222 254c77 0 182 -37 182 -105c0 -26 -19 -48 -43 -48c-93 0 -24 134 -149 134c-81 0 -120 -64 -120 -232v-97h306v-405c0 -43 12 -55 57 -55h25v-21h-256v21h25c45 0 57 12 57 55v329c0 38 -10 50 -45 50h-169v-367c0 -55 22 -67 77 -67
h25v-21h-276v21h25c45 0 57 12 57 55v379h-79z" />
    <glyph glyph-name="f_f_i" unicode="ffi" horiz-adv-x="921" 
d="M27 455v26h79v74c0 182 92 254 215 254c77 0 125 -26 149 -53c40 51 101 73 169 73c77 0 182 -37 182 -105c0 -26 -19 -48 -43 -48c-93 0 -24 134 -149 134c-81 0 -120 -64 -120 -232v-97h306v-405c0 -43 12 -55 57 -55h25v-21h-256v21h25c45 0 57 12 57 55v329
c0 38 -10 50 -45 50h-169v-367c0 -55 22 -67 77 -67h25v-21h-276v21h25c45 0 57 12 57 55v379h-219v-367c0 -55 22 -67 77 -67h25v-21h-276v21h25c45 0 57 12 57 55v379h-79zM198 558v-77h219v94c0 40 5 75 14 105c-13 6 -23 18 -30 40c-14 45 -39 70 -80 70
c-81 0 -123 -64 -123 -232z" />
    <glyph glyph-name="f_l" unicode="fl" horiz-adv-x="611" 
d="M27 455v26h79v94c0 182 82 254 205 254c33 0 74 -4 103 -12h96v-741c0 -43 12 -55 57 -55h25v-21h-256v21h25c45 0 57 12 57 55v635c-64 59 -36 99 -107 99c-81 0 -113 -64 -113 -232v-97h145v-26h-145v-367c0 -55 22 -67 77 -67h25v-21h-276v21h25c45 0 57 12 57 55v379
h-79z" />
    <glyph glyph-name="f_f_l" unicode="ffl" horiz-adv-x="921" 
d="M27 455v26h79v74c0 182 92 254 215 254c72 0 119 -23 144 -48c36 47 90 68 156 68c33 0 74 -4 103 -12h96v-741c0 -43 12 -55 57 -55h25v-21h-256v21h25c45 0 57 12 57 55v635c-64 59 -36 99 -107 99c-81 0 -113 -64 -113 -232v-97h145v-26h-145v-367
c0 -55 22 -67 77 -67h25v-21h-276v21h25c45 0 57 12 57 55v379h-218v-367c0 -55 22 -67 77 -67h25v-21h-276v21h25c45 0 57 12 57 55v379h-79zM198 558v-77h218v94c0 40 4 76 12 106c-11 6 -21 18 -27 38c-14 45 -39 71 -80 71c-81 0 -123 -64 -123 -232z" />
    <glyph glyph-name=".notdef" horiz-adv-x="697" 
d="M100 0v787h497v-787h-497zM112 777v-767h473v767h-473z" />
    <glyph glyph-name=".null" horiz-adv-x="200" 
 />
    <glyph glyph-name="CR" unicode="&#xd;" horiz-adv-x="200" 
 />
    <glyph glyph-name="space" unicode=" " horiz-adv-x="200" 
 />
    <glyph glyph-name="exclam" unicode="!" horiz-adv-x="211" 
d="M44 816c40 15 81 15 121 0c-21 -213 -38 -425 -52 -636h-18c-14 212 -30 424 -51 636zM40 51c0 36 29 65 65 65s65 -29 65 -65s-29 -65 -65 -65s-65 29 -65 65z" />
    <glyph glyph-name="quotedbl" unicode="&#x22;" horiz-adv-x="339" 
d="M230 560l-34 220h93l-35 -220h-24zM84 560l-34 220h93l-35 -220h-24z" />
    <glyph glyph-name="numbersign" unicode="#" horiz-adv-x="846" 
d="M124 512l20 43h185l105 262h48l-105 -262h222l105 262h48l-105 -262h171l-20 -43h-169l-95 -237h192l-20 -43h-189l-93 -232h-48l93 232h-222l-93 -232h-48l93 232h-167l20 43h164l95 237h-187zM359 512l-95 -237h222l95 237h-222z" />
    <glyph glyph-name="dollar" unicode="$" horiz-adv-x="663" 
d="M290 -103v89c-96 3 -177 26 -240 70v138h10c63 -160 150 -172 230 -172v365l-60 21c-122 42 -171 118 -171 209c0 134 98 210 231 217v88h42v-87c89 -3 146 -23 200 -55v-122h-10c-42 107 -111 142 -190 146v-317l21 -7c98 -34 234 -83 234 -245
c0 -144 -97 -241 -255 -248v-90h-42zM490 188c0 78 -41 143 -158 185v-350c106 12 158 81 158 165zM154 662c0 -68 26 -121 125 -156l11 -4v300c-79 -11 -136 -70 -136 -140z" />
    <glyph glyph-name="percent" unicode="%" horiz-adv-x="902" 
d="M758 817l-542 -817h-48l540 817h50zM409 599c0 -101 -76 -181 -180 -181c-106 0 -179 85 -179 181c0 98 83 181 179 181c111 0 180 -80 180 -181zM361 599c0 78 -56 144 -132 144c-65 0 -129 -58 -129 -144c0 -82 55 -143 129 -143c84 0 132 71 132 143zM844 167
c0 -101 -76 -181 -180 -181c-106 0 -179 85 -179 181c0 98 83 181 179 181c111 0 180 -80 180 -181zM796 167c0 78 -56 144 -132 144c-65 0 -129 -58 -129 -144c0 -82 55 -143 129 -143c84 0 132 71 132 143z" />
    <glyph glyph-name="ampersand" unicode="&#x26;" horiz-adv-x="873" 
d="M672 335l-56 -86l151 -172c25 -28 57 -50 125 -56v-21h-298v21c73 0 79 22 58 45l-90 99c-87 -122 -164 -179 -282 -179c-172 0 -243 125 -243 221c0 126 94 227 254 258c-78 87 -100 155 -100 205c0 99 73 162 195 162c93 0 168 -47 168 -138c0 -76 -79 -161 -157 -196
l200 -228l39 68c52 91 47 120 -22 125v18h216v-18c-48 -3 -82 -10 -158 -128zM317 38c76 0 151 43 227 147l-240 267c-102 -41 -156 -119 -156 -223c0 -122 73 -191 169 -191zM368 531l19 -22c57 36 107 113 107 185c0 61 -33 119 -101 119c-69 0 -104 -53 -104 -105
c0 -67 26 -117 79 -177z" />
    <glyph glyph-name="quotesingle" unicode="'" horiz-adv-x="193" 
d="M85 560l-34 220h93l-35 -220h-24z" />
    <glyph glyph-name="parenleft" unicode="(" horiz-adv-x="340" 
d="M277 823h54c-141 -136 -212 -374 -212 -555c0 -192 76 -428 221 -561h-55c-136 125 -214 357 -214 560s75 428 206 556z" />
    <glyph glyph-name="parenright" unicode=")" horiz-adv-x="344" 
d="M9 823h54c131 -128 206 -353 206 -556s-78 -435 -214 -560h-55c145 133 221 369 221 561c0 181 -71 419 -212 555z" />
    <glyph glyph-name="asterisk" unicode="*" horiz-adv-x="368" 
d="M203 805v-124l109 64l22 -37l-109 -62l112 -62l-22 -37l-112 65v-129h-41v120l-104 -61l-22 37l108 62l-111 62l22 37l107 -63v128h41z" />
    <glyph glyph-name="plus" unicode="+" horiz-adv-x="554" 
d="M252 488h46v-212h216v-42h-216v-217h-46v217h-212v42h212v212z" />
    <glyph glyph-name="comma" unicode="," horiz-adv-x="242" 
d="M62 51c0 36 24 65 65 65c43 0 65 -33 65 -75c0 -81 -74 -146 -139 -173l-3 7c32 19 73 70 73 111c-34 2 -61 30 -61 65z" />
    <glyph glyph-name="hyphen" unicode="-" horiz-adv-x="394" 
d="M50 234v42h294v-42h-294z" />
    <glyph glyph-name="period" unicode="." horiz-adv-x="228" 
d="M49 51c0 36 29 65 65 65s65 -29 65 -65s-29 -65 -65 -65s-65 29 -65 65z" />
    <glyph glyph-name="slash" unicode="/" horiz-adv-x="389" 
d="M389 832l-343 -865h-46l343 865h46z" />
    <glyph glyph-name="zero" unicode="0" horiz-adv-x="690" 
d="M524 360c0 262 -92 355 -179 355s-179 -93 -179 -355s92 -350 179 -350s179 88 179 350zM630 359c0 -240 -124 -373 -285 -373c-173 0 -285 135 -285 375s123 378 287 378c183 0 283 -140 283 -380z" />
    <glyph glyph-name="one" unicode="1" horiz-adv-x="366" 
d="M150 112v536c-37 -6 -92 -1 -130 5v11c65 12 139 36 206 75h16v-625c0 -71 14 -93 81 -93h33v-21h-331v21h34c68 0 91 19 91 91z" />
    <glyph glyph-name="two" unicode="2" horiz-adv-x="592" 
d="M4 0l-3 6c185 161 421 361 421 538c0 90 -48 142 -136 142c-93 0 -161 -72 -168 -163l-17 1c-1 119 90 215 232 215c107 0 197 -61 197 -171c0 -183 -216 -359 -421 -487h244c120 0 163 11 188 133h11v-214h-548z" />
    <glyph glyph-name="three" unicode="3" horiz-adv-x="584" 
d="M271 687c-68 0 -138 -36 -165 -109l-13 4c33 123 133 157 215 157c111 0 177 -55 177 -130c0 -84 -79 -153 -186 -191c154 -12 226 -100 226 -203c0 -124 -90 -229 -264 -229c-105 0 -221 59 -221 126c0 24 15 40 43 40c32 0 44 -32 56 -62c18 -45 55 -82 121 -82
c101 0 164 84 164 182c0 113 -80 173 -180 173c-22 0 -44 -3 -66 -10v14c131 45 209 150 209 224c0 61 -43 96 -116 96z" />
    <glyph glyph-name="four" unicode="4" horiz-adv-x="647" 
d="M439 222v-108c0 -71 14 -93 81 -93h33v-21h-331v21h34c68 0 91 19 91 91v110h-345l-3 7l433 531h7v-463h48c90 0 111 36 125 113h10v-188h-183zM93 297h254v307z" />
    <glyph glyph-name="five" unicode="5" horiz-adv-x="563" 
d="M504 769l-22 -138h-321l-42 -222c41 33 104 56 171 56c137 0 228 -88 228 -217c0 -153 -114 -262 -269 -262c-106 0 -224 66 -224 133c0 27 17 43 43 43c40 0 51 -42 68 -78s45 -73 116 -73c90 0 162 80 162 205c0 100 -58 178 -160 178c-59 0 -133 -25 -175 -77l-7 2
l74 401h249c56 0 84 13 99 49h10z" />
    <glyph glyph-name="six" unicode="6" horiz-adv-x="642" 
d="M509 764l6 -18c-218 -80 -308 -207 -337 -382c23 56 85 122 185 122c94 0 224 -60 224 -246c0 -143 -116 -254 -260 -254c-170 0 -262 126 -262 300c0 257 213 428 444 478zM336 442c-107 0 -171 -96 -171 -211c0 -119 63 -220 156 -220c100 0 162 94 162 225
c0 120 -59 206 -147 206z" />
    <glyph glyph-name="seven" unicode="7" horiz-adv-x="532" 
d="M449 631h-287c-75 0 -112 -31 -125 -102h-12v191h484l9 -9l-447 -813l-83 46z" />
    <glyph glyph-name="eight" unicode="8" horiz-adv-x="593" 
d="M84 565c0 87 69 179 217 179c131 0 207 -64 207 -143c0 -76 -62 -138 -177 -182l55 -34c103 -65 154 -114 154 -202c0 -87 -78 -197 -249 -197c-128 0 -244 61 -244 184c0 87 64 153 180 193l-14 9c-84 52 -129 116 -129 193zM130 179c0 -112 69 -166 163 -166
c97 0 148 57 148 135c0 46 -13 90 -114 153l-87 54c-73 -44 -110 -111 -110 -176zM429 591c0 69 -39 128 -127 128c-76 0 -127 -51 -127 -123c0 -74 61 -117 136 -164l7 -5c63 39 111 88 111 164z" />
    <glyph glyph-name="nine" unicode="9" horiz-adv-x="642" 
d="M143 -39l-6 18c218 80 308 207 337 382c-23 -56 -85 -122 -185 -122c-94 0 -224 60 -224 246c0 143 116 254 260 254c170 0 262 -121 262 -295c0 -255 -213 -431 -444 -483zM316 283c107 0 171 96 171 211c0 119 -63 220 -156 220c-100 0 -162 -94 -162 -225
c0 -120 59 -206 147 -206z" />
    <glyph glyph-name="colon" unicode=":" horiz-adv-x="230" 
d="M50 439c0 36 29 65 65 65s65 -29 65 -65s-29 -65 -65 -65s-65 29 -65 65zM50 51c0 36 29 65 65 65s65 -29 65 -65s-29 -65 -65 -65s-65 29 -65 65z" />
    <glyph glyph-name="semicolon" unicode=";" horiz-adv-x="242" 
d="M59 438c0 36 29 65 65 65s65 -29 65 -65s-29 -65 -65 -65s-65 29 -65 65zM62 51c0 36 24 65 65 65c43 0 65 -33 65 -75c0 -81 -74 -146 -139 -173l-3 7c32 19 73 70 73 111c-34 2 -61 30 -61 65z" />
    <glyph glyph-name="less" unicode="&#x3c;" horiz-adv-x="555" 
d="M50 232v43l505 228v-51l-448 -198l448 -214v-53z" />
    <glyph glyph-name="equal" unicode="=" horiz-adv-x="554" 
d="M50 143v42h454v-42h-454zM50 323v42h454v-42h-454z" />
    <glyph glyph-name="greater" unicode="&#x3e;" horiz-adv-x="555" 
d="M505 275v-43l-505 -245v53l448 214l-448 198v51z" />
    <glyph glyph-name="question" unicode="?" horiz-adv-x="385" 
d="M182 188l-7 -5c-12 13 -67 52 -67 131c0 160 165 246 165 395c0 43 -20 102 -72 102c-79 0 -71 -97 -128 -97c-22 0 -41 14 -41 43c3 42 85 72 162 72c89 0 171 -45 171 -142c0 -161 -199 -274 -199 -437c0 -34 10 -54 16 -62zM110 51c0 36 29 65 65 65s65 -29 65 -65
s-29 -65 -65 -65s-65 29 -65 65z" />
    <glyph glyph-name="at" unicode="@" horiz-adv-x="953" 
d="M696 132c-126 0 -175 72 -168 167c-56 -101 -119 -123 -174 -123c-87 0 -119 78 -119 140c0 181 124 319 265 319c26 0 61 -7 89 -25l9 33h90l-51 -275c-23 -124 -7 -193 83 -193c87 0 172 101 172 257c0 225 -152 362 -387 362c-225 0 -406 -178 -406 -415
c0 -233 170 -377 397 -377c38 0 81 6 118 14l8 -36c-42 -11 -92 -16 -137 -16c-250 0 -434 161 -434 414c0 255 198 455 461 455c219 0 426 -124 426 -401c0 -173 -102 -300 -242 -300zM532 327c0 1 0 3 1 5l36 190c1 64 -26 94 -66 94c-74 0 -163 -176 -163 -289
c0 -61 29 -91 69 -91c24 0 86 14 123 91z" />
    <glyph glyph-name="A" unicode="A" horiz-adv-x="843" 
d="M136 145l282 696h13l309 -761c16 -38 39 -59 79 -59h24v-21h-285v21h22c40 0 67 12 52 49l-90 223h-304l-55 -134c-50 -122 -34 -138 39 -138h17v-21h-239v21h10c57 0 82 16 126 124zM392 667l-126 -306h249z" />
    <glyph glyph-name="B" unicode="B" horiz-adv-x="751" 
d="M257 61c0 -30 13 -34 70 -34h41c136 0 208 76 208 199c0 118 -59 187 -272 187h-47v-352zM257 788v-356h34c180 0 234 83 234 186c0 122 -68 170 -210 170h-58zM55 817h284c169 0 299 -42 299 -192c0 -102 -84 -178 -194 -193c144 -10 244 -76 244 -206
c0 -182 -173 -226 -292 -226h-341v21h36c45 0 63 12 63 55v665c0 43 -18 55 -63 55h-36v21z" />
    <glyph glyph-name="C" unicode="C" horiz-adv-x="863" 
d="M813 221v-145c-90 -68 -212 -90 -314 -90c-304 0 -453 204 -453 421c0 261 196 426 453 426c116 0 218 -27 307 -77v-148h-11c-62 142 -192 192 -298 192c-166 0 -330 -117 -330 -396c0 -261 160 -385 328 -385c113 0 241 32 307 202h11z" />
    <glyph glyph-name="D" unicode="D" horiz-adv-x="918" 
d="M258 787v-702c0 -49 28 -56 134 -56h18c178 0 343 102 343 387c0 296 -212 371 -402 371h-93zM55 817h326c319 0 491 -151 491 -403c0 -245 -169 -414 -438 -414h-379v21h36c45 0 63 12 63 55v665c0 43 -18 55 -63 55h-36v21z" />
    <glyph glyph-name="E" unicode="E" 
d="M154 76v665c0 43 -18 55 -63 55h-36v21h598v-170h-10c-15 92 -69 133 -191 133h-194v-328h130c68 0 132 7 147 102h10v-239h-10c-16 96 -79 102 -147 102h-130v-327c0 -44 26 -53 64 -53h182c106 0 160 53 175 149h10v-186h-634v21h36c45 0 63 12 63 55z" />
    <glyph glyph-name="F" unicode="F" horiz-adv-x="648" 
d="M258 780v-328h125c68 0 132 7 147 102h10v-239h-10c-16 96 -79 102 -147 102h-125v-333c0 -51 25 -63 74 -63h46v-21h-323v21h36c45 0 63 12 63 55v665c0 43 -18 55 -63 55h-36v21h593v-170h-10c-15 92 -64 133 -191 133h-189z" />
    <glyph glyph-name="G" unicode="G" horiz-adv-x="921" 
d="M718 147v124c0 22 -18 34 -40 34h-40v21h263v-21h-39c-22 0 -40 -12 -40 -34v-115c0 -103 -146 -170 -319 -170c-307 0 -457 204 -457 421c0 261 206 426 453 426c116 0 218 -27 307 -77v-115h-6c-66 128 -197 159 -303 159c-166 0 -330 -117 -330 -396
c0 -261 160 -385 328 -385c83 0 223 8 223 128z" />
    <glyph glyph-name="H" unicode="H" horiz-adv-x="952" 
d="M694 76v338h-436v-338c0 -43 18 -55 63 -55h36v-21h-302v21h36c45 0 63 12 63 55v665c0 43 -18 55 -63 55h-36v21h302v-21h-36c-45 0 -63 -12 -63 -55v-288h436v288c0 43 -18 55 -63 55h-36v21h302v-21h-36c-45 0 -63 -12 -63 -55v-665c0 -43 18 -55 63 -55h36v-21h-302
v21h36c45 0 63 12 63 55z" />
    <glyph glyph-name="I" unicode="I" horiz-adv-x="412" 
d="M154 76v665c0 43 -18 55 -63 55h-36v21h302v-21h-36c-45 0 -63 -12 -63 -55v-665c0 -43 18 -55 63 -55h36v-21h-302v21h36c45 0 63 12 63 55z" />
    <glyph glyph-name="J" unicode="J" horiz-adv-x="483" 
d="M240 298v443c0 43 -23 55 -73 55h-36v21h312v-21h-36c-45 0 -63 -12 -63 -55v-443c0 -152 -15 -312 -186 -312c-105 0 -150 57 -150 90c0 25 18 40 41 40c24 0 38 -13 48 -45c14 -45 30 -66 63 -66c70 0 80 82 80 293z" />
    <glyph glyph-name="K" unicode="K" horiz-adv-x="808" 
d="M154 76v665c0 43 -18 55 -63 55h-36v21h302v-21h-36c-45 0 -63 -12 -63 -55v-325l255 253c92 92 104 127 -1 127v21h262v-21c-84 0 -129 -46 -222 -136l-205 -200l357 -407c22 -26 64 -32 104 -32v-21h-303v21c61 0 87 1 59 34l-306 352v-331c0 -43 18 -55 63 -55h36v-21
h-302v21h36c45 0 63 12 63 55z" />
    <glyph glyph-name="L" unicode="L" 
d="M154 76v665c0 43 -18 55 -63 55h-36v21h302v-21h-36c-45 0 -63 -12 -63 -55v-647c0 -49 26 -58 69 -58h163c128 0 174 64 189 160h10v-196h-634v21h36c45 0 63 12 63 55z" />
    <glyph glyph-name="M" unicode="M" horiz-adv-x="1072" 
d="M905 717l23 -641c2 -43 18 -55 63 -55h36v-21h-303v21h36c45 0 64 12 63 55l-22 652l-283 -728h-11l-289 695l-22 -572c-3 -73 10 -102 70 -102h38v-21h-259v21h36c51 0 71 28 74 103l24 593c4 64 -54 78 -96 78v22h206l260 -637l242 637h210v-22c-42 0 -98 -14 -96 -78z
" />
    <glyph glyph-name="N" unicode="N" horiz-adv-x="913" 
d="M757 189v507c0 70 -12 100 -72 100h-38v21h261v-21h-30c-57 0 -79 -29 -79 -100v-710h-9l-584 691v-556c0 -70 12 -100 72 -100h38v-21h-261v21h30c57 0 79 29 79 100v586c0 64 -66 88 -108 88v22h182z" />
    <glyph glyph-name="O" unicode="O" horiz-adv-x="957" 
d="M790 407c0 284 -152 399 -311 399s-312 -115 -312 -399c0 -282 153 -392 312 -392s311 110 311 392zM911 404c0 -259 -192 -418 -432 -418c-241 0 -433 165 -433 424c0 260 192 425 433 425c240 0 432 -172 432 -431z" />
    <glyph glyph-name="P" unicode="P" horiz-adv-x="670" 
d="M254 785v-390c34 -8 64 -10 96 -10c113 0 209 64 209 208c0 124 -68 195 -214 195c-30 0 -53 -1 -91 -3zM51 817h299c181 0 320 -57 320 -221c0 -153 -102 -246 -263 -246c-54 0 -105 8 -153 32v-298c0 -51 25 -63 74 -63h46v-21h-323v21h36c45 0 63 12 63 55v665
c0 43 -18 55 -63 55h-36v21z" />
    <glyph glyph-name="Q" unicode="Q" horiz-adv-x="957" 
d="M911 404c0 -183 -96 -316 -236 -378l136 -191l-5 -5l-285 158c-14 -1 -28 -2 -42 -2c-241 0 -433 165 -433 424c0 260 192 423 433 423c240 0 432 -170 432 -429zM790 407c0 284 -152 397 -311 397s-312 -113 -312 -397c0 -282 153 -392 312 -392s311 110 311 392z" />
    <glyph glyph-name="R" unicode="R" horiz-adv-x="830" 
d="M258 785v-369h37c139 0 242 30 242 191c0 137 -85 187 -238 180zM55 817h263c173 0 331 -23 331 -203c0 -106 -82 -188 -216 -207c114 -23 178 -83 209 -192c42 -149 63 -209 185 -205l3 -12c-32 -9 -63 -12 -89 -12c-122 0 -180 79 -215 219c-36 143 -118 184 -238 184
h-30v-306c0 -50 18 -62 74 -62h35v-21h-312v21h36c45 0 63 12 63 55v665c0 43 -18 55 -63 55h-36v21z" />
    <glyph glyph-name="S" unicode="S" horiz-adv-x="637" 
d="M300 22c128 0 190 74 190 166c0 80 -42 146 -166 188l-94 32c-122 42 -171 118 -171 209c0 142 110 218 254 218c100 0 162 -21 219 -55v-122h-10c-45 114 -120 146 -206 146c-92 0 -162 -64 -162 -142c0 -68 26 -121 125 -156l74 -26c98 -34 234 -83 234 -245
c0 -149 -104 -249 -274 -249c-106 0 -195 23 -263 70v138h10c66 -166 158 -172 240 -172z" />
    <glyph glyph-name="T" unicode="T" horiz-adv-x="724" 
d="M414 780v-694c0 -53 18 -65 72 -65h47v-21h-342v21h42c59 0 77 12 77 64v695h-135c-101 0 -149 -43 -165 -139h-10v176h724v-176h-10c-15 95 -63 139 -165 139h-135z" />
    <glyph glyph-name="U" unicode="U" horiz-adv-x="867" 
d="M748 696v-381c0 -202 -121 -329 -318 -329c-196 0 -320 119 -320 323v432c0 43 -18 55 -63 55h-36v21h302v-21h-36c-45 0 -63 -12 -63 -55v-440c0 -157 96 -261 238 -261c164 0 254 112 254 277v379c0 70 -12 100 -72 100h-38v21h261v-21h-30c-57 0 -79 -29 -79 -100z
" />
    <glyph glyph-name="V" unicode="V" horiz-adv-x="826" 
d="M688 672l-273 -696h-13l-299 761c-15 38 -39 59 -79 59h-24v21h289v-21h-26c-40 0 -66 -12 -52 -49l230 -597l200 508c48 123 34 138 -39 138h-17v21h239v-21h-10c-57 0 -83 -15 -126 -124z" />
    <glyph glyph-name="W" unicode="W" horiz-adv-x="1229" 
d="M871 158l175 500c44 124 34 138 -39 138h-17v21h239v-21h-10c-57 0 -87 -14 -126 -124l-248 -696h-13l-220 600l-217 -600h-13l-279 761c-14 38 -39 59 -79 59h-24v21h289v-21h-26c-40 0 -65 -12 -52 -49l210 -600l172 480l-40 110c-14 38 -39 59 -79 59h-24v21h289v-21
h-26c-40 0 -65 -12 -52 -49z" />
    <glyph glyph-name="X" unicode="X" horiz-adv-x="872" 
d="M643 68l-230 310l-202 -250c-66 -82 -39 -107 33 -107v-21h-244v21c67 0 98 25 168 112l223 275l-244 329c-24 33 -38 59 -102 59v21h279v-21h-16c-50 0 -68 -17 -47 -47l194 -262l162 200c69 84 42 109 -28 109v21h235v-21c-67 0 -91 -25 -163 -113l-184 -226l280 -377
c24 -33 51 -59 115 -59v-21h-302v21h26c56 0 67 20 47 47z" />
    <glyph glyph-name="Y" unicode="Y" horiz-adv-x="745" 
d="M396 417l189 305c33 53 8 74 -50 74h-28v21h238v-21h-26c-44 0 -58 -20 -93 -76l-214 -344v-290c0 -53 18 -65 72 -65h42v-21h-332v21h37c59 0 77 12 77 64v290l-205 362c-20 36 -39 59 -79 59h-24v21h289v-21h-26c-40 0 -71 -14 -52 -49z" />
    <glyph glyph-name="Z" unicode="Z" horiz-adv-x="715" 
d="M23 0l510 779h-207c-159 0 -212 -45 -221 -130h-12v168h582l-506 -781h295c104 0 182 34 192 136h11v-172h-644z" />
    <glyph glyph-name="bracketleft" unicode="[" horiz-adv-x="293" 
d="M91 -292v1109h202v-42h-156v-1025h156v-42h-202z" />
    <glyph glyph-name="backslash" unicode="\" horiz-adv-x="386" 
d="M336 -33l-342 865h47l342 -865h-47z" />
    <glyph glyph-name="bracketright" unicode="]" horiz-adv-x="293" 
d="M202 817v-1109h-202v42h156v1025h-156v42h202z" />
    <glyph glyph-name="asciicircum" unicode="^" horiz-adv-x="536" 
d="M236 818h47l203 -415h-53l-174 360l-158 -360h-51z" />
    <glyph glyph-name="underscore" unicode="_" horiz-adv-x="781" 
d="M60 -42v42h661v-42h-661z" />
    <glyph glyph-name="grave" unicode="`" horiz-adv-x="209" 
d="M208 556l-183 234h90l106 -234h-13z" />
    <glyph glyph-name="a" unicode="a" horiz-adv-x="516" 
d="M208 32c32 0 72 10 107 50v159c-89 -3 -186 -45 -186 -126c0 -47 31 -83 79 -83zM71 395c0 68 93 109 162 109c114 0 174 -46 174 -155l-1 -258c0 -27 7 -48 34 -48c21 0 37 8 48 32l8 -2c-10 -59 -48 -84 -99 -84s-83 34 -83 79c-37 -56 -96 -82 -147 -82
c-90 0 -135 56 -135 115c0 110 131 151 282 151l1 147c0 60 -37 84 -86 84c-41 0 -84 -20 -79 -74c4 -41 -17 -58 -39 -58c-24 0 -40 15 -40 44z" />
    <glyph glyph-name="b" unicode="b" horiz-adv-x="655" 
d="M34 0v21h25c45 0 57 12 57 55v665c0 43 -12 55 -57 55h-25v21h174v-371c43 42 93 58 142 58c152 0 258 -111 258 -257s-110 -261 -261 -261c-56 0 -100 16 -139 55v-41h-174zM313 471c-43 0 -70 -6 -105 -35v-384c31 -24 56 -33 101 -33c124 0 197 101 197 228
c0 129 -76 224 -193 224z" />
    <glyph glyph-name="c" unicode="c" horiz-adv-x="507" 
d="M143 256c0 -121 56 -237 186 -237c48 0 105 21 147 75l11 -9c-50 -75 -120 -99 -188 -99c-157 0 -258 103 -258 264c0 148 120 254 266 254c63 0 171 -27 171 -84c0 -19 -14 -33 -34 -33c-64 0 -32 93 -142 93c-117 0 -159 -126 -159 -224z" />
    <glyph glyph-name="d" unicode="d" horiz-adv-x="663" 
d="M446 443v298c0 43 -12 55 -57 55h-25v21h174v-741c0 -43 13 -55 58 -55h25v-21h-175v43c-44 -41 -91 -57 -147 -57c-151 0 -252 114 -252 260c0 143 100 260 252 260c49 0 102 -15 147 -63zM333 471c-117 0 -184 -96 -184 -225c0 -127 64 -227 188 -227c45 0 76 9 109 33
v380c-35 29 -78 39 -113 39z" />
    <glyph glyph-name="e" unicode="e" horiz-adv-x="520" 
d="M495 311h-353c-2 -20 -3 -39 -3 -55c0 -121 56 -235 186 -235c48 0 112 20 156 72l9 -7c-55 -78 -127 -100 -195 -100c-157 0 -258 102 -258 263c0 150 107 255 253 255c117 0 205 -89 205 -193zM292 483c-91 0 -131 -74 -146 -147h257c-3 88 -43 147 -111 147z" />
    <glyph glyph-name="f" unicode="f" horiz-adv-x="377" 
d="M27 455v26h79v94c0 182 85 254 208 254c115 0 163 -57 163 -90c0 -25 -16 -36 -38 -36c-19 0 -38 11 -48 43c-14 45 -39 64 -80 64c-81 0 -113 -64 -113 -232v-97h165v-26h-165v-367c0 -55 22 -67 77 -67h25v-21h-276v21h25c45 0 57 12 57 55v379h-79z" />
    <glyph glyph-name="g" unicode="g" horiz-adv-x="519" 
d="M253 503c26 0 54 -5 80 -15v1h209v-49l-160 23c44 -29 76 -74 76 -132c0 -95 -93 -172 -205 -172c-14 0 -27 1 -40 3c-58 -6 -85 -32 -85 -60c0 -24 22 -50 71 -50h101c121 0 220 -30 220 -145c0 -134 -127 -203 -261 -203c-151 0 -232 57 -232 143c0 61 61 104 143 121
c-79 9 -106 57 -106 97c0 52 34 90 123 103c-80 23 -138 87 -138 163c0 95 93 172 204 172zM100 -153c0 -84 73 -118 157 -118c94 0 189 29 189 133c0 64 -43 104 -154 104h-95h-8c-58 -22 -89 -61 -89 -119zM368 331c0 61 -38 153 -115 153c-74 0 -113 -92 -113 -153
c0 -59 39 -153 113 -153s115 88 115 153z" />
    <glyph glyph-name="h" unicode="h" horiz-adv-x="637" 
d="M538 309v-233c0 -43 12 -55 57 -55h25v-21h-256v21h25c45 0 57 12 57 55v242c0 50 -14 84 -34 104c-19 19 -50 34 -87 34c-66 0 -124 -54 -127 -120v-260c0 -43 12 -55 57 -55h25v-21h-256v21h25c45 0 57 12 57 55v665c0 43 -12 55 -57 55h-25v21h174v-441
c20 74 90 128 170 128c46 0 85 -14 115 -40c34 -30 55 -71 55 -155z" />
    <glyph glyph-name="i" unicode="i" horiz-adv-x="304" 
d="M89 717c0 36 28 65 64 65s65 -29 65 -65s-29 -64 -65 -64s-64 28 -64 64zM198 481v-405c0 -43 12 -55 57 -55h25v-21h-256v21h25c45 0 57 12 57 55v329c0 43 -12 55 -57 55h-25v21h174z" />
    <glyph glyph-name="j" unicode="j" horiz-adv-x="301" 
d="M198 481v-446c0 -124 -18 -267 -171 -359l-7 10c81 85 86 240 86 349v370c0 43 -12 55 -57 55h-25v21h174zM92 717c0 36 28 65 64 65s65 -29 65 -65s-29 -64 -65 -64s-64 28 -64 64z" />
    <glyph glyph-name="k" unicode="k" horiz-adv-x="597" 
d="M200 257l185 156c17 16 28 47 -29 47h-22v21h213v-21c-51 0 -81 -8 -122 -42l-145 -123l205 -223c40 -43 59 -51 112 -51v-21h-251v21h29c22 0 40 0 25 16zM198 817v-741c0 -43 12 -55 57 -55h25v-21h-256v21h25c45 0 57 12 57 55v665c0 43 -12 55 -57 55h-25v21h174z
" />
    <glyph glyph-name="l" unicode="l" horiz-adv-x="299" 
d="M106 76v665c0 43 -12 55 -57 55h-25v21h174v-741c0 -43 12 -55 57 -55h25v-21h-256v21h25c45 0 57 12 57 55z" />
    <glyph glyph-name="m" unicode="m" horiz-adv-x="964" 
d="M869 330v-254c0 -43 12 -55 57 -55h25v-21h-256v21h25c45 0 57 12 57 55v255c0 74 -48 125 -123 125c-58 0 -108 -42 -122 -97c1 -9 2 -19 2 -29v-254c0 -43 12 -55 57 -55h25v-21h-256v21h25c45 0 57 12 57 55v255c0 74 -48 125 -123 125c-57 0 -107 -41 -121 -94v-286
c0 -43 12 -55 57 -55h25v-21h-256v21h25c45 0 57 12 57 55v329c0 43 -12 55 -57 55h-25v21h174v-93c24 68 89 116 165 116c84 0 148 -47 166 -127c20 73 89 127 169 127c99 0 171 -65 171 -174z" />
    <glyph glyph-name="n" unicode="n" horiz-adv-x="637" 
d="M106 76v329c0 43 -12 55 -57 55h-25v21h174v-105c20 74 90 128 170 128c46 0 85 -14 115 -40c34 -30 55 -71 55 -155v-233c0 -43 12 -55 57 -55h25v-21h-256v21h25c45 0 57 12 57 55v242c0 50 -14 84 -34 104c-19 19 -50 34 -87 34c-66 0 -124 -54 -127 -120v-260
c0 -43 12 -55 57 -55h25v-21h-256v21h25c45 0 57 12 57 55z" />
    <glyph glyph-name="o" unicode="o" horiz-adv-x="618" 
d="M47 245c0 148 119 259 262 259s262 -111 262 -259s-119 -259 -262 -259s-262 110 -262 259zM309 7c126 0 160 143 160 238c0 97 -34 238 -160 238c-124 0 -160 -138 -160 -238c0 -97 34 -238 160 -238z" />
    <glyph glyph-name="p" unicode="p" horiz-adv-x="667" 
d="M34 481h174v-34c44 41 98 57 151 57c152 0 261 -111 261 -257s-110 -261 -261 -261c-57 0 -108 15 -151 52v-245c0 -52 19 -64 77 -64h25v-21h-276v21h25c45 0 57 12 57 55v621c0 43 -12 55 -57 55h-25v21zM325 475c-43 0 -79 -11 -117 -43v-380c33 -25 68 -37 113 -37
c124 0 197 105 197 232c0 129 -76 228 -193 228z" />
    <glyph glyph-name="q" unicode="q" horiz-adv-x="663" 
d="M538 405v-621c0 -43 12 -55 57 -55h25v-21h-276v21h25c58 0 77 12 77 64v250c-44 -41 -91 -57 -147 -57c-151 0 -252 114 -252 260c0 143 98 260 250 260c51 0 104 -15 149 -61v36h174v-21h-25c-45 0 -57 -12 -57 -55zM333 471c-117 0 -184 -96 -184 -225
c0 -127 64 -227 188 -227c45 0 76 9 109 33v381c-35 28 -75 38 -113 38z" />
    <glyph glyph-name="r" unicode="r" horiz-adv-x="441" 
d="M106 76v329c0 43 -12 55 -57 55h-25v21h174v-124c19 80 70 146 151 146c61 0 88 -29 88 -55c0 -18 -13 -38 -35 -38c-41 0 -35 43 -89 43c-58 0 -112 -70 -115 -136v-232c0 -52 12 -64 67 -64h35v-21h-276v21h25c45 0 57 12 57 55z" />
    <glyph glyph-name="s" unicode="s" horiz-adv-x="448" 
d="M215 10c62 0 110 30 110 92c0 58 -43 90 -97 104l-49 13c-99 26 -126 79 -126 145c0 87 75 139 171 139c110 0 160 -50 160 -80c0 -20 -16 -32 -33 -32c-30 0 -39 25 -53 46c-20 31 -39 42 -78 42c-47 0 -96 -27 -96 -80c0 -52 32 -80 97 -98l42 -12
c86 -24 142 -62 142 -151c0 -100 -92 -152 -186 -152c-117 0 -182 47 -182 84c0 22 19 33 35 33c34 0 44 -32 59 -53c21 -29 46 -40 84 -40z" />
    <glyph glyph-name="t" unicode="t" horiz-adv-x="366" 
d="M37 455v26h69l76 132h15v-132h156v-26h-156v-350c0 -62 28 -81 72 -81c29 0 65 9 86 23l6 -9c-55 -44 -97 -52 -145 -52c-65 0 -110 32 -110 108v361h-69z" />
    <glyph glyph-name="u" unicode="u" horiz-adv-x="613" 
d="M4 481h174v-324c0 -74 41 -125 116 -125c57 0 110 49 125 105v268c0 43 -12 55 -57 55h-25v21h174v-405c0 -43 12 -55 57 -55h25v-21h-174v109c-26 -74 -90 -125 -165 -125c-99 0 -168 65 -168 174v247c0 43 -12 55 -57 55h-25v21z" />
    <glyph glyph-name="v" unicode="v" horiz-adv-x="560" 
d="M303 93l115 274c21 51 14 93 -30 93h-18v21h190v-21c-57 0 -86 -36 -103 -77l-171 -403h-25l-177 428c-15 37 -28 52 -84 52v21h236v-21c-50 0 -64 -8 -55 -34z" />
    <glyph glyph-name="w" unicode="w" horiz-adv-x="836" 
d="M594 93l106 274c20 51 12 93 -32 93h-18v21h190v-21c-57 0 -84 -36 -101 -77l-162 -403h-25l-138 356l-142 -356h-25l-167 428c-15 37 -28 52 -84 52v21h235v-21c-50 0 -67 -10 -58 -36l116 -331l109 282l-13 33c-15 37 -28 52 -84 52v21h235v-21h-1c-6 0 -12 0 -17 -1
c-34 -2 -48 -11 -40 -33z" />
    <glyph glyph-name="x" unicode="x" horiz-adv-x="558" 
d="M366 55l-109 149l-109 -130c-24 -30 -21 -53 53 -53v-21h-201v21c48 0 73 9 109 52l130 155l-130 180c-22 33 -39 52 -95 52v21h247v-21c-50 0 -70 -11 -55 -34l93 -127l91 108c25 31 8 53 -53 53v21h201v-21c-57 0 -81 -18 -109 -52l-113 -134l147 -201
c22 -33 39 -52 95 -52v-21h-247v21c50 0 71 12 55 34z" />
    <glyph glyph-name="y" unicode="y" horiz-adv-x="534" 
d="M277 92l114 275c21 51 12 93 -32 93h-18v21h193v-21c-57 0 -84 -36 -101 -77l-235 -560c-47 -113 -96 -121 -138 -121c-43 0 -93 21 -93 56c0 20 15 37 37 37c44 0 39 -59 76 -59c28 0 52 10 89 100l62 154l-174 418c-15 37 -29 52 -85 52v21h237v-21
c-50 0 -65 -8 -55 -34z" />
    <glyph glyph-name="z" unicode="z" horiz-adv-x="490" 
d="M61 340v141h389l-319 -462h92c165 0 193 37 208 140h12v-159h-428l317 459h-88c-120 0 -152 -20 -170 -119h-13z" />
    <glyph glyph-name="braceleft" unicode="{" horiz-adv-x="312" 
d="M16 261v8c85 15 117 114 117 196c0 35 -6 70 -16 98c-14 40 -22 78 -22 113c0 90 52 154 183 154h29v-42h-29c-97 0 -136 -48 -136 -111c0 -26 6 -56 16 -87c13 -41 22 -85 22 -128c0 -68 -22 -151 -84 -197c62 -46 84 -135 84 -203c0 -43 -9 -87 -22 -128
c-10 -31 -16 -61 -16 -87c0 -63 39 -111 136 -111h29v-42h-29c-131 0 -183 61 -183 154c0 35 8 73 22 113c10 28 16 63 16 98c0 82 -34 188 -117 202z" />
    <glyph glyph-name="bar" unicode="|" horiz-adv-x="267" 
d="M110 0v817h46v-817h-46z" />
    <glyph glyph-name="braceright" unicode="}" horiz-adv-x="296" 
d="M296 269v-8c-83 -14 -117 -120 -117 -202c0 -35 6 -70 16 -98c14 -40 22 -78 22 -113c0 -93 -52 -154 -183 -154h-29v42h29c97 0 136 48 136 111c0 26 -6 56 -16 87c-13 41 -22 85 -22 128c0 68 22 157 84 203c-62 46 -84 129 -84 197c0 43 9 87 22 128
c10 31 16 61 16 87c0 63 -39 111 -136 111h-29v42h29c131 0 183 -64 183 -154c0 -35 -8 -73 -22 -113c-10 -28 -16 -63 -16 -98c0 -82 32 -181 117 -196z" />
    <glyph glyph-name="asciitilde" unicode="~" horiz-adv-x="659" 
d="M183 319c100 0 205 -99 292 -99c39 0 72 19 98 80l40 -16c-26 -77 -79 -108 -137 -108c-104 0 -207 98 -292 98c-39 0 -73 -22 -98 -84l-40 18c26 77 79 111 137 111z" />
    <glyph glyph-name="uni00A0" unicode="&#xa0;" horiz-adv-x="200" 
 />
    <glyph glyph-name="exclamdown" unicode="&#xa1;" horiz-adv-x="211" 
d="M168 -326c-40 -15 -81 -15 -121 0c21 213 38 425 52 636h18c14 -212 30 -424 51 -636zM41 439c0 36 29 65 65 65s65 -29 65 -65s-29 -65 -65 -65s-65 29 -65 65z" />
    <glyph glyph-name="cent" unicode="&#xa2;" horiz-adv-x="507" 
d="M278 -103v90c-145 9 -237 109 -237 263c0 138 104 239 237 252v97h41v-95c64 -3 159 -31 159 -84c0 -19 -14 -33 -34 -33c-61 0 -35 83 -125 92v-460h10c48 0 105 21 147 75l11 -9c-45 -68 -107 -94 -168 -98v-90h-41zM143 256c0 -104 41 -204 135 -231v453
c-99 -16 -135 -131 -135 -222z" />
    <glyph glyph-name="sterling" unicode="&#xa3;" horiz-adv-x="633" 
d="M53 426v28h111l-5 40c-41 301 124 335 237 335c86 0 204 -34 204 -92c0 -24 -17 -39 -43 -39c-72 0 -61 107 -175 107c-143 0 -140 -162 -118 -292c3 -20 6 -40 7 -59h242v-28h-240c9 -224 -96 -376 -154 -409c70 39 166 98 241 98c89 0 134 -49 182 -49
c24 0 49 11 80 44l9 -5c-55 -102 -107 -118 -149 -118c-50 0 -100 47 -193 47c-107 0 -148 -54 -264 -40v21h30c87 0 137 151 112 411h-114z" />
    <glyph glyph-name="yen" unicode="&#xa5;" horiz-adv-x="745" 
d="M396 417l189 305c33 53 8 74 -50 74h-28v21h238v-21h-26c-44 0 -58 -20 -93 -76l-202 -324h188v-34h-200v-109h200v-34h-200v-133c0 -53 18 -65 72 -65h42v-21h-332v21h37c59 0 77 12 77 64v134h-200v34h200v109h-200v34h188l-193 341c-20 36 -39 59 -79 59h-24v21h289
v-21h-26c-40 0 -71 -14 -52 -49z" />
    <glyph glyph-name="brokenbar" unicode="&#xa6;" horiz-adv-x="267" 
d="M110 369v448h46v-448h-46zM110 -292v448h46v-448h-46z" />
    <glyph glyph-name="section" unicode="&#xa7;" horiz-adv-x="661" 
d="M125 -127c73 -2 36 -138 197 -141c124 -2 172 73 173 138c2 95 -64 141 -149 176l-76 30c-117 46 -172 103 -170 193c1 76 54 145 136 177c-84 43 -126 111 -125 193c2 103 90 193 239 190c111 -2 214 -55 213 -118c-1 -18 -12 -37 -41 -36c-73 1 -32 123 -175 126
c-98 2 -153 -52 -154 -116c-1 -73 37 -119 118 -154l105 -46c96 -42 168 -98 166 -198c-1 -74 -55 -148 -129 -180c74 -43 130 -104 129 -189c-2 -129 -105 -215 -261 -213c-131 3 -238 68 -237 131c1 18 12 37 41 37zM509 229c2 87 -80 135 -152 166l-101 42
c-4 1 -7 3 -10 4c-47 -32 -71 -76 -72 -113c-1 -79 64 -126 141 -159l76 -31c17 -8 34 -16 51 -25c39 29 67 78 67 116z" />
    <glyph glyph-name="dieresis" unicode="&#xa8;" horiz-adv-x="436" 
d="M52 685c0 36 29 65 65 65s65 -29 65 -65s-29 -65 -65 -65s-65 29 -65 65zM264 685c0 36 29 65 65 65s65 -29 65 -65s-29 -65 -65 -65s-65 29 -65 65z" />
    <glyph glyph-name="copyright" unicode="&#xa9;" horiz-adv-x="895" 
d="M50 383c0 220 178 398 397 398c220 0 398 -178 398 -398c0 -219 -178 -397 -398 -397c-219 0 -397 178 -397 397zM94 383c0 -197 156 -358 353 -358c198 0 353 161 353 358c0 198 -155 359 -353 359c-197 0 -353 -161 -353 -359zM642 290v-91c-48 -39 -129 -57 -194 -57
c-146 0 -254 114 -254 250c0 149 129 251 259 251c67 0 131 -17 180 -44v-93h-9c-30 86 -103 111 -166 111c-88 0 -180 -67 -180 -226c0 -152 98 -223 174 -223c66 0 150 16 181 122h9z" />
    <glyph glyph-name="ordfeminine" unicode="&#xaa;" horiz-adv-x="444" 
d="M193 508c17 0 41 6 60 32v110c-62 -3 -111 -31 -111 -87c0 -33 17 -55 51 -55zM91 756c0 48 62 76 110 76c78 0 126 -32 126 -108v-178c0 -19 4 -33 23 -33c14 0 26 6 33 22l6 -1c-7 -41 -38 -59 -74 -59s-63 24 -63 55c-24 -37 -62 -57 -97 -57c-63 0 -91 39 -91 80
c0 73 84 105 188 105l1 101c0 41 -22 59 -56 59c-28 0 -45 -14 -41 -51c2 -30 -15 -41 -37 -41c-16 0 -28 10 -28 30z" />
    <glyph glyph-name="guillemotleft" unicode="&#xab;" horiz-adv-x="422" 
d="M381 34l-213 207v8l212 206h12l-140 -210l140 -211h-11zM223 34l-213 207v8l212 206h12l-140 -210l140 -211h-11z" />
    <glyph glyph-name="logicalnot" unicode="&#xac;" horiz-adv-x="584" 
d="M39 219v42h475v-261h-46v219h-429z" />
    <glyph glyph-name="uni00AD" unicode="&#xad;" horiz-adv-x="394" 
d="M50 234v42h294v-42h-294z" />
    <glyph glyph-name="registered" unicode="&#xae;" horiz-adv-x="895" 
d="M50 383c0 220 178 398 397 398c220 0 398 -178 398 -398c0 -219 -178 -397 -398 -397c-219 0 -397 178 -397 397zM94 383c0 -197 156 -358 353 -358c198 0 353 161 353 358c0 198 -155 359 -353 359c-197 0 -353 -161 -353 -359zM377 612v-208l47 5c72 8 112 44 112 110
c0 83 -72 93 -133 93h-26zM377 391v-178c0 -13 7 -24 34 -25l39 -2v-17h-204v17l27 2c26 2 30 13 30 25v375c0 14 -8 24 -30 26l-27 3v17h169c84 0 197 -11 197 -113c0 -55 -58 -112 -145 -122c63 -5 102 -35 126 -105c28 -85 40 -123 100 -106l3 -5
c-10 -10 -34 -23 -62 -23c-65 0 -96 45 -117 118c-28 94 -73 113 -140 113z" />
    <glyph glyph-name="macron" unicode="&#xaf;" horiz-adv-x="434" 
d="M50 629v47h334v-47h-334z" />
    <glyph glyph-name="degree" unicode="&#xb0;" horiz-adv-x="346" 
d="M30 690c0 79 64 142 143 142s143 -63 143 -142s-64 -142 -143 -142s-143 63 -143 142zM76 690c0 -50 36 -102 97 -102c62 0 97 49 97 102c0 56 -40 102 -97 102c-51 0 -97 -44 -97 -102z" />
    <glyph glyph-name="plusminus" unicode="&#xb1;" horiz-adv-x="554" 
d="M254 489h46v-185h215v-42h-215v-175h-46v175h-214v42h214v185zM40 0v42h475v-42h-475z" />
    <glyph glyph-name="twosuperior" unicode="&#xb2;" horiz-adv-x="440" 
d="M384 429h-337v7c81 53 227 159 227 246c0 47 -35 60 -67 60s-74 -10 -101 -34l-7 8c41 46 96 65 139 65c58 0 125 -25 125 -85c0 -86 -111 -153 -201 -199h139c40 0 66 13 75 63h8v-131z" />
    <glyph glyph-name="threesuperior" unicode="&#xb3;" horiz-adv-x="375" 
d="M93 517l-3 5c82 36 129 96 129 161c0 49 -32 70 -68 70c-28 0 -56 -13 -76 -35l-8 7c30 40 73 55 124 55c83 0 113 -45 113 -91c0 -57 -71 -122 -137 -139c93 -9 143 -66 143 -132c0 -68 -62 -158 -173 -158c-56 0 -98 15 -131 46l6 8c30 -20 67 -31 97 -31
c68 0 113 51 113 123c0 60 -36 111 -129 111z" />
    <glyph glyph-name="acute" unicode="&#xb4;" horiz-adv-x="209" 
d="M221 790l-183 -234h-13l106 234h90z" />
    <glyph glyph-name="mu" unicode="&#xb5;" horiz-adv-x="568" 
d="M105 481h46v-322c0 -71 49 -127 129 -127c57 0 110 40 137 104v345h46v-481h-44v78c-31 -60 -83 -92 -139 -92c-42 0 -98 16 -129 62v-340h-46v773z" />
    <glyph glyph-name="paragraph" unicode="&#xb6;" horiz-adv-x="560" 
d="M502 771h-85v-888h-46v888h-78v-888h-46v536c-117 0 -217 76 -217 198c0 92 52 199 249 199h223v-45z" />
    <glyph glyph-name="periodcentered" unicode="&#xb7;" horiz-adv-x="228" 
d="M49 257c0 36 29 65 65 65s65 -29 65 -65s-29 -65 -65 -65s-65 29 -65 65z" />
    <glyph glyph-name="cedilla" unicode="&#xb8;" horiz-adv-x="280" 
d="M116 -4h30l-53 -74c16 12 34 20 57 20c46 0 80 -22 80 -71c0 -75 -107 -118 -178 -116l-3 6c87 8 130 71 130 107c0 31 -14 47 -50 47c-16 0 -30 -6 -41 -14l-24 19z" />
    <glyph glyph-name="onesuperior" unicode="&#xb9;" horiz-adv-x="296" 
d="M104 482v234c0 22 -18 34 -40 34h-30v21h221v-21h-28c-22 0 -40 -12 -40 -34v-234c0 -22 18 -34 40 -34h30v-21h-221v21h28c22 0 40 12 40 34z" />
    <glyph glyph-name="ordmasculine" unicode="&#xba;" horiz-adv-x="467" 
d="M49 651c0 103 82 181 183 181c99 0 183 -78 183 -181c0 -102 -84 -180 -183 -180c-101 0 -183 77 -183 180zM232 486c78 0 101 99 101 165c0 68 -23 166 -101 166c-77 0 -102 -96 -102 -166c0 -67 24 -165 102 -165z" />
    <glyph glyph-name="guillemotright" unicode="&#xbb;" horiz-adv-x="422" 
d="M412 241l-213 -207h-11l140 211l-140 210h12l212 -206v-8zM254 241l-213 -207h-11l140 211l-140 210h12l212 -206v-8z" />
    <glyph glyph-name="onequarter" unicode="&#xbc;" horiz-adv-x="847" 
d="M686 817l-543 -817h-48l541 817h50zM448 214h146v179zM113 482v234c0 22 -18 34 -40 34h-30v21h221v-21h-28c-22 0 -40 -12 -40 -34v-234c0 -22 18 -34 40 -34h30v-21h-221v21h28c22 0 40 12 40 34zM589 55v96h-221l292 359h9v-296h53c25 0 49 8 58 58h7v-121h-115v-96
c0 -22 18 -34 40 -34h30v-21h-221v21h28c22 0 40 12 40 34z" />
    <glyph glyph-name="onehalf" unicode="&#xbd;" horiz-adv-x="778" 
d="M686 817l-543 -817h-48l541 817h50zM715 0h-337v7c81 53 227 159 227 246c0 47 -35 60 -67 60s-74 -10 -101 -34l-7 8c41 46 96 65 139 65c58 0 125 -25 125 -85c0 -86 -111 -153 -201 -199h139c40 0 66 13 75 63h8v-131zM114 482v234c0 22 -18 34 -40 34h-30v21h221v-21
h-28c-22 0 -40 -12 -40 -34v-234c0 -22 18 -34 40 -34h30v-21h-221v21h28c22 0 40 12 40 34z" />
    <glyph glyph-name="threequarters" unicode="&#xbe;" horiz-adv-x="929" 
d="M768 817l-543 -817h-48l541 817h50zM528 214h146v179zM669 55v96h-221l292 359h9v-296h53c25 0 49 8 58 58h7v-121h-115v-96c0 -22 18 -34 40 -34h30v-21h-221v21h28c22 0 40 12 40 34zM83 517l-3 5c82 36 129 96 129 161c0 49 -32 70 -68 70c-28 0 -56 -13 -76 -35l-8 7
c30 40 73 55 124 55c83 0 113 -45 113 -91c0 -57 -71 -122 -137 -139c93 -9 143 -66 143 -132c0 -68 -62 -158 -173 -158c-56 0 -98 15 -131 46l6 8c30 -20 67 -31 97 -31c68 0 113 51 113 123c0 60 -36 111 -129 111z" />
    <glyph glyph-name="questiondown" unicode="&#xbf;" horiz-adv-x="385" 
d="M216 302l7 5c12 -13 67 -52 67 -131c0 -160 -165 -246 -165 -395c0 -43 20 -102 72 -102c79 0 71 97 128 97c22 0 41 -14 41 -43c-3 -42 -85 -72 -162 -72c-89 0 -171 45 -171 142c0 161 199 274 199 437c0 34 -10 54 -16 62zM159 439c0 36 29 65 65 65s65 -29 65 -65
s-29 -65 -65 -65s-65 29 -65 65z" />
    <glyph glyph-name="Agrave" unicode="&#xc0;" horiz-adv-x="843" 
d="M136 145l282 696h13l309 -761c16 -38 39 -59 79 -59h24v-21h-285v21h22c40 0 67 12 52 49l-90 223h-304l-55 -134c-50 -122 -34 -138 39 -138h17v-21h-239v21h10c57 0 82 16 126 124zM392 667l-126 -306h249zM496 852l-183 234h90l106 -234h-13z" />
    <glyph glyph-name="Aacute" unicode="&#xc1;" horiz-adv-x="843" 
d="M136 145l282 696h13l309 -761c16 -38 39 -59 79 -59h24v-21h-285v21h22c40 0 67 12 52 49l-90 223h-304l-55 -134c-50 -122 -34 -138 39 -138h17v-21h-239v21h10c57 0 82 16 126 124zM392 667l-126 -306h249zM518 1086l-183 -234h-13l106 234h90z" />
    <glyph glyph-name="Acircumflex" unicode="&#xc2;" horiz-adv-x="843" 
d="M136 145l282 696h13l309 -761c16 -38 39 -59 79 -59h24v-21h-285v21h22c40 0 67 12 52 49l-90 223h-304l-55 -134c-50 -122 -34 -138 39 -138h17v-21h-239v21h10c57 0 82 16 126 124zM392 667l-126 -306h249zM429 1096l154 -244h-11l-148 147l-156 -147h-11l163 244h9z
" />
    <glyph glyph-name="Atilde" unicode="&#xc3;" horiz-adv-x="843" 
d="M136 145l282 696h13l309 -761c16 -38 39 -59 79 -59h24v-21h-285v21h22c40 0 67 12 52 49l-90 223h-304l-55 -134c-50 -122 -34 -138 39 -138h17v-21h-239v21h10c57 0 82 16 126 124zM392 667l-126 -306h249zM595 1004l45 47l7 -4l-47 -122h-308l-45 -47l-7 4l47 122h308
z" />
    <glyph glyph-name="Adieresis" unicode="&#xc4;" horiz-adv-x="843" 
d="M136 145l282 696h13l309 -761c16 -38 39 -59 79 -59h24v-21h-285v21h22c40 0 67 12 52 49l-90 223h-304l-55 -134c-50 -122 -34 -138 39 -138h17v-21h-239v21h10c57 0 82 16 126 124zM392 667l-126 -306h249zM219 971c0 36 29 65 65 65s65 -29 65 -65s-29 -65 -65 -65
s-65 29 -65 65zM491 971c0 36 29 65 65 65s65 -29 65 -65s-29 -65 -65 -65s-65 29 -65 65z" />
    <glyph glyph-name="Aring" unicode="&#xc5;" horiz-adv-x="843" 
d="M136 145l282 696h13l309 -761c16 -38 39 -59 79 -59h24v-21h-285v21h22c40 0 67 12 52 49l-90 223h-304l-55 -134c-50 -122 -34 -138 39 -138h17v-21h-239v21h10c57 0 82 16 126 124zM392 667l-126 -306h249zM522 979c0 -55 -46 -98 -102 -98s-102 43 -102 98
s46 98 102 98s102 -43 102 -98zM484 979c0 39 -30 65 -64 65c-37 0 -63 -29 -63 -65s26 -65 63 -65c40 0 64 29 64 65z" />
    <glyph glyph-name="AE" unicode="&#xc6;" horiz-adv-x="1267" 
d="M231 199l446 546c-2 39 -20 51 -63 51h-36v21h598v-150h-10c-15 92 -69 113 -165 113h-220v-328h140c68 0 122 7 137 102h10v-239h-10c-16 96 -69 102 -137 102h-140v-327c0 -44 26 -53 64 -53h191c97 0 151 33 166 129h10v-166h-634v21h36c45 0 63 12 63 55v341h-220
l-203 -251c-82 -102 -97 -145 1 -145h28v-21h-283v21c93 8 116 37 231 178zM485 452h192v237z" />
    <glyph glyph-name="Ccedilla" unicode="&#xc7;" horiz-adv-x="863" 
d="M813 221v-145c-90 -68 -212 -90 -314 -90c-7 0 -13 1 -19 1l-46 -65c16 12 34 20 57 20c46 0 80 -22 80 -71c0 -75 -107 -118 -178 -116l-3 6c87 8 130 71 130 107c0 31 -14 47 -50 47c-16 0 -30 -6 -41 -14l-24 19l46 68c-272 20 -405 213 -405 419
c0 261 196 426 453 426c116 0 218 -27 307 -77v-148h-11c-62 142 -192 192 -298 192c-166 0 -330 -117 -330 -396c0 -261 160 -385 328 -385c113 0 241 32 307 202h11z" />
    <glyph glyph-name="Egrave" unicode="&#xc8;" 
d="M154 76v665c0 43 -18 55 -63 55h-36v21h598v-170h-10c-15 92 -69 133 -191 133h-194v-328h130c68 0 132 7 147 102h10v-239h-10c-16 96 -79 102 -147 102h-130v-327c0 -44 26 -53 64 -53h182c106 0 160 53 175 149h10v-186h-634v21h36c45 0 63 12 63 55zM446 852
l-183 234h90l106 -234h-13z" />
    <glyph glyph-name="Eacute" unicode="&#xc9;" 
d="M154 76v665c0 43 -18 55 -63 55h-36v21h598v-170h-10c-15 92 -69 133 -191 133h-194v-328h130c68 0 132 7 147 102h10v-239h-10c-16 96 -79 102 -147 102h-130v-327c0 -44 26 -53 64 -53h182c106 0 160 53 175 149h10v-186h-634v21h36c45 0 63 12 63 55zM530 1086
l-183 -234h-13l106 234h90z" />
    <glyph glyph-name="Ecircumflex" unicode="&#xca;" 
d="M154 76v665c0 43 -18 55 -63 55h-36v21h598v-170h-10c-15 92 -69 133 -191 133h-194v-328h130c68 0 132 7 147 102h10v-239h-10c-16 96 -79 102 -147 102h-130v-327c0 -44 26 -53 64 -53h182c106 0 160 53 175 149h10v-186h-634v21h36c45 0 63 12 63 55zM401 1096
l154 -244h-11l-148 147l-156 -147h-11l163 244h9z" />
    <glyph glyph-name="Edieresis" unicode="&#xcb;" 
d="M154 76v665c0 43 -18 55 -63 55h-36v21h598v-170h-10c-15 92 -69 133 -191 133h-194v-328h130c68 0 132 7 147 102h10v-239h-10c-16 96 -79 102 -147 102h-130v-327c0 -44 26 -53 64 -53h182c106 0 160 53 175 149h10v-186h-634v21h36c45 0 63 12 63 55zM201 971
c0 36 29 65 65 65s65 -29 65 -65s-29 -65 -65 -65s-65 29 -65 65zM473 971c0 36 29 65 65 65s65 -29 65 -65s-29 -65 -65 -65s-65 29 -65 65z" />
    <glyph glyph-name="Igrave" unicode="&#xcc;" horiz-adv-x="412" 
d="M154 76v665c0 43 -18 55 -63 55h-36v21h302v-21h-36c-45 0 -63 -12 -63 -55v-665c0 -43 18 -55 63 -55h36v-21h-302v21h36c45 0 63 12 63 55zM292 852l-183 234h90l106 -234h-13z" />
    <glyph glyph-name="Iacute" unicode="&#xcd;" horiz-adv-x="412" 
d="M154 76v665c0 43 -18 55 -63 55h-36v21h302v-21h-36c-45 0 -63 -12 -63 -55v-665c0 -43 18 -55 63 -55h36v-21h-302v21h36c45 0 63 12 63 55zM304 1086l-183 -234h-13l106 234h90z" />
    <glyph glyph-name="Icircumflex" unicode="&#xce;" horiz-adv-x="412" 
d="M154 76v665c0 43 -18 55 -63 55h-36v21h302v-21h-36c-45 0 -63 -12 -63 -55v-665c0 -43 18 -55 63 -55h36v-21h-302v21h36c45 0 63 12 63 55zM214 1096l154 -244h-11l-148 147l-156 -147h-11l163 244h9z" />
    <glyph glyph-name="Idieresis" unicode="&#xcf;" horiz-adv-x="412" 
d="M154 76v665c0 43 -18 55 -63 55h-36v21h302v-21h-36c-45 0 -63 -12 -63 -55v-665c0 -43 18 -55 63 -55h36v-21h-302v21h36c45 0 63 12 63 55zM35 971c0 36 29 65 65 65s65 -29 65 -65s-29 -65 -65 -65s-65 29 -65 65zM247 971c0 36 29 65 65 65s65 -29 65 -65
s-29 -65 -65 -65s-65 29 -65 65z" />
    <glyph glyph-name="Eth" unicode="&#xd0;" horiz-adv-x="918" 
d="M0 398v36h154v307c0 43 -18 55 -63 55h-36v21h326c319 0 491 -151 491 -403c0 -245 -169 -414 -438 -414h-379v21h36c45 0 63 12 63 55v322h-154zM258 787v-353h181v-36h-181v-313c0 -49 28 -56 134 -56h18c178 0 343 102 343 387c0 296 -212 371 -402 371h-93z" />
    <glyph glyph-name="Ntilde" unicode="&#xd1;" horiz-adv-x="913" 
d="M757 189v507c0 70 -12 100 -72 100h-38v21h261v-21h-30c-57 0 -79 -29 -79 -100v-710h-9l-584 691v-556c0 -70 12 -100 72 -100h38v-21h-261v21h30c57 0 79 29 79 100v586c0 64 -66 88 -108 88v22h182zM645 1004l45 47l7 -4l-47 -122h-308l-45 -47l-7 4l47 122h308z" />
    <glyph glyph-name="Ograve" unicode="&#xd2;" horiz-adv-x="957" 
d="M790 407c0 284 -152 399 -311 399s-312 -115 -312 -399c0 -282 153 -392 312 -392s311 110 311 392zM911 404c0 -259 -192 -418 -432 -418c-241 0 -433 165 -433 424c0 260 192 425 433 425c240 0 432 -172 432 -431zM563 852l-183 234h90l106 -234h-13z" />
    <glyph glyph-name="Oacute" unicode="&#xd3;" horiz-adv-x="957" 
d="M790 407c0 284 -152 399 -311 399s-312 -115 -312 -399c0 -282 153 -392 312 -392s311 110 311 392zM911 404c0 -259 -192 -418 -432 -418c-241 0 -433 165 -433 424c0 260 192 425 433 425c240 0 432 -172 432 -431zM586 1086l-183 -234h-13l106 234h90z" />
    <glyph glyph-name="Ocircumflex" unicode="&#xd4;" horiz-adv-x="957" 
d="M790 407c0 284 -152 399 -311 399s-312 -115 -312 -399c0 -282 153 -392 312 -392s311 110 311 392zM911 404c0 -259 -192 -418 -432 -418c-241 0 -433 165 -433 424c0 260 192 425 433 425c240 0 432 -172 432 -431zM488 1096l154 -244h-11l-148 147l-156 -147h-11
l163 244h9z" />
    <glyph glyph-name="Otilde" unicode="&#xd5;" horiz-adv-x="957" 
d="M790 407c0 284 -152 399 -311 399s-312 -115 -312 -399c0 -282 153 -392 312 -392s311 110 311 392zM911 404c0 -259 -192 -418 -432 -418c-241 0 -433 165 -433 424c0 260 192 425 433 425c240 0 432 -172 432 -431zM645 1004l45 47l7 -4l-47 -122h-308l-45 -47l-7 4
l47 122h308z" />
    <glyph glyph-name="Odieresis" unicode="&#xd6;" horiz-adv-x="957" 
d="M790 407c0 284 -152 399 -311 399s-312 -115 -312 -399c0 -282 153 -392 312 -392s311 110 311 392zM911 404c0 -259 -192 -418 -432 -418c-241 0 -433 165 -433 424c0 260 192 425 433 425c240 0 432 -172 432 -431zM278 971c0 36 29 65 65 65s65 -29 65 -65
s-29 -65 -65 -65s-65 29 -65 65zM550 971c0 36 29 65 65 65s65 -29 65 -65s-29 -65 -65 -65s-65 29 -65 65z" />
    <glyph glyph-name="multiply" unicode="&#xd7;" horiz-adv-x="532" 
d="M452 467l30 -31l-184 -184l182 -182l-32 -31l-181 181l-181 -181l-30 31l180 181l-186 187l31 32l187 -188z" />
    <glyph glyph-name="Oslash" unicode="&#xd8;" horiz-adv-x="957" 
d="M911 404c0 -259 -192 -418 -432 -418c-103 0 -197 30 -271 84l-57 -70h-56l80 98c-80 74 -129 181 -129 312c0 260 192 425 433 425c89 0 171 -24 239 -67l52 64h58l-73 -90c95 -75 156 -193 156 -338zM790 407c0 126 -30 219 -78 283l-463 -569
c59 -74 144 -106 230 -106c159 0 311 110 311 392zM167 407c0 -106 21 -188 57 -248l459 566c-57 56 -130 81 -204 81c-159 0 -312 -115 -312 -399z" />
    <glyph glyph-name="Ugrave" unicode="&#xd9;" horiz-adv-x="867" 
d="M748 696v-381c0 -202 -121 -329 -318 -329c-196 0 -320 119 -320 323v432c0 43 -18 55 -63 55h-36v21h302v-21h-36c-45 0 -63 -12 -63 -55v-440c0 -157 96 -261 238 -261c164 0 254 112 254 277v379c0 70 -12 100 -72 100h-38v21h261v-21h-30c-57 0 -79 -29 -79 -100z
M508 852l-183 234h90l106 -234h-13z" />
    <glyph glyph-name="Uacute" unicode="&#xda;" horiz-adv-x="867" 
d="M748 696v-381c0 -202 -121 -329 -318 -329c-196 0 -320 119 -320 323v432c0 43 -18 55 -63 55h-36v21h302v-21h-36c-45 0 -63 -12 -63 -55v-440c0 -157 96 -261 238 -261c164 0 254 112 254 277v379c0 70 -12 100 -72 100h-38v21h261v-21h-30c-57 0 -79 -29 -79 -100z
M600 1086l-183 -234h-13l106 234h90z" />
    <glyph glyph-name="Ucircumflex" unicode="&#xdb;" horiz-adv-x="867" 
d="M748 696v-381c0 -202 -121 -329 -318 -329c-196 0 -320 119 -320 323v432c0 43 -18 55 -63 55h-36v21h302v-21h-36c-45 0 -63 -12 -63 -55v-440c0 -157 96 -261 238 -261c164 0 254 112 254 277v379c0 70 -12 100 -72 100h-38v21h261v-21h-30c-57 0 -79 -29 -79 -100z
M460 1096l154 -244h-11l-148 147l-156 -147h-11l163 244h9z" />
    <glyph glyph-name="Udieresis" unicode="&#xdc;" horiz-adv-x="867" 
d="M748 696v-381c0 -202 -121 -329 -318 -329c-196 0 -320 119 -320 323v432c0 43 -18 55 -63 55h-36v21h302v-21h-36c-45 0 -63 -12 -63 -55v-440c0 -157 96 -261 238 -261c164 0 254 112 254 277v379c0 70 -12 100 -72 100h-38v21h261v-21h-30c-57 0 -79 -29 -79 -100z
M249 971c0 36 29 65 65 65s65 -29 65 -65s-29 -65 -65 -65s-65 29 -65 65zM521 971c0 36 29 65 65 65s65 -29 65 -65s-29 -65 -65 -65s-65 29 -65 65z" />
    <glyph glyph-name="Yacute" unicode="&#xdd;" horiz-adv-x="745" 
d="M396 417l189 305c33 53 8 74 -50 74h-28v21h238v-21h-26c-44 0 -58 -20 -93 -76l-214 -344v-290c0 -53 18 -65 72 -65h42v-21h-332v21h37c59 0 77 12 77 64v290l-205 362c-20 36 -39 59 -79 59h-24v21h289v-21h-26c-40 0 -71 -14 -52 -49zM530 1086l-183 -234h-13
l106 234h90z" />
    <glyph glyph-name="Thorn" unicode="&#xde;" horiz-adv-x="694" 
d="M51 817h302v-21h-36c-45 0 -63 -12 -63 -55v-73l96 2c177 3 320 -57 320 -221c0 -153 -102 -246 -263 -246c-54 0 -105 8 -153 32v-151c0 -51 25 -63 74 -63h46v-21h-323v21h36c45 0 63 12 63 55v665c0 43 -18 55 -63 55h-36v21zM350 238c113 0 209 64 209 208
c0 124 -68 195 -214 195c-25 0 -63 -5 -91 -9v-384c34 -8 64 -10 96 -10z" />
    <glyph glyph-name="germandbls" unicode="&#xdf;" horiz-adv-x="692" 
d="M119 55v389l-76 18v19h76v77c0 166 86 268 226 268c89 0 178 -42 178 -122c0 -76 -64 -107 -114 -133c-32 -17 -59 -33 -59 -64c0 -50 64 -98 116 -131l41 -26c92 -58 129 -116 129 -193c0 -117 -96 -171 -187 -171c-120 0 -180 50 -180 91c0 21 15 39 42 39
c61 0 39 -106 141 -106c72 0 104 45 104 101c0 46 -22 100 -87 140l-57 35c-71 45 -122 101 -122 174c0 62 42 89 88 118c40 25 58 58 58 116c0 51 -33 108 -100 108c-63 0 -125 -52 -125 -224v-578h-171v21h39c22 0 40 12 40 34z" />
    <glyph glyph-name="agrave" unicode="&#xe0;" horiz-adv-x="516" 
d="M208 32c32 0 72 10 107 50v159c-89 -3 -186 -45 -186 -126c0 -47 31 -83 79 -83zM71 395c0 68 93 109 162 109c114 0 174 -46 174 -155l-1 -258c0 -27 7 -48 34 -48c21 0 37 8 48 32l8 -2c-10 -59 -48 -84 -99 -84s-83 34 -83 79c-37 -56 -96 -82 -147 -82
c-90 0 -135 56 -135 115c0 110 131 151 282 151l1 147c0 60 -37 84 -86 84c-41 0 -84 -20 -79 -74c4 -41 -17 -58 -39 -58c-24 0 -40 15 -40 44zM319 556l-183 234h90l106 -234h-13z" />
    <glyph glyph-name="aacute" unicode="&#xe1;" horiz-adv-x="516" 
d="M208 32c32 0 72 10 107 50v159c-89 -3 -186 -45 -186 -126c0 -47 31 -83 79 -83zM71 395c0 68 93 109 162 109c114 0 174 -46 174 -155l-1 -258c0 -27 7 -48 34 -48c21 0 37 8 48 32l8 -2c-10 -59 -48 -84 -99 -84s-83 34 -83 79c-37 -56 -96 -82 -147 -82
c-90 0 -135 56 -135 115c0 110 131 151 282 151l1 147c0 60 -37 84 -86 84c-41 0 -84 -20 -79 -74c4 -41 -17 -58 -39 -58c-24 0 -40 15 -40 44zM403 790l-183 -234h-13l106 234h90z" />
    <glyph glyph-name="acircumflex" unicode="&#xe2;" horiz-adv-x="516" 
d="M208 32c32 0 72 10 107 50v159c-89 -3 -186 -45 -186 -126c0 -47 31 -83 79 -83zM71 395c0 68 93 109 162 109c114 0 174 -46 174 -155l-1 -258c0 -27 7 -48 34 -48c21 0 37 8 48 32l8 -2c-10 -59 -48 -84 -99 -84s-83 34 -83 79c-37 -56 -96 -82 -147 -82
c-90 0 -135 56 -135 115c0 110 131 151 282 151l1 147c0 60 -37 84 -86 84c-41 0 -84 -20 -79 -74c4 -41 -17 -58 -39 -58c-24 0 -40 15 -40 44zM244 800l154 -244h-11l-148 147l-156 -147h-11l163 244h9z" />
    <glyph glyph-name="atilde" unicode="&#xe3;" horiz-adv-x="516" 
d="M208 32c32 0 72 10 107 50v159c-89 -3 -186 -45 -186 -126c0 -47 31 -83 79 -83zM71 395c0 68 93 109 162 109c114 0 174 -46 174 -155l-1 -258c0 -27 7 -48 34 -48c21 0 37 8 48 32l8 -2c-10 -59 -48 -84 -99 -84s-83 34 -83 79c-37 -56 -96 -82 -147 -82
c-90 0 -135 56 -135 115c0 110 131 151 282 151l1 147c0 60 -37 84 -86 84c-41 0 -84 -20 -79 -74c4 -41 -17 -58 -39 -58c-24 0 -40 15 -40 44zM380 708l45 47l7 -4l-47 -117h-258l-45 -47l-7 4l47 117h258z" />
    <glyph glyph-name="adieresis" unicode="&#xe4;" horiz-adv-x="516" 
d="M208 32c32 0 72 10 107 50v159c-89 -3 -186 -45 -186 -126c0 -47 31 -83 79 -83zM71 395c0 68 93 109 162 109c114 0 174 -46 174 -155l-1 -258c0 -27 7 -48 34 -48c21 0 37 8 48 32l8 -2c-10 -59 -48 -84 -99 -84s-83 34 -83 79c-37 -56 -96 -82 -147 -82
c-90 0 -135 56 -135 115c0 110 131 151 282 151l1 147c0 60 -37 84 -86 84c-41 0 -84 -20 -79 -74c4 -41 -17 -58 -39 -58c-24 0 -40 15 -40 44zM73 685c0 36 29 65 65 65s65 -29 65 -65s-29 -65 -65 -65s-65 29 -65 65zM285 685c0 36 29 65 65 65s65 -29 65 -65
s-29 -65 -65 -65s-65 29 -65 65z" />
    <glyph glyph-name="aring" unicode="&#xe5;" horiz-adv-x="516" 
d="M208 32c32 0 72 10 107 50v159c-89 -3 -186 -45 -186 -126c0 -47 31 -83 79 -83zM71 395c0 68 93 109 162 109c114 0 174 -46 174 -155l-1 -258c0 -27 7 -48 34 -48c21 0 37 8 48 32l8 -2c-10 -59 -48 -84 -99 -84s-83 34 -83 79c-37 -56 -96 -82 -147 -82
c-90 0 -135 56 -135 115c0 110 131 151 282 151l1 147c0 60 -37 84 -86 84c-41 0 -84 -20 -79 -74c4 -41 -17 -58 -39 -58c-24 0 -40 15 -40 44zM342 683c0 -55 -46 -98 -102 -98s-102 43 -102 98s46 98 102 98s102 -43 102 -98zM304 683c0 39 -30 65 -64 65
c-37 0 -63 -29 -63 -65s26 -65 63 -65c40 0 64 29 64 65z" />
    <glyph glyph-name="ae" unicode="&#xe6;" horiz-adv-x="771" 
d="M163 -14c-90 0 -131 56 -131 115c0 106 121 151 272 151l1 147c0 60 -31 84 -80 84c-41 0 -80 -20 -75 -74c4 -41 -17 -58 -39 -58c-24 0 -40 15 -40 44c0 68 89 109 158 109c77 0 125 -25 146 -83c37 51 96 83 168 83c117 0 203 -89 203 -193h-348c-2 -20 -3 -39 -3 -55
c0 -167 71 -235 181 -235c48 0 112 20 156 72l9 -7c-55 -78 -127 -100 -195 -100c-82 0 -167 22 -211 106c-54 -93 -123 -106 -172 -106zM304 241c-89 -3 -175 -45 -175 -126c0 -47 27 -83 75 -83c31 0 83 12 123 75c-15 35 -23 79 -23 134zM402 336h252
c-3 88 -43 147 -111 147c-91 0 -126 -74 -141 -147z" />
    <glyph glyph-name="ccedilla" unicode="&#xe7;" horiz-adv-x="507" 
d="M143 256c0 -121 56 -237 186 -237c48 0 105 21 147 75l11 -9c-50 -75 -120 -99 -188 -99c-6 0 -11 1 -16 1l-46 -65c16 12 34 20 57 20c46 0 80 -22 80 -71c0 -75 -107 -118 -178 -116l-3 6c87 8 130 71 130 107c0 31 -14 47 -50 47c-16 0 -30 -6 -41 -14l-24 19l47 69
c-132 17 -214 115 -214 261c0 148 120 254 266 254c63 0 171 -27 171 -84c0 -19 -14 -33 -34 -33c-64 0 -32 93 -142 93c-117 0 -159 -126 -159 -224z" />
    <glyph glyph-name="egrave" unicode="&#xe8;" horiz-adv-x="520" 
d="M495 311h-353c-2 -20 -3 -39 -3 -55c0 -121 56 -235 186 -235c48 0 112 20 156 72l9 -7c-55 -78 -127 -100 -195 -100c-157 0 -258 102 -258 263c0 150 107 255 253 255c117 0 205 -89 205 -193zM292 483c-91 0 -131 -74 -146 -147h257c-3 88 -43 147 -111 147zM345 556
l-183 234h90l106 -234h-13z" />
    <glyph glyph-name="eacute" unicode="&#xe9;" horiz-adv-x="520" 
d="M495 311h-353c-2 -20 -3 -39 -3 -55c0 -121 56 -235 186 -235c48 0 112 20 156 72l9 -7c-55 -78 -127 -100 -195 -100c-157 0 -258 102 -258 263c0 150 107 255 253 255c117 0 205 -89 205 -193zM292 483c-91 0 -131 -74 -146 -147h257c-3 88 -43 147 -111 147zM418 790
l-183 -234h-13l106 234h90z" />
    <glyph glyph-name="ecircumflex" unicode="&#xea;" horiz-adv-x="520" 
d="M495 311h-353c-2 -20 -3 -39 -3 -55c0 -121 56 -235 186 -235c48 0 112 20 156 72l9 -7c-55 -78 -127 -100 -195 -100c-157 0 -258 102 -258 263c0 150 107 255 253 255c117 0 205 -89 205 -193zM292 483c-91 0 -131 -74 -146 -147h257c-3 88 -43 147 -111 147zM289 800
l154 -244h-11l-148 147l-156 -147h-11l163 244h9z" />
    <glyph glyph-name="edieresis" unicode="&#xeb;" horiz-adv-x="520" 
d="M495 311h-353c-2 -20 -3 -39 -3 -55c0 -121 56 -235 186 -235c48 0 112 20 156 72l9 -7c-55 -78 -127 -100 -195 -100c-157 0 -258 102 -258 263c0 150 107 255 253 255c117 0 205 -89 205 -193zM292 483c-91 0 -131 -74 -146 -147h257c-3 88 -43 147 -111 147zM119 685
c0 36 29 65 65 65s65 -29 65 -65s-29 -65 -65 -65s-65 29 -65 65zM331 685c0 36 29 65 65 65s65 -29 65 -65s-29 -65 -65 -65s-65 29 -65 65z" />
    <glyph glyph-name="igrave" unicode="&#xec;" horiz-adv-x="304" 
d="M198 481v-405c0 -43 12 -55 57 -55h25v-21h-256v21h25c45 0 57 12 57 55v329c0 43 -12 55 -57 55h-25v21h174zM219 556l-183 234h90l106 -234h-13z" />
    <glyph glyph-name="iacute" unicode="&#xed;" horiz-adv-x="304" 
d="M198 481v-405c0 -43 12 -55 57 -55h25v-21h-256v21h25c45 0 57 12 57 55v329c0 43 -12 55 -57 55h-25v21h174zM250 790l-183 -234h-13l106 234h90z" />
    <glyph glyph-name="icircumflex" unicode="&#xee;" horiz-adv-x="304" 
d="M198 481v-405c0 -43 12 -55 57 -55h25v-21h-256v21h25c45 0 57 12 57 55v329c0 43 -12 55 -57 55h-25v21h174zM142 800l154 -244h-11l-148 147l-156 -147h-11l163 244h9z" />
    <glyph glyph-name="idieresis" unicode="&#xef;" horiz-adv-x="304" 
d="M198 481v-405c0 -43 12 -55 57 -55h25v-21h-256v21h25c45 0 57 12 57 55v329c0 43 -12 55 -57 55h-25v21h174zM-29 685c0 36 29 65 65 65s65 -29 65 -65s-29 -65 -65 -65s-65 29 -65 65zM183 685c0 36 29 65 65 65s65 -29 65 -65s-29 -65 -65 -65s-65 29 -65 65z" />
    <glyph glyph-name="eth" unicode="&#xf0;" horiz-adv-x="565" 
d="M197 558l-31 31l110 119c-49 46 -109 85 -183 117l5 11c67 -20 138 -55 203 -100l93 101l31 -30l-89 -97c129 -101 231 -247 231 -418c0 -177 -101 -306 -262 -306c-153 0 -260 117 -260 257c0 195 151 260 236 260c59 0 116 -23 158 -71c-25 89 -67 173 -133 245z
M309 462c-95 0 -160 -93 -160 -213c0 -136 59 -234 159 -234c93 0 159 105 159 224c0 50 -6 99 -17 149l-5 20c-39 42 -95 54 -136 54z" />
    <glyph glyph-name="ntilde" unicode="&#xf1;" horiz-adv-x="637" 
d="M106 76v329c0 43 -12 55 -57 55h-25v21h174v-105c20 74 90 128 170 128c46 0 85 -14 115 -40c34 -30 55 -71 55 -155v-233c0 -43 12 -55 57 -55h25v-21h-256v21h25c45 0 57 12 57 55v242c0 50 -14 84 -34 104c-19 19 -50 34 -87 34c-66 0 -124 -54 -127 -120v-260
c0 -43 12 -55 57 -55h25v-21h-256v21h25c45 0 57 12 57 55zM465 708l45 47l7 -4l-47 -117h-258l-45 -47l-7 4l47 117h258z" />
    <glyph glyph-name="ograve" unicode="&#xf2;" horiz-adv-x="618" 
d="M47 245c0 148 119 259 262 259s262 -111 262 -259s-119 -259 -262 -259s-262 110 -262 259zM309 7c126 0 160 143 160 238c0 97 -34 238 -160 238c-124 0 -160 -138 -160 -238c0 -97 34 -238 160 -238zM386 556l-183 234h90l106 -234h-13z" />
    <glyph glyph-name="oacute" unicode="&#xf3;" horiz-adv-x="618" 
d="M47 245c0 148 119 259 262 259s262 -111 262 -259s-119 -259 -262 -259s-262 110 -262 259zM309 7c126 0 160 143 160 238c0 97 -34 238 -160 238c-124 0 -160 -138 -160 -238c0 -97 34 -238 160 -238zM452 790l-183 -234h-13l106 234h90z" />
    <glyph glyph-name="ocircumflex" unicode="&#xf4;" horiz-adv-x="618" 
d="M47 245c0 148 119 259 262 259s262 -111 262 -259s-119 -259 -262 -259s-262 110 -262 259zM309 7c126 0 160 143 160 238c0 97 -34 238 -160 238c-124 0 -160 -138 -160 -238c0 -97 34 -238 160 -238zM318 800l154 -244h-11l-148 147l-156 -147h-11l163 244h9z" />
    <glyph glyph-name="otilde" unicode="&#xf5;" horiz-adv-x="618" 
d="M47 245c0 148 119 259 262 259s262 -111 262 -259s-119 -259 -262 -259s-262 110 -262 259zM309 7c126 0 160 143 160 238c0 97 -34 238 -160 238c-124 0 -160 -138 -160 -238c0 -97 34 -238 160 -238zM442 708l45 47l7 -4l-47 -117h-258l-45 -47l-7 4l47 117h258z" />
    <glyph glyph-name="odieresis" unicode="&#xf6;" horiz-adv-x="618" 
d="M47 245c0 148 119 259 262 259s262 -111 262 -259s-119 -259 -262 -259s-262 110 -262 259zM309 7c126 0 160 143 160 238c0 97 -34 238 -160 238c-124 0 -160 -138 -160 -238c0 -97 34 -238 160 -238zM142 685c0 36 29 65 65 65s65 -29 65 -65s-29 -65 -65 -65
s-65 29 -65 65zM354 685c0 36 29 65 65 65s65 -29 65 -65s-29 -65 -65 -65s-65 29 -65 65z" />
    <glyph glyph-name="divide" unicode="&#xf7;" horiz-adv-x="554" 
d="M50 233v43h454v-43h-454zM208 427c0 36 29 65 65 65s65 -29 65 -65s-29 -65 -65 -65s-65 29 -65 65zM208 85c0 36 29 65 65 65s65 -29 65 -65s-29 -65 -65 -65s-65 29 -65 65z" />
    <glyph glyph-name="oslash" unicode="&#xf8;" horiz-adv-x="618" 
d="M47 245c0 138 104 244 235 257v97h41v-96c136 -7 248 -115 248 -258s-112 -251 -248 -258v-90h-41v91c-131 12 -235 117 -235 257zM469 245c0 93 -32 227 -146 237v-474c114 10 146 145 146 237zM149 245c0 -90 29 -217 133 -236v471c-103 -18 -133 -143 -133 -235z" />
    <glyph glyph-name="ugrave" unicode="&#xf9;" horiz-adv-x="613" 
d="M4 481h174v-324c0 -74 41 -125 116 -125c57 0 110 49 125 105v268c0 43 -12 55 -57 55h-25v21h174v-405c0 -43 12 -55 57 -55h25v-21h-174v109c-26 -74 -90 -125 -165 -125c-99 0 -168 65 -168 174v247c0 43 -12 55 -57 55h-25v21zM363 556l-183 234h90l106 -234h-13z
" />
    <glyph glyph-name="uacute" unicode="&#xfa;" horiz-adv-x="613" 
d="M4 481h174v-324c0 -74 41 -125 116 -125c57 0 110 49 125 105v268c0 43 -12 55 -57 55h-25v21h174v-405c0 -43 12 -55 57 -55h25v-21h-174v109c-26 -74 -90 -125 -165 -125c-99 0 -168 65 -168 174v247c0 43 -12 55 -57 55h-25v21zM424 790l-183 -234h-13l106 234h90z
" />
    <glyph glyph-name="ucircumflex" unicode="&#xfb;" horiz-adv-x="613" 
d="M4 481h174v-324c0 -74 41 -125 116 -125c57 0 110 49 125 105v268c0 43 -12 55 -57 55h-25v21h174v-405c0 -43 12 -55 57 -55h25v-21h-174v109c-26 -74 -90 -125 -165 -125c-99 0 -168 65 -168 174v247c0 43 -12 55 -57 55h-25v21zM305 800l154 -244h-11l-148 147
l-156 -147h-11l163 244h9z" />
    <glyph glyph-name="udieresis" unicode="&#xfc;" horiz-adv-x="613" 
d="M4 481h174v-324c0 -74 41 -125 116 -125c57 0 110 49 125 105v268c0 43 -12 55 -57 55h-25v21h174v-405c0 -43 12 -55 57 -55h25v-21h-174v109c-26 -74 -90 -125 -165 -125c-99 0 -168 65 -168 174v247c0 43 -12 55 -57 55h-25v21zM123 685c0 36 29 65 65 65
s65 -29 65 -65s-29 -65 -65 -65s-65 29 -65 65zM335 685c0 36 29 65 65 65s65 -29 65 -65s-29 -65 -65 -65s-65 29 -65 65z" />
    <glyph glyph-name="yacute" unicode="&#xfd;" horiz-adv-x="534" 
d="M277 92l114 275c21 51 12 93 -32 93h-18v21h193v-21c-57 0 -84 -36 -101 -77l-235 -560c-47 -113 -96 -121 -138 -121c-43 0 -93 21 -93 56c0 20 15 37 37 37c44 0 39 -59 76 -59c28 0 52 10 89 100l62 154l-174 418c-15 37 -29 52 -85 52v21h237v-21
c-50 0 -65 -8 -55 -34zM405 790l-183 -234h-13l106 234h90z" />
    <glyph glyph-name="thorn" unicode="&#xfe;" horiz-adv-x="667" 
d="M34 817h174v-370c44 41 98 57 151 57c152 0 261 -111 261 -257s-110 -261 -261 -261c-57 0 -108 15 -151 52v-245c0 -52 19 -64 77 -64h25v-21h-276v21h25c45 0 57 12 57 55v957c0 43 -12 55 -57 55h-25v21zM325 475c-43 0 -79 -11 -117 -43v-380c33 -25 68 -37 113 -37
c124 0 197 105 197 232c0 129 -76 228 -193 228z" />
    <glyph glyph-name="ydieresis" unicode="&#xff;" horiz-adv-x="534" 
d="M277 92l114 275c21 51 12 93 -32 93h-18v21h193v-21c-57 0 -84 -36 -101 -77l-235 -560c-47 -113 -96 -121 -138 -121c-43 0 -93 21 -93 56c0 20 15 37 37 37c44 0 39 -59 76 -59c28 0 52 10 89 100l62 154l-174 418c-15 37 -29 52 -85 52v21h237v-21
c-50 0 -65 -8 -55 -34zM96 685c0 36 29 65 65 65s65 -29 65 -65s-29 -65 -65 -65s-65 29 -65 65zM308 685c0 36 29 65 65 65s65 -29 65 -65s-29 -65 -65 -65s-65 29 -65 65z" />
    <glyph glyph-name="Abreve" unicode="&#x102;" horiz-adv-x="843" 
d="M136 145l282 696h13l309 -761c16 -38 39 -59 79 -59h24v-21h-285v21h22c40 0 67 12 52 49l-90 223h-304l-55 -134c-50 -122 -34 -138 39 -138h17v-21h-239v21h10c57 0 82 16 126 124zM392 667l-126 -306h249zM542 1045h43c-16 -140 -119 -160 -166 -160
c-51 0 -148 20 -164 160h45c14 -82 58 -120 122 -120c62 0 106 38 120 120z" />
    <glyph glyph-name="Amacron" unicode="&#x100;" horiz-adv-x="843" 
d="M136 145l282 696h13l309 -761c16 -38 39 -59 79 -59h24v-21h-285v21h22c40 0 67 12 52 49l-90 223h-304l-55 -134c-50 -122 -34 -138 39 -138h17v-21h-239v21h10c57 0 82 16 126 124zM392 667l-126 -306h249zM256 915v47h334v-47h-334z" />
    <glyph glyph-name="Aogonek" unicode="&#x104;" horiz-adv-x="843" 
d="M763 -205l3 -8c-25 -16 -60 -29 -94 -29c-50 0 -96 24 -96 84c0 64 65 114 139 158h-157v21h22c40 0 67 12 52 49l-90 223h-304l-55 -134c-50 -122 -34 -138 39 -138h17v-21h-239v21h10c57 0 82 16 126 124l282 696h13l309 -761c16 -38 39 -59 79 -59h24v-21h-117
c-46 -44 -77 -97 -77 -140c0 -66 68 -81 114 -65zM392 667l-126 -306h249z" />
    <glyph glyph-name="Cacute" unicode="&#x106;" horiz-adv-x="863" 
d="M813 221v-145c-90 -68 -212 -90 -314 -90c-304 0 -453 204 -453 421c0 261 196 426 453 426c116 0 218 -27 307 -77v-148h-11c-62 142 -192 192 -298 192c-166 0 -330 -117 -330 -396c0 -261 160 -385 328 -385c113 0 241 32 307 202h11zM608 1086l-183 -234h-13l106 234
h90z" />
    <glyph glyph-name="Ccaron" unicode="&#x10c;" horiz-adv-x="863" 
d="M813 221v-145c-90 -68 -212 -90 -314 -90c-304 0 -453 204 -453 421c0 261 196 426 453 426c116 0 218 -27 307 -77v-148h-11c-62 142 -192 192 -298 192c-166 0 -330 -117 -330 -396c0 -261 160 -385 328 -385c113 0 241 32 307 202h11zM643 1101l-154 -244h-9l-163 244
h11l156 -151l148 151h11z" />
    <glyph glyph-name="Ccircumflex" unicode="&#x108;" horiz-adv-x="863" 
d="M813 221v-145c-90 -68 -212 -90 -314 -90c-304 0 -453 204 -453 421c0 261 196 426 453 426c116 0 218 -27 307 -77v-148h-11c-62 142 -192 192 -298 192c-166 0 -330 -117 -330 -396c0 -261 160 -385 328 -385c113 0 241 32 307 202h11zM499 1096l154 -244h-11l-148 147
l-156 -147h-11l163 244h9z" />
    <glyph glyph-name="Cdotaccent" unicode="&#x10a;" horiz-adv-x="863" 
d="M813 221v-145c-90 -68 -212 -90 -314 -90c-304 0 -453 204 -453 421c0 261 196 426 453 426c116 0 218 -27 307 -77v-148h-11c-62 142 -192 192 -298 192c-166 0 -330 -117 -330 -396c0 -261 160 -385 328 -385c113 0 241 32 307 202h11zM417 961c0 36 28 65 64 65
s65 -29 65 -65s-29 -64 -65 -64s-64 28 -64 64z" />
    <glyph glyph-name="Dcaron" unicode="&#x10e;" horiz-adv-x="918" 
d="M258 787v-702c0 -49 28 -56 134 -56h18c178 0 343 102 343 387c0 296 -212 371 -402 371h-93zM55 817h326c319 0 491 -151 491 -403c0 -245 -169 -414 -438 -414h-379v21h36c45 0 63 12 63 55v665c0 43 -18 55 -63 55h-36v21zM553 1101l-154 -244h-9l-163 244h11
l156 -151l148 151h11z" />
    <glyph glyph-name="Dcroat" unicode="&#x110;" horiz-adv-x="918" 
d="M0 398v36h154v307c0 43 -18 55 -63 55h-36v21h326c319 0 491 -151 491 -403c0 -245 -169 -414 -438 -414h-379v21h36c45 0 63 12 63 55v322h-154zM258 787v-353h181v-36h-181v-313c0 -49 28 -56 134 -56h18c178 0 343 102 343 387c0 296 -212 371 -402 371h-93z" />
    <glyph glyph-name="Ebreve" unicode="&#x114;" 
d="M154 76v665c0 43 -18 55 -63 55h-36v21h598v-170h-10c-15 92 -69 133 -191 133h-194v-328h130c68 0 132 7 147 102h10v-239h-10c-16 96 -79 102 -147 102h-130v-327c0 -44 26 -53 64 -53h182c106 0 160 53 175 149h10v-186h-634v21h36c45 0 63 12 63 55zM514 1045h43
c-16 -140 -119 -160 -166 -160c-51 0 -148 20 -164 160h45c14 -82 58 -120 122 -120c62 0 106 38 120 120z" />
    <glyph glyph-name="Ecaron" unicode="&#x11a;" 
d="M154 76v665c0 43 -18 55 -63 55h-36v21h598v-170h-10c-15 92 -69 133 -191 133h-194v-328h130c68 0 132 7 147 102h10v-239h-10c-16 96 -79 102 -147 102h-130v-327c0 -44 26 -53 64 -53h182c106 0 160 53 175 149h10v-186h-634v21h36c45 0 63 12 63 55zM564 1101
l-154 -244h-9l-163 244h11l156 -151l148 151h11z" />
    <glyph glyph-name="Emacron" unicode="&#x112;" 
d="M154 76v665c0 43 -18 55 -63 55h-36v21h598v-170h-10c-15 92 -69 133 -191 133h-194v-328h130c68 0 132 7 147 102h10v-239h-10c-16 96 -79 102 -147 102h-130v-327c0 -44 26 -53 64 -53h182c106 0 160 53 175 149h10v-186h-634v21h36c45 0 63 12 63 55zM225 915v47h334
v-47h-334z" />
    <glyph glyph-name="Eogonek" unicode="&#x118;" 
d="M464 -205l3 -8c-25 -16 -60 -29 -94 -29c-50 0 -96 24 -96 84c0 64 65 114 139 158h-361v21h36c45 0 63 12 63 55v665c0 43 -18 55 -63 55h-36v21h598v-170h-10c-15 92 -69 133 -191 133h-194v-328h130c68 0 132 7 147 102h10v-239h-10c-16 96 -79 102 -147 102h-130
v-327c0 -44 26 -53 64 -53h182c106 0 160 53 175 149h10v-186h-262c-46 -44 -77 -97 -77 -140c0 -66 68 -81 114 -65z" />
    <glyph glyph-name="Edotaccent" unicode="&#x116;" 
d="M154 76v665c0 43 -18 55 -63 55h-36v21h598v-170h-10c-15 92 -69 133 -191 133h-194v-328h130c68 0 132 7 147 102h10v-239h-10c-16 96 -79 102 -147 102h-130v-327c0 -44 26 -53 64 -53h182c106 0 160 53 175 149h10v-186h-634v21h36c45 0 63 12 63 55zM337 961
c0 36 28 65 64 65s65 -29 65 -65s-29 -64 -65 -64s-64 28 -64 64z" />
    <glyph glyph-name="Gbreve" unicode="&#x11e;" horiz-adv-x="921" 
d="M718 147v124c0 22 -18 34 -40 34h-40v21h263v-21h-39c-22 0 -40 -12 -40 -34v-115c0 -103 -146 -170 -319 -170c-307 0 -457 204 -457 421c0 261 206 426 453 426c116 0 218 -27 307 -77v-115h-6c-66 128 -197 159 -303 159c-166 0 -330 -117 -330 -396
c0 -261 160 -385 328 -385c83 0 223 8 223 128zM598 1045h43c-16 -140 -119 -160 -166 -160c-51 0 -148 20 -164 160h45c14 -82 58 -120 122 -120c62 0 106 38 120 120z" />
    <glyph glyph-name="Gcircumflex" unicode="&#x11c;" horiz-adv-x="921" 
d="M718 147v124c0 22 -18 34 -40 34h-40v21h263v-21h-39c-22 0 -40 -12 -40 -34v-115c0 -103 -146 -170 -319 -170c-307 0 -457 204 -457 421c0 261 206 426 453 426c116 0 218 -27 307 -77v-115h-6c-66 128 -197 159 -303 159c-166 0 -330 -117 -330 -396
c0 -261 160 -385 328 -385c83 0 223 8 223 128zM495 1096l154 -244h-11l-148 147l-156 -147h-11l163 244h9z" />
    <glyph glyph-name="Gcommaaccent" unicode="&#x122;" horiz-adv-x="921" 
d="M718 147v124c0 22 -18 34 -40 34h-40v21h263v-21h-39c-22 0 -40 -12 -40 -34v-115c0 -103 -146 -170 -319 -170c-307 0 -457 204 -457 421c0 261 206 426 453 426c116 0 218 -27 307 -77v-115h-6c-66 128 -197 159 -303 159c-166 0 -330 -117 -330 -396
c0 -261 160 -385 328 -385c83 0 223 8 223 128zM431 -107c0 33 21 59 58 59c39 0 59 -30 59 -68c0 -73 -67 -131 -125 -156l-4 8c29 17 67 62 67 99c-31 1 -55 27 -55 58z" />
    <glyph glyph-name="Gdotaccent" unicode="&#x120;" horiz-adv-x="921" 
d="M718 147v124c0 22 -18 34 -40 34h-40v21h263v-21h-39c-22 0 -40 -12 -40 -34v-115c0 -103 -146 -170 -319 -170c-307 0 -457 204 -457 421c0 261 206 426 453 426c116 0 218 -27 307 -77v-115h-6c-66 128 -197 159 -303 159c-166 0 -330 -117 -330 -396
c0 -261 160 -385 328 -385c83 0 223 8 223 128zM446 961c0 36 28 65 64 65s65 -29 65 -65s-29 -64 -65 -64s-64 28 -64 64z" />
    <glyph glyph-name="Hbar" unicode="&#x126;" horiz-adv-x="952" 
d="M55 604v36h99v101c0 43 -18 55 -63 55h-36v21h302v-21h-36c-45 0 -63 -12 -63 -55v-101h436v101c0 43 -18 55 -63 55h-36v21h302v-21h-36c-45 0 -63 -12 -63 -55v-101h99v-36h-99v-528c0 -43 18 -55 63 -55h36v-21h-302v21h36c45 0 63 12 63 55v338h-436v-338
c0 -43 18 -55 63 -55h36v-21h-302v21h36c45 0 63 12 63 55v528h-99zM258 453h436v151h-436v-151z" />
    <glyph glyph-name="Hcircumflex" unicode="&#x124;" horiz-adv-x="952" 
d="M694 76v338h-436v-338c0 -43 18 -55 63 -55h36v-21h-302v21h36c45 0 63 12 63 55v665c0 43 -18 55 -63 55h-36v21h302v-21h-36c-45 0 -63 -12 -63 -55v-288h436v288c0 43 -18 55 -63 55h-36v21h302v-21h-36c-45 0 -63 -12 -63 -55v-665c0 -43 18 -55 63 -55h36v-21h-302
v21h36c45 0 63 12 63 55zM494 1096l154 -244h-11l-148 147l-156 -147h-11l163 244h9z" />
    <glyph glyph-name="Ibreve" unicode="&#x12c;" horiz-adv-x="412" 
d="M154 76v665c0 43 -18 55 -63 55h-36v21h302v-21h-36c-45 0 -63 -12 -63 -55v-665c0 -43 18 -55 63 -55h36v-21h-302v21h36c45 0 63 12 63 55zM328 1045h43c-16 -140 -119 -160 -166 -160c-51 0 -148 20 -164 160h45c14 -82 58 -120 122 -120c62 0 106 38 120 120z" />
    <glyph glyph-name="Idotaccent" unicode="&#x130;" horiz-adv-x="412" 
d="M154 76v665c0 43 -18 55 -63 55h-36v21h302v-21h-36c-45 0 -63 -12 -63 -55v-665c0 -43 18 -55 63 -55h36v-21h-302v21h36c45 0 63 12 63 55zM141 961c0 36 28 65 64 65s65 -29 65 -65s-29 -64 -65 -64s-64 28 -64 64z" />
    <glyph glyph-name="Imacron" unicode="&#x12a;" horiz-adv-x="412" 
d="M154 76v665c0 43 -18 55 -63 55h-36v21h302v-21h-36c-45 0 -63 -12 -63 -55v-665c0 -43 18 -55 63 -55h36v-21h-302v21h36c45 0 63 12 63 55zM38 915v47h334v-47h-334z" />
    <glyph glyph-name="Iogonek" unicode="&#x12e;" horiz-adv-x="412" 
d="M278 -205l3 -8c-25 -16 -60 -29 -94 -29c-50 0 -96 24 -96 84c0 64 65 114 139 158h-175v21h36c45 0 63 12 63 55v665c0 43 -18 55 -63 55h-36v21h302v-21h-36c-45 0 -63 -12 -63 -55v-665c0 -43 18 -55 63 -55h36v-21h-116c-46 -44 -77 -97 -77 -140
c0 -66 68 -81 114 -65z" />
    <glyph glyph-name="Itilde" unicode="&#x128;" horiz-adv-x="412" 
d="M342 1004l45 47l7 -4l-47 -122h-258l-45 -47l-7 4l47 122h258zM154 76v665c0 43 -18 55 -63 55h-36v21h302v-21h-36c-45 0 -63 -12 -63 -55v-665c0 -43 18 -55 63 -55h36v-21h-302v21h36c45 0 63 12 63 55z" />
    <glyph glyph-name="uni1ECA" unicode="&#x1eca;" horiz-adv-x="412" 
d="M154 76v665c0 43 -18 55 -63 55h-36v21h302v-21h-36c-45 0 -63 -12 -63 -55v-665c0 -43 18 -55 63 -55h36v-21h-302v21h36c45 0 63 12 63 55zM136 -158c0 36 28 65 64 65s65 -29 65 -65s-29 -64 -65 -64s-64 28 -64 64z" />
    <glyph glyph-name="Jcircumflex" unicode="&#x134;" horiz-adv-x="483" 
d="M240 298v443c0 43 -23 55 -73 55h-36v21h312v-21h-36c-45 0 -63 -12 -63 -55v-443c0 -152 -15 -312 -186 -312c-105 0 -150 57 -150 90c0 25 18 40 41 40c24 0 38 -13 48 -45c14 -45 30 -66 63 -66c70 0 80 82 80 293zM289 1096l154 -244h-11l-148 147l-156 -147h-11
l163 244h9z" />
    <glyph glyph-name="Kcommaaccent" unicode="&#x136;" horiz-adv-x="808" 
d="M154 76v665c0 43 -18 55 -63 55h-36v21h302v-21h-36c-45 0 -63 -12 -63 -55v-325l255 253c92 92 104 127 -1 127v21h262v-21c-84 0 -129 -46 -222 -136l-205 -200l357 -407c22 -26 64 -32 104 -32v-21h-303v21c61 0 87 1 59 34l-306 352v-331c0 -43 18 -55 63 -55h36v-21
h-302v21h36c45 0 63 12 63 55zM364 -107c0 33 21 59 58 59c39 0 59 -30 59 -68c0 -73 -67 -131 -125 -156l-4 8c29 17 67 62 67 99c-31 1 -55 27 -55 58z" />
    <glyph glyph-name="Lacute" unicode="&#x139;" 
d="M154 76v665c0 43 -18 55 -63 55h-36v21h302v-21h-36c-45 0 -63 -12 -63 -55v-647c0 -49 26 -58 69 -58h163c128 0 174 64 189 160h10v-196h-634v21h36c45 0 63 12 63 55zM431 1086l-183 -234h-13l106 234h90z" />
    <glyph glyph-name="Lcaron" unicode="&#x13d;" 
d="M154 76v665c0 43 -18 55 -63 55h-36v21h302v-21h-36c-45 0 -63 -12 -63 -55v-647c0 -49 26 -58 69 -58h163c128 0 174 64 189 160h10v-196h-634v21h36c45 0 63 12 63 55zM415 724c0 33 21 59 58 59c39 0 59 -30 59 -68c0 -73 -67 -131 -125 -156l-4 8c29 17 67 62 67 99
c-31 1 -55 27 -55 58z" />
    <glyph glyph-name="Lcommaaccent" unicode="&#x13b;" 
d="M154 76v665c0 43 -18 55 -63 55h-36v21h302v-21h-36c-45 0 -63 -12 -63 -55v-647c0 -49 26 -58 69 -58h163c128 0 174 64 189 160h10v-196h-634v21h36c45 0 63 12 63 55zM339 -107c0 33 21 59 58 59c39 0 59 -30 59 -68c0 -73 -67 -131 -125 -156l-4 8c29 17 67 62 67 99
c-31 1 -55 27 -55 58z" />
    <glyph glyph-name="Ldot" unicode="&#x13f;" 
d="M154 76v665c0 43 -18 55 -63 55h-36v21h302v-21h-36c-45 0 -63 -12 -63 -55v-647c0 -49 26 -58 69 -58h163c128 0 174 64 189 160h10v-196h-634v21h36c45 0 63 12 63 55zM502 439c0 36 28 65 64 65s65 -29 65 -65s-29 -64 -65 -64s-64 28 -64 64z" />
    <glyph glyph-name="Lslash" unicode="&#x141;" 
d="M37 285l-20 35l137 80v341c0 43 -18 55 -63 55h-36v21h302v-21h-36c-45 0 -63 -12 -63 -55v-280l125 73l19 -35l-144 -85v-320c0 -49 26 -58 69 -58h163c128 0 174 64 189 160h10v-196h-634v21h36c45 0 63 12 63 55v277z" />
    <glyph glyph-name="Eng" unicode="&#x14a;" horiz-adv-x="913" 
d="M707 35v49l-501 593v-556c0 -70 12 -100 72 -100h38v-21h-261v21h30c57 0 79 29 79 100v586c0 64 -66 88 -108 88v22h182l519 -628v507c0 70 -12 100 -72 100h-38v21h261v-21h-30c-57 0 -79 -29 -79 -100v-661c0 -124 -18 -267 -171 -359l-7 10c81 85 86 200 86 349z" />
    <glyph glyph-name="Nacute" unicode="&#x143;" horiz-adv-x="913" 
d="M757 189v507c0 70 -12 100 -72 100h-38v21h261v-21h-30c-57 0 -79 -29 -79 -100v-710h-9l-584 691v-556c0 -70 12 -100 72 -100h38v-21h-261v21h30c57 0 79 29 79 100v586c0 64 -66 88 -108 88v22h182zM628 1086l-183 -234h-13l106 234h90z" />
    <glyph glyph-name="Ncaron" unicode="&#x147;" horiz-adv-x="913" 
d="M757 189v507c0 70 -12 100 -72 100h-38v21h261v-21h-30c-57 0 -79 -29 -79 -100v-710h-9l-584 691v-556c0 -70 12 -100 72 -100h38v-21h-261v21h30c57 0 79 29 79 100v586c0 64 -66 88 -108 88v22h182zM646 1101l-154 -244h-9l-163 244h11l156 -151l148 151h11z" />
    <glyph glyph-name="Ncommaaccent" unicode="&#x145;" horiz-adv-x="913" 
d="M757 189v507c0 70 -12 100 -72 100h-38v21h261v-21h-30c-57 0 -79 -29 -79 -100v-710h-9l-584 691v-556c0 -70 12 -100 72 -100h38v-21h-261v21h30c57 0 79 29 79 100v586c0 64 -66 88 -108 88v22h182zM429 -107c0 33 21 59 58 59c39 0 59 -30 59 -68
c0 -73 -67 -131 -125 -156l-4 8c29 17 67 62 67 99c-31 1 -55 27 -55 58z" />
    <glyph glyph-name="OE" unicode="&#x152;" horiz-adv-x="1123" 
d="M907 417v-6c0 -184 -104 -324 -254 -374h239c97 0 151 33 166 129h10v-166h-589c-241 0 -429 157 -429 416c0 260 188 401 429 401h583v-150h-10c-15 92 -69 113 -165 113h-232c140 -45 237 -168 250 -328h12c68 0 105 7 120 102h10v-239h-10c-16 96 -52 102 -120 102
h-10zM167 413c0 -263 133 -371 280 -384v759c-147 -12 -280 -110 -280 -375zM790 414v3h-238v-380h4c128 30 234 141 234 377zM552 780v-328h237c-11 207 -110 301 -228 328h-9z" />
    <glyph glyph-name="Obreve" unicode="&#x14e;" horiz-adv-x="957" 
d="M790 407c0 284 -152 399 -311 399s-312 -115 -312 -399c0 -282 153 -392 312 -392s311 110 311 392zM911 404c0 -259 -192 -418 -432 -418c-241 0 -433 165 -433 424c0 260 192 425 433 425c240 0 432 -172 432 -431zM601 1045h43c-16 -140 -119 -160 -166 -160
c-51 0 -148 20 -164 160h45c14 -82 58 -120 122 -120c62 0 106 38 120 120z" />
    <glyph glyph-name="Ohungarumlaut" unicode="&#x150;" horiz-adv-x="957" 
d="M790 407c0 284 -152 399 -311 399s-312 -115 -312 -399c0 -282 153 -392 312 -392s311 110 311 392zM911 404c0 -259 -192 -418 -432 -418c-241 0 -433 165 -433 424c0 260 192 425 433 425c240 0 432 -172 432 -431zM552 1086l-163 -234h-13l86 234h90zM703 1086
l-163 -234h-13l86 234h90z" />
    <glyph glyph-name="Omacron" unicode="&#x14c;" horiz-adv-x="957" 
d="M790 407c0 284 -152 399 -311 399s-312 -115 -312 -399c0 -282 153 -392 312 -392s311 110 311 392zM911 404c0 -259 -192 -418 -432 -418c-241 0 -433 165 -433 424c0 260 192 425 433 425c240 0 432 -172 432 -431zM314 915v47h334v-47h-334z" />
    <glyph glyph-name="uni1ECC" unicode="&#x1ecc;" horiz-adv-x="957" 
d="M790 407c0 284 -152 399 -311 399s-312 -115 -312 -399c0 -282 153 -392 312 -392s311 110 311 392zM911 404c0 -259 -192 -418 -432 -418c-241 0 -433 165 -433 424c0 260 192 425 433 425c240 0 432 -172 432 -431zM418 -158c0 36 28 65 64 65s65 -29 65 -65
s-29 -64 -65 -64s-64 28 -64 64z" />
    <glyph glyph-name="Racute" unicode="&#x154;" horiz-adv-x="830" 
d="M258 785v-369h37c139 0 242 30 242 191c0 137 -85 187 -238 180zM55 817h263c173 0 331 -23 331 -203c0 -106 -82 -188 -216 -207c114 -23 178 -83 209 -192c42 -149 63 -209 185 -205l3 -12c-32 -9 -63 -12 -89 -12c-122 0 -180 79 -215 219c-36 143 -118 184 -238 184
h-30v-306c0 -50 18 -62 74 -62h35v-21h-312v21h36c45 0 63 12 63 55v665c0 43 -18 55 -63 55h-36v21zM524 1086l-183 -234h-13l106 234h90z" />
    <glyph glyph-name="Rcaron" unicode="&#x158;" horiz-adv-x="830" 
d="M258 785v-369h37c139 0 242 30 242 191c0 137 -85 187 -238 180zM55 817h263c173 0 331 -23 331 -203c0 -106 -82 -188 -216 -207c114 -23 178 -83 209 -192c42 -149 63 -209 185 -205l3 -12c-32 -9 -63 -12 -89 -12c-122 0 -180 79 -215 219c-36 143 -118 184 -238 184
h-30v-306c0 -50 18 -62 74 -62h35v-21h-312v21h36c45 0 63 12 63 55v665c0 43 -18 55 -63 55h-36v21zM517 1101l-154 -244h-9l-163 244h11l156 -151l148 151h11z" />
    <glyph glyph-name="Rcommaaccent" unicode="&#x156;" horiz-adv-x="830" 
d="M378 -107c0 33 21 59 58 59c39 0 59 -30 59 -68c0 -73 -67 -131 -125 -156l-4 8c29 17 67 62 67 99c-31 1 -55 27 -55 58zM258 785v-369h37c139 0 242 30 242 191c0 137 -85 187 -238 180zM55 817h263c173 0 331 -23 331 -203c0 -106 -82 -188 -216 -207
c114 -23 178 -83 209 -192c42 -149 63 -209 185 -205l3 -12c-32 -9 -63 -12 -89 -12c-122 0 -180 79 -215 219c-36 143 -118 184 -238 184h-30v-306c0 -50 18 -62 74 -62h35v-21h-312v21h36c45 0 63 12 63 55v665c0 43 -18 55 -63 55h-36v21z" />
    <glyph glyph-name="Sacute" unicode="&#x15a;" horiz-adv-x="637" 
d="M300 22c128 0 190 74 190 166c0 80 -42 146 -166 188l-94 32c-122 42 -171 118 -171 209c0 142 110 218 254 218c100 0 162 -21 219 -55v-122h-10c-45 114 -120 146 -206 146c-92 0 -162 -64 -162 -142c0 -68 26 -121 125 -156l74 -26c98 -34 234 -83 234 -245
c0 -149 -104 -249 -274 -249c-106 0 -195 23 -263 70v138h10c66 -166 158 -172 240 -172zM467 1086l-183 -234h-13l106 234h90z" />
    <glyph glyph-name="Scaron" unicode="&#x160;" horiz-adv-x="637" 
d="M300 22c128 0 190 74 190 166c0 80 -42 146 -166 188l-94 32c-122 42 -171 118 -171 209c0 142 110 218 254 218c100 0 162 -21 219 -55v-122h-10c-45 114 -120 146 -206 146c-92 0 -162 -64 -162 -142c0 -68 26 -121 125 -156l74 -26c98 -34 234 -83 234 -245
c0 -149 -104 -249 -274 -249c-106 0 -195 23 -263 70v138h10c66 -166 158 -172 240 -172zM483 1101l-154 -244h-9l-163 244h11l156 -151l148 151h11z" />
    <glyph glyph-name="Scedilla" unicode="&#x15e;" horiz-adv-x="637" 
d="M300 22c128 0 190 74 190 166c0 80 -42 146 -166 188l-94 32c-122 42 -171 118 -171 209c0 142 110 218 254 218c100 0 162 -21 219 -55v-122h-10c-45 114 -120 146 -206 146c-92 0 -162 -64 -162 -142c0 -68 26 -121 125 -156l74 -26c98 -34 234 -83 234 -245
c0 -148 -102 -247 -269 -249l-46 -64c16 12 34 20 57 20c46 0 80 -22 80 -71c0 -75 -107 -118 -178 -116l-3 6c87 8 130 71 130 107c0 31 -14 47 -50 47c-16 0 -30 -6 -41 -14l-24 19l45 67c-95 3 -176 25 -238 69v138h10c66 -166 158 -172 240 -172z" />
    <glyph glyph-name="Scircumflex" unicode="&#x15c;" horiz-adv-x="637" 
d="M300 22c128 0 190 74 190 166c0 80 -42 146 -166 188l-94 32c-122 42 -171 118 -171 209c0 142 110 218 254 218c100 0 162 -21 219 -55v-122h-10c-45 114 -120 146 -206 146c-92 0 -162 -64 -162 -142c0 -68 26 -121 125 -156l74 -26c98 -34 234 -83 234 -245
c0 -149 -104 -249 -274 -249c-106 0 -195 23 -263 70v138h10c66 -166 158 -172 240 -172zM328 1096l154 -244h-11l-148 147l-156 -147h-11l163 244h9z" />
    <glyph glyph-name="Scommaaccent" unicode="&#x218;" horiz-adv-x="637" 
d="M300 22c128 0 190 74 190 166c0 80 -42 146 -166 188l-94 32c-122 42 -171 118 -171 209c0 142 110 218 254 218c100 0 162 -21 219 -55v-122h-10c-45 114 -120 146 -206 146c-92 0 -162 -64 -162 -142c0 -68 26 -121 125 -156l74 -26c98 -34 234 -83 234 -245
c0 -149 -104 -249 -274 -249c-106 0 -195 23 -263 70v138h10c66 -166 158 -172 240 -172zM258 -107c0 33 21 59 58 59c39 0 59 -30 59 -68c0 -73 -67 -131 -125 -156l-4 8c29 17 67 62 67 99c-31 1 -55 27 -55 58z" />
    <glyph glyph-name="Tbar" unicode="&#x166;" horiz-adv-x="724" 
d="M414 780v-346h165v-36h-165v-312c0 -53 18 -65 72 -65h47v-21h-342v21h42c59 0 77 12 77 64v313h-170v36h170v346h-135c-101 0 -149 -43 -165 -139h-10v176h724v-176h-10c-15 95 -63 139 -165 139h-135z" />
    <glyph glyph-name="Tcaron" unicode="&#x164;" horiz-adv-x="724" 
d="M414 780v-694c0 -53 18 -65 72 -65h47v-21h-342v21h42c59 0 77 12 77 64v695h-135c-101 0 -149 -43 -165 -139h-10v176h724v-176h-10c-15 95 -63 139 -165 139h-135zM523 1101l-154 -244h-9l-163 244h11l156 -151l148 151h11z" />
    <glyph glyph-name="uni0162" unicode="&#x162;" horiz-adv-x="724" 
d="M414 780v-694c0 -53 18 -65 72 -65h47v-21h-342v21h42c59 0 77 12 77 64v695h-135c-101 0 -149 -43 -165 -139h-10v176h724v-176h-10c-15 95 -63 139 -165 139h-135zM298 -107c0 33 21 59 58 59c39 0 59 -30 59 -68c0 -73 -67 -131 -125 -156l-4 8c29 17 67 62 67 99
c-31 1 -55 27 -55 58z" />
    <glyph glyph-name="Tcommaaccent" unicode="&#x21a;" horiz-adv-x="724" 
d="M414 780v-694c0 -53 18 -65 72 -65h47v-21h-342v21h42c59 0 77 12 77 64v695h-135c-101 0 -149 -43 -165 -139h-10v176h724v-176h-10c-15 95 -63 139 -165 139h-135zM298 -107c0 33 21 59 58 59c39 0 59 -30 59 -68c0 -73 -67 -131 -125 -156l-4 8c29 17 67 62 67 99
c-31 1 -55 27 -55 58z" />
    <glyph glyph-name="Ubreve" unicode="&#x16c;" horiz-adv-x="867" 
d="M748 696v-381c0 -202 -121 -329 -318 -329c-196 0 -320 119 -320 323v432c0 43 -18 55 -63 55h-36v21h302v-21h-36c-45 0 -63 -12 -63 -55v-440c0 -157 96 -261 238 -261c164 0 254 112 254 277v379c0 70 -12 100 -72 100h-38v21h261v-21h-30c-57 0 -79 -29 -79 -100z
M574 1045h43c-16 -140 -119 -160 -166 -160c-51 0 -148 20 -164 160h45c14 -82 58 -120 122 -120c62 0 106 38 120 120z" />
    <glyph glyph-name="Uhungarumlaut" unicode="&#x170;" horiz-adv-x="867" 
d="M748 696v-381c0 -202 -121 -329 -318 -329c-196 0 -320 119 -320 323v432c0 43 -18 55 -63 55h-36v21h302v-21h-36c-45 0 -63 -12 -63 -55v-440c0 -157 96 -261 238 -261c164 0 254 112 254 277v379c0 70 -12 100 -72 100h-38v21h261v-21h-30c-57 0 -79 -29 -79 -100z
M536 1086l-163 -234h-13l86 234h90zM687 1086l-163 -234h-13l86 234h90z" />
    <glyph glyph-name="Umacron" unicode="&#x16a;" horiz-adv-x="867" 
d="M748 696v-381c0 -202 -121 -329 -318 -329c-196 0 -320 119 -320 323v432c0 43 -18 55 -63 55h-36v21h302v-21h-36c-45 0 -63 -12 -63 -55v-440c0 -157 96 -261 238 -261c164 0 254 112 254 277v379c0 70 -12 100 -72 100h-38v21h261v-21h-30c-57 0 -79 -29 -79 -100z
M296 915v47h334v-47h-334z" />
    <glyph glyph-name="Uogonek" unicode="&#x172;" horiz-adv-x="867" 
d="M505 -205l3 -8c-25 -16 -60 -29 -94 -29c-50 0 -96 24 -96 84c0 57 52 104 116 144h-4c-196 0 -320 119 -320 323v432c0 43 -18 55 -63 55h-36v21h302v-21h-36c-45 0 -63 -12 -63 -55v-440c0 -157 96 -261 238 -261c164 0 254 112 254 277v379c0 70 -12 100 -72 100h-38
v21h261v-21h-30c-57 0 -79 -29 -79 -100v-381c0 -194 -111 -318 -293 -328c-39 -41 -64 -88 -64 -127c0 -66 68 -81 114 -65z" />
    <glyph glyph-name="Uring" unicode="&#x16e;" horiz-adv-x="867" 
d="M748 696v-381c0 -202 -121 -329 -318 -329c-196 0 -320 119 -320 323v432c0 43 -18 55 -63 55h-36v21h302v-21h-36c-45 0 -63 -12 -63 -55v-440c0 -157 96 -261 238 -261c164 0 254 112 254 277v379c0 70 -12 100 -72 100h-38v21h261v-21h-30c-57 0 -79 -29 -79 -100z
M555 979c0 -55 -46 -98 -102 -98s-102 43 -102 98s46 98 102 98s102 -43 102 -98zM517 979c0 39 -30 65 -64 65c-37 0 -63 -29 -63 -65s26 -65 63 -65c40 0 64 29 64 65z" />
    <glyph glyph-name="Utilde" unicode="&#x168;" horiz-adv-x="867" 
d="M748 696v-381c0 -202 -121 -329 -318 -329c-196 0 -320 119 -320 323v432c0 43 -18 55 -63 55h-36v21h302v-21h-36c-45 0 -63 -12 -63 -55v-440c0 -157 96 -261 238 -261c164 0 254 112 254 277v379c0 70 -12 100 -72 100h-38v21h261v-21h-30c-57 0 -79 -29 -79 -100z
M613 1004l45 47l7 -4l-47 -122h-308l-45 -47l-7 4l47 122h308z" />
    <glyph glyph-name="uni1EE4" unicode="&#x1ee4;" horiz-adv-x="867" 
d="M748 696v-381c0 -202 -121 -329 -318 -329c-196 0 -320 119 -320 323v432c0 43 -18 55 -63 55h-36v21h302v-21h-36c-45 0 -63 -12 -63 -55v-440c0 -157 96 -261 238 -261c164 0 254 112 254 277v379c0 70 -12 100 -72 100h-38v21h261v-21h-30c-57 0 -79 -29 -79 -100z
M392 -158c0 36 28 65 64 65s65 -29 65 -65s-29 -64 -65 -64s-64 28 -64 64z" />
    <glyph glyph-name="Wacute" unicode="&#x1e82;" horiz-adv-x="1229" 
d="M871 158l175 500c44 124 34 138 -39 138h-17v21h239v-21h-10c-57 0 -87 -14 -126 -124l-248 -696h-13l-220 600l-217 -600h-13l-279 761c-14 38 -39 59 -79 59h-24v21h289v-21h-26c-40 0 -65 -12 -52 -49l210 -600l172 480l-40 110c-14 38 -39 59 -79 59h-24v21h289v-21
h-26c-40 0 -65 -12 -52 -49zM756 1086l-183 -234h-13l106 234h90z" />
    <glyph glyph-name="Wcircumflex" unicode="&#x174;" horiz-adv-x="1229" 
d="M871 158l175 500c44 124 34 138 -39 138h-17v21h239v-21h-10c-57 0 -87 -14 -126 -124l-248 -696h-13l-220 600l-217 -600h-13l-279 761c-14 38 -39 59 -79 59h-24v21h289v-21h-26c-40 0 -65 -12 -52 -49l210 -600l172 480l-40 110c-14 38 -39 59 -79 59h-24v21h289v-21
h-26c-40 0 -65 -12 -52 -49zM622 1096l154 -244h-11l-148 147l-156 -147h-11l163 244h9z" />
    <glyph glyph-name="Wdieresis" unicode="&#x1e84;" horiz-adv-x="1229" 
d="M871 158l175 500c44 124 34 138 -39 138h-17v21h239v-21h-10c-57 0 -87 -14 -126 -124l-248 -696h-13l-220 600l-217 -600h-13l-279 761c-14 38 -39 59 -79 59h-24v21h289v-21h-26c-40 0 -65 -12 -52 -49l210 -600l172 480l-40 110c-14 38 -39 59 -79 59h-24v21h289v-21
h-26c-40 0 -65 -12 -52 -49zM404 971c0 36 29 65 65 65s65 -29 65 -65s-29 -65 -65 -65s-65 29 -65 65zM676 971c0 36 29 65 65 65s65 -29 65 -65s-29 -65 -65 -65s-65 29 -65 65z" />
    <glyph glyph-name="Wgrave" unicode="&#x1e80;" horiz-adv-x="1229" 
d="M871 158l175 500c44 124 34 138 -39 138h-17v21h239v-21h-10c-57 0 -87 -14 -126 -124l-248 -696h-13l-220 600l-217 -600h-13l-279 761c-14 38 -39 59 -79 59h-24v21h289v-21h-26c-40 0 -65 -12 -52 -49l210 -600l172 480l-40 110c-14 38 -39 59 -79 59h-24v21h289v-21
h-26c-40 0 -65 -12 -52 -49zM703 852l-183 234h90l106 -234h-13z" />
    <glyph glyph-name="Ycircumflex" unicode="&#x176;" horiz-adv-x="745" 
d="M396 417l189 305c33 53 8 74 -50 74h-28v21h238v-21h-26c-44 0 -58 -20 -93 -76l-214 -344v-290c0 -53 18 -65 72 -65h42v-21h-332v21h37c59 0 77 12 77 64v290l-205 362c-20 36 -39 59 -79 59h-24v21h289v-21h-26c-40 0 -71 -14 -52 -49zM390 1096l154 -244h-11
l-148 147l-156 -147h-11l163 244h9z" />
    <glyph glyph-name="Ydieresis" unicode="&#x178;" horiz-adv-x="745" 
d="M396 417l189 305c33 53 8 74 -50 74h-28v21h238v-21h-26c-44 0 -58 -20 -93 -76l-214 -344v-290c0 -53 18 -65 72 -65h42v-21h-332v21h37c59 0 77 12 77 64v290l-205 362c-20 36 -39 59 -79 59h-24v21h289v-21h-26c-40 0 -71 -14 -52 -49zM184 971c0 36 29 65 65 65
s65 -29 65 -65s-29 -65 -65 -65s-65 29 -65 65zM456 971c0 36 29 65 65 65s65 -29 65 -65s-29 -65 -65 -65s-65 29 -65 65z" />
    <glyph glyph-name="Ygrave" unicode="&#x1ef2;" horiz-adv-x="745" 
d="M396 417l189 305c33 53 8 74 -50 74h-28v21h238v-21h-26c-44 0 -58 -20 -93 -76l-214 -344v-290c0 -53 18 -65 72 -65h42v-21h-332v21h37c59 0 77 12 77 64v290l-205 362c-20 36 -39 59 -79 59h-24v21h289v-21h-26c-40 0 -71 -14 -52 -49zM423 852l-183 234h90l106 -234
h-13z" />
    <glyph glyph-name="uni0232" unicode="&#x232;" horiz-adv-x="745" 
d="M396 417l189 305c33 53 8 74 -50 74h-28v21h238v-21h-26c-44 0 -58 -20 -93 -76l-214 -344v-290c0 -53 18 -65 72 -65h42v-21h-332v21h37c59 0 77 12 77 64v290l-205 362c-20 36 -39 59 -79 59h-24v21h289v-21h-26c-40 0 -71 -14 -52 -49zM216 915v47h334v-47h-334z" />
    <glyph glyph-name="Zacute" unicode="&#x179;" horiz-adv-x="715" 
d="M23 0l510 779h-207c-159 0 -212 -45 -221 -130h-12v168h582l-506 -781h295c104 0 182 34 192 136h11v-172h-644zM525 1086l-183 -234h-13l106 234h90z" />
    <glyph glyph-name="Zcaron" unicode="&#x17d;" horiz-adv-x="715" 
d="M23 0l510 779h-207c-159 0 -212 -45 -221 -130h-12v168h582l-506 -781h295c104 0 182 34 192 136h11v-172h-644zM531 1101l-154 -244h-9l-163 244h11l156 -151l148 151h11z" />
    <glyph glyph-name="Zdotaccent" unicode="&#x17b;" horiz-adv-x="715" 
d="M23 0l510 779h-207c-159 0 -212 -45 -221 -130h-12v168h582l-506 -781h295c104 0 182 34 192 136h11v-172h-644zM313 961c0 36 28 65 64 65s65 -29 65 -65s-29 -64 -65 -64s-64 28 -64 64z" />
    <glyph glyph-name="uni018F" unicode="&#x18f;" horiz-adv-x="786" 
d="M366 -13c-175 0 -311 105 -330 313h580c4 25 8 66 8 112c0 175 -91 352 -278 352c-95 0 -229 -35 -304 -168l-11 5c63 156 199 226 332 226c249 0 382 -190 382 -412c0 -260 -176 -428 -379 -428zM364 14c133 0 227 108 248 256h-461c8 -184 126 -256 213 -256z" />
    <glyph glyph-name="abreve" unicode="&#x103;" horiz-adv-x="516" 
d="M208 32c32 0 72 10 107 50v159c-89 -3 -186 -45 -186 -126c0 -47 31 -83 79 -83zM71 395c0 68 93 109 162 109c114 0 174 -46 174 -155l-1 -258c0 -27 7 -48 34 -48c21 0 37 8 48 32l8 -2c-10 -59 -48 -84 -99 -84s-83 34 -83 79c-37 -56 -96 -82 -147 -82
c-90 0 -135 56 -135 115c0 110 131 151 282 151l1 147c0 60 -37 84 -86 84c-41 0 -84 -20 -79 -74c4 -41 -17 -58 -39 -58c-24 0 -40 15 -40 44zM368 749h43c-16 -140 -119 -160 -166 -160c-51 0 -148 20 -164 160h45c14 -82 58 -120 122 -120c62 0 106 38 120 120z" />
    <glyph glyph-name="amacron" unicode="&#x101;" horiz-adv-x="516" 
d="M208 32c32 0 72 10 107 50v159c-89 -3 -186 -45 -186 -126c0 -47 31 -83 79 -83zM71 395c0 68 93 109 162 109c114 0 174 -46 174 -155l-1 -258c0 -27 7 -48 34 -48c21 0 37 8 48 32l8 -2c-10 -59 -48 -84 -99 -84s-83 34 -83 79c-37 -56 -96 -82 -147 -82
c-90 0 -135 56 -135 115c0 110 131 151 282 151l1 147c0 60 -37 84 -86 84c-41 0 -84 -20 -79 -74c4 -41 -17 -58 -39 -58c-24 0 -40 15 -40 44zM75 629v47h334v-47h-334z" />
    <glyph glyph-name="aogonek" unicode="&#x105;" horiz-adv-x="516" 
d="M435 -206l3 -8c-25 -16 -60 -29 -94 -29c-50 0 -96 24 -96 84s57 109 126 151c-37 8 -60 38 -60 76c-37 -56 -96 -82 -147 -82c-90 0 -135 56 -135 115c0 110 131 151 282 151l1 147c0 60 -37 84 -86 84c-41 0 -84 -20 -79 -74c4 -41 -17 -58 -39 -58
c-24 0 -40 15 -40 44c0 68 93 109 162 109c114 0 174 -46 174 -155l-1 -258c0 -27 7 -48 34 -48c21 0 37 8 48 32l8 -2c-10 -59 -48 -84 -99 -84c-3 0 -6 1 -9 1c-40 -42 -67 -91 -67 -131c0 -50 39 -71 78 -71c12 0 25 2 36 6zM208 32c32 0 72 10 107 50v159
c-89 -3 -186 -45 -186 -126c0 -47 31 -83 79 -83z" />
    <glyph glyph-name="cacute" unicode="&#x107;" horiz-adv-x="507" 
d="M143 256c0 -121 56 -237 186 -237c48 0 105 21 147 75l11 -9c-50 -75 -120 -99 -188 -99c-157 0 -258 103 -258 264c0 148 120 254 266 254c63 0 171 -27 171 -84c0 -19 -14 -33 -34 -33c-64 0 -32 93 -142 93c-117 0 -159 -126 -159 -224zM457 790l-183 -234h-13
l106 234h90z" />
    <glyph glyph-name="ccaron" unicode="&#x10d;" horiz-adv-x="507" 
d="M143 256c0 -121 56 -237 186 -237c48 0 105 21 147 75l11 -9c-50 -75 -120 -99 -188 -99c-157 0 -258 103 -258 264c0 148 120 254 266 254c63 0 171 -27 171 -84c0 -19 -14 -33 -34 -33c-64 0 -32 93 -142 93c-117 0 -159 -126 -159 -224zM456 805l-154 -244h-9
l-163 244h11l156 -151l148 151h11z" />
    <glyph glyph-name="ccircumflex" unicode="&#x109;" horiz-adv-x="507" 
d="M143 256c0 -121 56 -237 186 -237c48 0 105 21 147 75l11 -9c-50 -75 -120 -99 -188 -99c-157 0 -258 103 -258 264c0 148 120 254 266 254c63 0 171 -27 171 -84c0 -19 -14 -33 -34 -33c-64 0 -32 93 -142 93c-117 0 -159 -126 -159 -224zM302 800l154 -244h-11
l-148 147l-156 -147h-11l163 244h9z" />
    <glyph glyph-name="cdotaccent" unicode="&#x10b;" horiz-adv-x="507" 
d="M143 256c0 -121 56 -237 186 -237c48 0 105 21 147 75l11 -9c-50 -75 -120 -99 -188 -99c-157 0 -258 103 -258 264c0 148 120 254 266 254c63 0 171 -27 171 -84c0 -19 -14 -33 -34 -33c-64 0 -32 93 -142 93c-117 0 -159 -126 -159 -224zM236 675c0 36 28 65 64 65
s65 -29 65 -65s-29 -64 -65 -64s-64 28 -64 64z" />
    <glyph glyph-name="dcaron" unicode="&#x10f;" horiz-adv-x="663" 
d="M446 443v298c0 43 -12 55 -57 55h-25v21h174v-741c0 -43 13 -55 58 -55h25v-21h-175v43c-44 -41 -91 -57 -147 -57c-151 0 -252 114 -252 260c0 143 100 260 252 260c49 0 102 -15 147 -63zM333 471c-117 0 -184 -96 -184 -225c0 -127 64 -227 188 -227c45 0 76 9 109 33
v380c-35 29 -78 39 -113 39zM585 724c0 33 21 59 58 59c39 0 59 -30 59 -68c0 -73 -67 -131 -125 -156l-4 8c29 17 67 62 67 99c-31 1 -55 27 -55 58z" />
    <glyph glyph-name="dcroat" unicode="&#x111;" horiz-adv-x="663" 
d="M195 618v26h251v97c0 43 -12 55 -57 55h-25v21h174v-173h83v-26h-83v-542c0 -43 13 -55 58 -55h25v-21h-175v43c-44 -41 -91 -57 -147 -57c-151 0 -252 114 -252 260c0 143 100 260 252 260c49 0 102 -15 147 -63v175h-251zM333 471c-117 0 -184 -96 -184 -225
c0 -127 64 -227 188 -227c45 0 76 9 109 33v380c-35 29 -78 39 -113 39z" />
    <glyph glyph-name="ebreve" unicode="&#x115;" horiz-adv-x="520" 
d="M495 311h-353c-2 -20 -3 -39 -3 -55c0 -121 56 -235 186 -235c48 0 112 20 156 72l9 -7c-55 -78 -127 -100 -195 -100c-157 0 -258 102 -258 263c0 150 107 255 253 255c117 0 205 -89 205 -193zM292 483c-91 0 -131 -74 -146 -147h257c-3 88 -43 147 -111 147zM412 749
h43c-16 -140 -119 -160 -166 -160c-51 0 -148 20 -164 160h45c14 -82 58 -120 122 -120c62 0 106 38 120 120z" />
    <glyph glyph-name="ecaron" unicode="&#x11b;" horiz-adv-x="520" 
d="M495 311h-353c-2 -20 -3 -39 -3 -55c0 -121 56 -235 186 -235c48 0 112 20 156 72l9 -7c-55 -78 -127 -100 -195 -100c-157 0 -258 102 -258 263c0 150 107 255 253 255c117 0 205 -89 205 -193zM292 483c-91 0 -131 -74 -146 -147h257c-3 88 -43 147 -111 147zM443 805
l-154 -244h-9l-163 244h11l156 -151l148 151h11z" />
    <glyph glyph-name="emacron" unicode="&#x113;" horiz-adv-x="520" 
d="M495 311h-353c-2 -20 -3 -39 -3 -55c0 -121 56 -235 186 -235c48 0 112 20 156 72l9 -7c-55 -78 -127 -100 -195 -100c-157 0 -258 102 -258 263c0 150 107 255 253 255c117 0 205 -89 205 -193zM292 483c-91 0 -131 -74 -146 -147h257c-3 88 -43 147 -111 147zM122 629
v47h334v-47h-334z" />
    <glyph glyph-name="eogonek" unicode="&#x119;" horiz-adv-x="520" 
d="M352 -206l3 -8c-25 -16 -60 -29 -94 -29c-50 0 -96 24 -96 84c0 58 53 104 118 145c-150 5 -246 106 -246 263c0 150 107 255 253 255c117 0 205 -89 205 -193h-353c-2 -20 -3 -39 -3 -55c0 -121 56 -235 186 -235c48 0 112 20 156 72l9 -7c-53 -76 -122 -98 -188 -100
c-39 -41 -64 -88 -64 -127c0 -50 39 -71 78 -71c12 0 25 2 36 6zM292 483c-91 0 -131 -74 -146 -147h257c-3 88 -43 147 -111 147z" />
    <glyph glyph-name="edotaccent" unicode="&#x117;" horiz-adv-x="520" 
d="M495 311h-353c-2 -20 -3 -39 -3 -55c0 -121 56 -235 186 -235c48 0 112 20 156 72l9 -7c-55 -78 -127 -100 -195 -100c-157 0 -258 102 -258 263c0 150 107 255 253 255c117 0 205 -89 205 -193zM292 483c-91 0 -131 -74 -146 -147h257c-3 88 -43 147 -111 147zM225 675
c0 36 28 65 64 65s65 -29 65 -65s-29 -64 -65 -64s-64 28 -64 64z" />
    <glyph glyph-name="gbreve" unicode="&#x11f;" horiz-adv-x="519" 
d="M253 503c26 0 54 -5 80 -15v1h209v-49l-160 23c44 -29 76 -74 76 -132c0 -95 -93 -172 -205 -172c-14 0 -27 1 -40 3c-58 -6 -85 -32 -85 -60c0 -24 22 -50 71 -50h101c121 0 220 -30 220 -145c0 -134 -127 -203 -261 -203c-151 0 -232 57 -232 143c0 61 61 104 143 121
c-79 9 -106 57 -106 97c0 52 34 90 123 103c-80 23 -138 87 -138 163c0 95 93 172 204 172zM100 -153c0 -84 73 -118 157 -118c94 0 189 29 189 133c0 64 -43 104 -154 104h-95h-8c-58 -22 -89 -61 -89 -119zM368 331c0 61 -38 153 -115 153c-74 0 -113 -92 -113 -153
c0 -59 39 -153 113 -153s115 88 115 153zM384 749h43c-16 -140 -119 -160 -166 -160c-51 0 -148 20 -164 160h45c14 -82 58 -120 122 -120c62 0 106 38 120 120z" />
    <glyph glyph-name="gcircumflex" unicode="&#x11d;" horiz-adv-x="519" 
d="M253 503c26 0 54 -5 80 -15v1h209v-49l-160 23c44 -29 76 -74 76 -132c0 -95 -93 -172 -205 -172c-14 0 -27 1 -40 3c-58 -6 -85 -32 -85 -60c0 -24 22 -50 71 -50h101c121 0 220 -30 220 -145c0 -134 -127 -203 -261 -203c-151 0 -232 57 -232 143c0 61 61 104 143 121
c-79 9 -106 57 -106 97c0 52 34 90 123 103c-80 23 -138 87 -138 163c0 95 93 172 204 172zM100 -153c0 -84 73 -118 157 -118c94 0 189 29 189 133c0 64 -43 104 -154 104h-95h-8c-58 -22 -89 -61 -89 -119zM368 331c0 61 -38 153 -115 153c-74 0 -113 -92 -113 -153
c0 -59 39 -153 113 -153s115 88 115 153zM268 800l154 -244h-11l-148 147l-156 -147h-11l163 244h9z" />
    <glyph glyph-name="gcommaaccent" unicode="&#x123;" horiz-adv-x="519" 
d="M310 618c0 -33 -21 -59 -58 -59c-39 0 -59 30 -59 68c0 73 67 131 125 156l4 -8c-29 -17 -67 -62 -67 -99c31 -1 55 -27 55 -58zM253 503c26 0 54 -5 80 -15v1h209v-49l-160 23c44 -29 76 -74 76 -132c0 -95 -93 -172 -205 -172c-14 0 -27 1 -40 3
c-58 -6 -85 -32 -85 -60c0 -24 22 -50 71 -50h101c121 0 220 -30 220 -145c0 -134 -127 -203 -261 -203c-151 0 -232 57 -232 143c0 61 61 104 143 121c-79 9 -106 57 -106 97c0 52 34 90 123 103c-80 23 -138 87 -138 163c0 95 93 172 204 172zM100 -153
c0 -84 73 -118 157 -118c94 0 189 29 189 133c0 64 -43 104 -154 104h-95h-8c-58 -22 -89 -61 -89 -119zM368 331c0 61 -38 153 -115 153c-74 0 -113 -92 -113 -153c0 -59 39 -153 113 -153s115 88 115 153z" />
    <glyph glyph-name="gdotaccent" unicode="&#x121;" horiz-adv-x="519" 
d="M253 503c26 0 54 -5 80 -15v1h209v-49l-160 23c44 -29 76 -74 76 -132c0 -95 -93 -172 -205 -172c-14 0 -27 1 -40 3c-58 -6 -85 -32 -85 -60c0 -24 22 -50 71 -50h101c121 0 220 -30 220 -145c0 -134 -127 -203 -261 -203c-151 0 -232 57 -232 143c0 61 61 104 143 121
c-79 9 -106 57 -106 97c0 52 34 90 123 103c-80 23 -138 87 -138 163c0 95 93 172 204 172zM100 -153c0 -84 73 -118 157 -118c94 0 189 29 189 133c0 64 -43 104 -154 104h-95h-8c-58 -22 -89 -61 -89 -119zM368 331c0 61 -38 153 -115 153c-74 0 -113 -92 -113 -153
c0 -59 39 -153 113 -153s115 88 115 153zM190 675c0 36 28 65 64 65s65 -29 65 -65s-29 -64 -65 -64s-64 28 -64 64z" />
    <glyph glyph-name="hbar" unicode="&#x127;" horiz-adv-x="637" 
d="M24 618v26h82v97c0 43 -12 55 -57 55h-25v21h174v-173h252v-26h-252v-242c20 74 90 128 170 128c46 0 85 -14 115 -40c34 -30 55 -71 55 -155v-233c0 -43 12 -55 57 -55h25v-21h-256v21h25c45 0 57 12 57 55v242c0 50 -14 84 -34 104c-19 19 -50 34 -87 34
c-66 0 -124 -54 -127 -120v-260c0 -43 12 -55 57 -55h25v-21h-256v21h25c45 0 57 12 57 55v542h-82z" />
    <glyph glyph-name="hcircumflex" unicode="&#x125;" horiz-adv-x="637" 
d="M380 800l124 -244h-11l-118 147l-126 -147h-11l133 244h9zM538 309v-233c0 -43 12 -55 57 -55h25v-21h-256v21h25c45 0 57 12 57 55v242c0 50 -14 84 -34 104c-19 19 -50 34 -87 34c-66 0 -124 -54 -127 -120v-260c0 -43 12 -55 57 -55h25v-21h-256v21h25
c45 0 57 12 57 55v665c0 43 -12 55 -57 55h-25v21h174v-441c20 74 90 128 170 128c46 0 85 -14 115 -40c34 -30 55 -71 55 -155z" />
    <glyph glyph-name="dotlessi" unicode="&#x131;" horiz-adv-x="304" 
d="M198 481v-405c0 -43 12 -55 57 -55h25v-21h-256v21h25c45 0 57 12 57 55v329c0 43 -12 55 -57 55h-25v21h174z" />
    <glyph glyph-name="ibreve" unicode="&#x12d;" horiz-adv-x="304" 
d="M244 749h43c-16 -140 -109 -160 -156 -160c-51 0 -138 20 -154 160h45c14 -82 48 -120 112 -120c62 0 96 38 110 120zM198 481v-405c0 -43 12 -55 57 -55h25v-21h-256v21h25c45 0 57 12 57 55v329c0 43 -12 55 -57 55h-25v21h174z" />
    <glyph glyph-name="imacron" unicode="&#x12b;" horiz-adv-x="304" 
d="M5 629v47h274v-47h-274zM198 481v-405c0 -43 12 -55 57 -55h25v-21h-256v21h25c45 0 57 12 57 55v329c0 43 -12 55 -57 55h-25v21h174z" />
    <glyph glyph-name="iogonek" unicode="&#x12f;" horiz-adv-x="304" 
d="M234 -206l3 -8c-25 -16 -60 -29 -94 -29c-50 0 -96 24 -96 84c0 64 66 115 141 159h-164v21h25c45 0 57 12 57 55v329c0 43 -12 55 -57 55h-25v21h174v-405c0 -43 12 -55 57 -55h25v-21h-82c-46 -44 -78 -98 -78 -141c0 -50 39 -71 78 -71c12 0 25 2 36 6zM89 717
c0 36 28 65 64 65s65 -29 65 -65s-29 -64 -65 -64s-64 28 -64 64z" />
    <glyph glyph-name="itilde" unicode="&#x129;" horiz-adv-x="304" 
d="M249 708l45 47l7 -4l-47 -117h-218l-45 -47l-7 4l47 117h218zM198 481v-405c0 -43 12 -55 57 -55h25v-21h-256v21h25c45 0 57 12 57 55v329c0 43 -12 55 -57 55h-25v21h174z" />
    <glyph glyph-name="uni1ECB" unicode="&#x1ecb;" horiz-adv-x="304" 
d="M198 481v-405c0 -43 12 -55 57 -55h25v-21h-256v21h25c45 0 57 12 57 55v329c0 43 -12 55 -57 55h-25v21h174zM89 717c0 36 28 65 64 65s65 -29 65 -65s-29 -64 -65 -64s-64 28 -64 64zM90 -158c0 36 28 65 64 65s65 -29 65 -65s-29 -64 -65 -64s-64 28 -64 64z" />
    <glyph glyph-name="dotlessj" unicode="&#x237;" horiz-adv-x="301" 
d="M198 481v-446c0 -124 -18 -267 -171 -359l-7 10c81 85 86 240 86 349v370c0 43 -12 55 -57 55h-25v21h174z" />
    <glyph glyph-name="jcircumflex" unicode="&#x135;" horiz-adv-x="301" 
d="M142 800l154 -244h-11l-148 147l-156 -147h-11l163 244h9zM198 481v-446c0 -124 -18 -267 -171 -359l-7 10c81 85 86 240 86 349v370c0 43 -12 55 -57 55h-25v21h174z" />
    <glyph glyph-name="kcommaaccent" unicode="&#x137;" horiz-adv-x="597" 
d="M200 257l185 156c17 16 28 47 -29 47h-22v21h213v-21c-51 0 -81 -8 -122 -42l-145 -123l205 -223c40 -43 59 -51 112 -51v-21h-251v21h29c22 0 40 0 25 16zM198 817v-741c0 -43 12 -55 57 -55h25v-21h-256v21h25c45 0 57 12 57 55v665c0 43 -12 55 -57 55h-25v21h174z
M261 -107c0 33 21 59 58 59c39 0 59 -30 59 -68c0 -73 -67 -131 -125 -156l-4 8c29 17 67 62 67 99c-31 1 -55 27 -55 58z" />
    <glyph glyph-name="lacute" unicode="&#x13a;" horiz-adv-x="299" 
d="M106 76v665c0 43 -12 55 -57 55h-25v21h174v-741c0 -43 12 -55 57 -55h25v-21h-256v21h25c45 0 57 12 57 55zM247 1085l-183 -234h-13l106 234h90z" />
    <glyph glyph-name="lcaron" unicode="&#x13e;" horiz-adv-x="334" 
d="M106 76v665c0 43 -12 55 -57 55h-25v21h174v-741c0 -43 12 -55 57 -55h25v-21h-256v21h25c45 0 57 12 57 55zM255 724c0 33 21 59 58 59c39 0 59 -30 59 -68c0 -73 -67 -131 -125 -156l-4 8c29 17 67 62 67 99c-31 1 -55 27 -55 58z" />
    <glyph glyph-name="lcommaaccent" unicode="&#x13c;" horiz-adv-x="299" 
d="M106 76v665c0 43 -12 55 -57 55h-25v21h174v-741c0 -43 12 -55 57 -55h25v-21h-256v21h25c45 0 57 12 57 55zM89 -107c0 33 21 59 58 59c39 0 59 -30 59 -68c0 -73 -67 -131 -125 -156l-4 8c29 17 67 62 67 99c-31 1 -55 27 -55 58z" />
    <glyph glyph-name="ldot" unicode="&#x140;" horiz-adv-x="299" 
d="M106 76v665c0 43 -12 55 -57 55h-25v21h174v-741c0 -43 12 -55 57 -55h25v-21h-256v21h25c45 0 57 12 57 55zM234 439c0 36 28 65 64 65s65 -29 65 -65s-29 -64 -65 -64s-64 28 -64 64z" />
    <glyph glyph-name="lslash" unicode="&#x142;" horiz-adv-x="299" 
d="M19 319l-20 35l107 62v325c0 43 -12 55 -57 55h-25v21h174v-347l91 54l19 -35l-110 -65v-348c0 -43 12 -55 57 -55h25v-21h-256v21h25c45 0 57 12 57 55v294z" />
    <glyph glyph-name="eng" unicode="&#x14b;" horiz-adv-x="608" 
d="M446 21v297c0 50 -14 84 -34 104c-19 19 -50 34 -87 34c-66 0 -124 -54 -127 -120v-260c0 -43 12 -55 57 -55h25v-21h-256v21h25c45 0 57 12 57 55v329c0 43 -12 55 -57 55h-25v21h174v-105c20 74 90 128 170 128c46 0 85 -14 115 -40c34 -30 55 -71 55 -155v-288
c0 -124 -18 -267 -171 -359l-7 10c81 85 86 240 86 349z" />
    <glyph glyph-name="nacute" unicode="&#x144;" horiz-adv-x="637" 
d="M106 76v329c0 43 -12 55 -57 55h-25v21h174v-105c20 74 90 128 170 128c46 0 85 -14 115 -40c34 -30 55 -71 55 -155v-233c0 -43 12 -55 57 -55h25v-21h-256v21h25c45 0 57 12 57 55v242c0 50 -14 84 -34 104c-19 19 -50 34 -87 34c-66 0 -124 -54 -127 -120v-260
c0 -43 12 -55 57 -55h25v-21h-256v21h25c45 0 57 12 57 55zM456 790l-183 -234h-13l106 234h90z" />
    <glyph glyph-name="ncaron" unicode="&#x148;" horiz-adv-x="637" 
d="M106 76v329c0 43 -12 55 -57 55h-25v21h174v-105c20 74 90 128 170 128c46 0 85 -14 115 -40c34 -30 55 -71 55 -155v-233c0 -43 12 -55 57 -55h25v-21h-256v21h25c45 0 57 12 57 55v242c0 50 -14 84 -34 104c-19 19 -50 34 -87 34c-66 0 -124 -54 -127 -120v-260
c0 -43 12 -55 57 -55h25v-21h-256v21h25c45 0 57 12 57 55zM488 805l-154 -244h-9l-163 244h11l156 -151l148 151h11z" />
    <glyph glyph-name="ncommaaccent" unicode="&#x146;" horiz-adv-x="637" 
d="M106 76v329c0 43 -12 55 -57 55h-25v21h174v-105c20 74 90 128 170 128c46 0 85 -14 115 -40c34 -30 55 -71 55 -155v-233c0 -43 12 -55 57 -55h25v-21h-256v21h25c45 0 57 12 57 55v242c0 50 -14 84 -34 104c-19 19 -50 34 -87 34c-66 0 -124 -54 -127 -120v-260
c0 -43 12 -55 57 -55h25v-21h-256v21h25c45 0 57 12 57 55zM261 -107c0 33 21 59 58 59c39 0 59 -30 59 -68c0 -73 -67 -131 -125 -156l-4 8c29 17 67 62 67 99c-31 1 -55 27 -55 58z" />
    <glyph glyph-name="oe" unicode="&#x153;" horiz-adv-x="934" 
d="M51 245c0 148 115 259 258 259c85 0 164 -39 207 -112c38 68 117 112 206 112c117 0 203 -89 203 -193h-356c-2 -20 -3 -39 -3 -55c0 -121 59 -235 189 -235c48 0 112 20 156 72l9 -7c-55 -78 -127 -100 -195 -100c-94 0 -169 40 -208 113c-43 -74 -124 -113 -208 -113
c-143 0 -258 110 -258 259zM309 7c126 0 160 143 160 238c0 97 -34 238 -160 238c-124 0 -156 -138 -156 -238c0 -97 30 -238 156 -238zM722 483c-91 0 -134 -74 -149 -147h260c-3 88 -43 147 -111 147z" />
    <glyph glyph-name="obreve" unicode="&#x14f;" horiz-adv-x="618" 
d="M47 245c0 148 119 259 262 259s262 -111 262 -259s-119 -259 -262 -259s-262 110 -262 259zM309 7c126 0 160 143 160 238c0 97 -34 238 -160 238c-124 0 -160 -138 -160 -238c0 -97 34 -238 160 -238zM431 749h43c-16 -140 -119 -160 -166 -160c-51 0 -148 20 -164 160
h45c14 -82 58 -120 122 -120c62 0 106 38 120 120z" />
    <glyph glyph-name="ohungarumlaut" unicode="&#x151;" horiz-adv-x="618" 
d="M47 245c0 148 119 259 262 259s262 -111 262 -259s-119 -259 -262 -259s-262 110 -262 259zM309 7c126 0 160 143 160 238c0 97 -34 238 -160 238c-124 0 -160 -138 -160 -238c0 -97 34 -238 160 -238zM371 790l-163 -234h-13l86 234h90zM522 790l-163 -234h-13l86 234
h90z" />
    <glyph glyph-name="omacron" unicode="&#x14d;" horiz-adv-x="618" 
d="M47 245c0 148 119 259 262 259s262 -111 262 -259s-119 -259 -262 -259s-262 110 -262 259zM309 7c126 0 160 143 160 238c0 97 -34 238 -160 238c-124 0 -160 -138 -160 -238c0 -97 34 -238 160 -238zM142 629v47h334v-47h-334z" />
    <glyph glyph-name="uni1ECD" unicode="&#x1ecd;" horiz-adv-x="618" 
d="M47 245c0 148 119 259 262 259s262 -111 262 -259s-119 -259 -262 -259s-262 110 -262 259zM309 7c126 0 160 143 160 238c0 97 -34 238 -160 238c-124 0 -160 -138 -160 -238c0 -97 34 -238 160 -238zM244 -158c0 36 28 65 64 65s65 -29 65 -65s-29 -64 -65 -64
s-64 28 -64 64z" />
    <glyph glyph-name="racute" unicode="&#x155;" horiz-adv-x="441" 
d="M106 76v329c0 43 -12 55 -57 55h-25v21h174v-124c19 80 70 146 151 146c61 0 88 -29 88 -55c0 -18 -13 -38 -35 -38c-41 0 -35 43 -89 43c-58 0 -112 -70 -115 -136v-232c0 -52 12 -64 67 -64h35v-21h-276v21h25c45 0 57 12 57 55zM348 790l-183 -234h-13l106 234h90z
" />
    <glyph glyph-name="rcaron" unicode="&#x159;" horiz-adv-x="441" 
d="M106 76v329c0 43 -12 55 -57 55h-25v21h174v-124c19 80 70 146 151 146c61 0 88 -29 88 -55c0 -18 -13 -38 -35 -38c-41 0 -35 43 -89 43c-58 0 -112 -70 -115 -136v-232c0 -52 12 -64 67 -64h35v-21h-276v21h25c45 0 57 12 57 55zM363 805l-154 -244h-9l-163 244h11
l156 -151l148 151h11z" />
    <glyph glyph-name="rcommaaccent" unicode="&#x157;" horiz-adv-x="441" 
d="M106 76v329c0 43 -12 55 -57 55h-25v21h174v-124c19 80 70 146 151 146c61 0 88 -29 88 -55c0 -18 -13 -38 -35 -38c-41 0 -35 43 -89 43c-58 0 -112 -70 -115 -136v-232c0 -52 12 -64 67 -64h35v-21h-276v21h25c45 0 57 12 57 55zM93 -107c0 33 21 59 58 59
c39 0 59 -30 59 -68c0 -73 -67 -131 -125 -156l-4 8c29 17 67 62 67 99c-31 1 -55 27 -55 58z" />
    <glyph glyph-name="sacute" unicode="&#x15b;" horiz-adv-x="448" 
d="M215 10c62 0 110 30 110 92c0 58 -43 90 -97 104l-49 13c-99 26 -126 79 -126 145c0 87 75 139 171 139c110 0 160 -50 160 -80c0 -20 -16 -32 -33 -32c-30 0 -39 25 -53 46c-20 31 -39 42 -78 42c-47 0 -96 -27 -96 -80c0 -52 32 -80 97 -98l42 -12
c86 -24 142 -62 142 -151c0 -100 -92 -152 -186 -152c-117 0 -182 47 -182 84c0 22 19 33 35 33c34 0 44 -32 59 -53c21 -29 46 -40 84 -40zM362 790l-183 -234h-13l106 234h90z" />
    <glyph glyph-name="scaron" unicode="&#x161;" horiz-adv-x="448" 
d="M215 10c62 0 110 30 110 92c0 58 -43 90 -97 104l-49 13c-99 26 -126 79 -126 145c0 87 75 139 171 139c110 0 160 -50 160 -80c0 -20 -16 -32 -33 -32c-30 0 -39 25 -53 46c-20 31 -39 42 -78 42c-47 0 -96 -27 -96 -80c0 -52 32 -80 97 -98l42 -12
c86 -24 142 -62 142 -151c0 -100 -92 -152 -186 -152c-117 0 -182 47 -182 84c0 22 19 33 35 33c34 0 44 -32 59 -53c21 -29 46 -40 84 -40zM387 805l-154 -244h-9l-163 244h11l156 -151l148 151h11z" />
    <glyph glyph-name="scedilla" unicode="&#x15f;" horiz-adv-x="448" 
d="M215 10c62 0 110 30 110 92c0 58 -43 90 -97 104l-49 13c-99 26 -126 79 -126 145c0 87 75 139 171 139c110 0 160 -50 160 -80c0 -20 -16 -32 -33 -32c-30 0 -39 25 -53 46c-20 31 -39 42 -78 42c-47 0 -96 -27 -96 -80c0 -52 32 -80 97 -98l42 -12
c86 -24 142 -62 142 -151c0 -99 -90 -150 -182 -152l-46 -64c16 12 34 20 57 20c46 0 80 -22 80 -71c0 -75 -107 -118 -178 -116l-3 6c87 8 130 71 130 107c0 31 -14 47 -50 47c-16 0 -30 -6 -41 -14l-24 19l46 67c-101 6 -157 48 -157 83c0 22 19 33 35 33
c34 0 44 -32 59 -53c21 -29 46 -40 84 -40z" />
    <glyph glyph-name="scircumflex" unicode="&#x15d;" horiz-adv-x="448" 
d="M215 10c62 0 110 30 110 92c0 58 -43 90 -97 104l-49 13c-99 26 -126 79 -126 145c0 87 75 139 171 139c110 0 160 -50 160 -80c0 -20 -16 -32 -33 -32c-30 0 -39 25 -53 46c-20 31 -39 42 -78 42c-47 0 -96 -27 -96 -80c0 -52 32 -80 97 -98l42 -12
c86 -24 142 -62 142 -151c0 -100 -92 -152 -186 -152c-117 0 -182 47 -182 84c0 22 19 33 35 33c34 0 44 -32 59 -53c21 -29 46 -40 84 -40zM233 800l154 -244h-11l-148 147l-156 -147h-11l163 244h9z" />
    <glyph glyph-name="scommaaccent" unicode="&#x219;" horiz-adv-x="448" 
d="M215 10c62 0 110 30 110 92c0 58 -43 90 -97 104l-49 13c-99 26 -126 79 -126 145c0 87 75 139 171 139c110 0 160 -50 160 -80c0 -20 -16 -32 -33 -32c-30 0 -39 25 -53 46c-20 31 -39 42 -78 42c-47 0 -96 -27 -96 -80c0 -52 32 -80 97 -98l42 -12
c86 -24 142 -62 142 -151c0 -100 -92 -152 -186 -152c-117 0 -182 47 -182 84c0 22 19 33 35 33c34 0 44 -32 59 -53c21 -29 46 -40 84 -40zM163 -107c0 33 21 59 58 59c39 0 59 -30 59 -68c0 -73 -67 -131 -125 -156l-4 8c29 17 67 62 67 99c-31 1 -55 27 -55 58z" />
    <glyph glyph-name="tbar" unicode="&#x167;" horiz-adv-x="366" 
d="M37 455v26h69l76 132h15v-132h156v-26h-156v-110h156v-26h-156v-214c0 -62 28 -81 72 -81c29 0 65 9 86 23l6 -9c-55 -44 -97 -52 -145 -52c-65 0 -110 32 -110 108v225h-69v26h69v110h-69z" />
    <glyph glyph-name="tcaron" unicode="&#x165;" horiz-adv-x="366" 
d="M37 455v26h69l76 132h15v-132h156v-26h-156v-350c0 -62 28 -81 72 -81c29 0 65 9 86 23l6 -9c-55 -44 -97 -52 -145 -52c-65 0 -110 32 -110 108v361h-69zM258 724c0 33 21 59 58 59c39 0 59 -30 59 -68c0 -73 -67 -131 -125 -156l-4 8c29 17 67 62 67 99
c-31 1 -55 27 -55 58z" />
    <glyph glyph-name="uni0163" unicode="&#x163;" horiz-adv-x="366" 
d="M37 455v26h69l76 132h15v-132h156v-26h-156v-350c0 -62 28 -81 72 -81c29 0 65 9 86 23l6 -9c-55 -44 -97 -52 -145 -52c-65 0 -110 32 -110 108v361h-69zM141 -107c0 33 21 59 58 59c39 0 59 -30 59 -68c0 -73 -67 -131 -125 -156l-4 8c29 17 67 62 67 99
c-31 1 -55 27 -55 58z" />
    <glyph glyph-name="tcommaaccent" unicode="&#x21b;" horiz-adv-x="366" 
d="M37 455v26h69l76 132h15v-132h156v-26h-156v-350c0 -62 28 -81 72 -81c29 0 65 9 86 23l6 -9c-55 -44 -97 -52 -145 -52c-65 0 -110 32 -110 108v361h-69zM141 -107c0 33 21 59 58 59c39 0 59 -30 59 -68c0 -73 -67 -131 -125 -156l-4 8c29 17 67 62 67 99
c-31 1 -55 27 -55 58z" />
    <glyph glyph-name="ubreve" unicode="&#x16d;" horiz-adv-x="613" 
d="M4 481h174v-324c0 -74 41 -125 116 -125c57 0 110 49 125 105v268c0 43 -12 55 -57 55h-25v21h174v-405c0 -43 12 -55 57 -55h25v-21h-174v109c-26 -74 -90 -125 -165 -125c-99 0 -168 65 -168 174v247c0 43 -12 55 -57 55h-25v21zM411 749h43
c-16 -140 -119 -160 -166 -160c-51 0 -148 20 -164 160h45c14 -82 58 -120 122 -120c62 0 106 38 120 120z" />
    <glyph glyph-name="uhungarumlaut" unicode="&#x171;" horiz-adv-x="613" 
d="M4 481h174v-324c0 -74 41 -125 116 -125c57 0 110 49 125 105v268c0 43 -12 55 -57 55h-25v21h174v-405c0 -43 12 -55 57 -55h25v-21h-174v109c-26 -74 -90 -125 -165 -125c-99 0 -168 65 -168 174v247c0 43 -12 55 -57 55h-25v21zM349 790l-163 -234h-13l86 234h90z
M500 790l-163 -234h-13l86 234h90z" />
    <glyph glyph-name="umacron" unicode="&#x16b;" horiz-adv-x="613" 
d="M4 481h174v-324c0 -74 41 -125 116 -125c57 0 110 49 125 105v268c0 43 -12 55 -57 55h-25v21h174v-405c0 -43 12 -55 57 -55h25v-21h-174v109c-26 -74 -90 -125 -165 -125c-99 0 -168 65 -168 174v247c0 43 -12 55 -57 55h-25v21zM139 629v47h334v-47h-334z" />
    <glyph glyph-name="uogonek" unicode="&#x173;" horiz-adv-x="613" 
d="M559 -206l3 -8c-25 -16 -60 -29 -94 -29c-50 0 -96 24 -96 84c0 64 66 115 141 159h-94v109c-26 -74 -90 -125 -165 -125c-99 0 -168 65 -168 174v247c0 43 -12 55 -57 55h-25v21h174v-324c0 -74 41 -125 116 -125c57 0 110 49 125 105v268c0 43 -12 55 -57 55h-25v21
h174v-405c0 -43 12 -55 57 -55h25v-21h-70c-46 -44 -78 -98 -78 -141c0 -50 39 -71 78 -71c12 0 25 2 36 6z" />
    <glyph glyph-name="uring" unicode="&#x16f;" horiz-adv-x="613" 
d="M4 481h174v-324c0 -74 41 -125 116 -125c57 0 110 49 125 105v268c0 43 -12 55 -57 55h-25v21h174v-405c0 -43 12 -55 57 -55h25v-21h-174v109c-26 -74 -90 -125 -165 -125c-99 0 -168 65 -168 174v247c0 43 -12 55 -57 55h-25v21zM388 683c0 -55 -46 -98 -102 -98
s-102 43 -102 98s46 98 102 98s102 -43 102 -98zM350 683c0 39 -30 65 -64 65c-37 0 -63 -29 -63 -65s26 -65 63 -65c40 0 64 29 64 65z" />
    <glyph glyph-name="utilde" unicode="&#x169;" horiz-adv-x="613" 
d="M4 481h174v-324c0 -74 41 -125 116 -125c57 0 110 49 125 105v268c0 43 -12 55 -57 55h-25v21h174v-405c0 -43 12 -55 57 -55h25v-21h-174v109c-26 -74 -90 -125 -165 -125c-99 0 -168 65 -168 174v247c0 43 -12 55 -57 55h-25v21zM416 708l45 47l7 -4l-47 -117h-258
l-45 -47l-7 4l47 117h258z" />
    <glyph glyph-name="uni1EE5" unicode="&#x1ee5;" horiz-adv-x="613" 
d="M4 481h174v-324c0 -74 41 -125 116 -125c57 0 110 49 125 105v268c0 43 -12 55 -57 55h-25v21h174v-405c0 -43 12 -55 57 -55h25v-21h-174v109c-26 -74 -90 -125 -165 -125c-99 0 -168 65 -168 174v247c0 43 -12 55 -57 55h-25v21zM222 -158c0 36 28 65 64 65
s65 -29 65 -65s-29 -64 -65 -64s-64 28 -64 64z" />
    <glyph glyph-name="wacute" unicode="&#x1e83;" horiz-adv-x="836" 
d="M594 93l106 274c20 51 12 93 -32 93h-18v21h190v-21c-57 0 -84 -36 -101 -77l-162 -403h-25l-138 356l-142 -356h-25l-167 428c-15 37 -28 52 -84 52v21h235v-21c-50 0 -67 -10 -58 -36l116 -331l109 282l-13 33c-15 37 -28 52 -84 52v21h235v-21h-1c-6 0 -12 0 -17 -1
c-34 -2 -48 -11 -40 -33zM572 790l-183 -234h-13l106 234h90z" />
    <glyph glyph-name="wcircumflex" unicode="&#x175;" horiz-adv-x="836" 
d="M594 93l106 274c20 51 12 93 -32 93h-18v21h190v-21c-57 0 -84 -36 -101 -77l-162 -403h-25l-138 356l-142 -356h-25l-167 428c-15 37 -28 52 -84 52v21h235v-21c-50 0 -67 -10 -58 -36l116 -331l109 282l-13 33c-15 37 -28 52 -84 52v21h235v-21h-1c-6 0 -12 0 -17 -1
c-34 -2 -48 -11 -40 -33zM427 800l154 -244h-11l-148 147l-156 -147h-11l163 244h9z" />
    <glyph glyph-name="wdieresis" unicode="&#x1e85;" horiz-adv-x="836" 
d="M594 93l106 274c20 51 12 93 -32 93h-18v21h190v-21c-57 0 -84 -36 -101 -77l-162 -403h-25l-138 356l-142 -356h-25l-167 428c-15 37 -28 52 -84 52v21h235v-21c-50 0 -67 -10 -58 -36l116 -331l109 282l-13 33c-15 37 -28 52 -84 52v21h235v-21h-1c-6 0 -12 0 -17 -1
c-34 -2 -48 -11 -40 -33zM254 685c0 36 29 65 65 65s65 -29 65 -65s-29 -65 -65 -65s-65 29 -65 65zM466 685c0 36 29 65 65 65s65 -29 65 -65s-29 -65 -65 -65s-65 29 -65 65z" />
    <glyph glyph-name="wgrave" unicode="&#x1e81;" horiz-adv-x="836" 
d="M594 93l106 274c20 51 12 93 -32 93h-18v21h190v-21c-57 0 -84 -36 -101 -77l-162 -403h-25l-138 356l-142 -356h-25l-167 428c-15 37 -28 52 -84 52v21h235v-21c-50 0 -67 -10 -58 -36l116 -331l109 282l-13 33c-15 37 -28 52 -84 52v21h235v-21h-1c-6 0 -12 0 -17 -1
c-34 -2 -48 -11 -40 -33zM475 556l-183 234h90l106 -234h-13z" />
    <glyph glyph-name="ycircumflex" unicode="&#x177;" horiz-adv-x="534" 
d="M277 92l114 275c21 51 12 93 -32 93h-18v21h193v-21c-57 0 -84 -36 -101 -77l-235 -560c-47 -113 -96 -121 -138 -121c-43 0 -93 21 -93 56c0 20 15 37 37 37c44 0 39 -59 76 -59c28 0 52 10 89 100l62 154l-174 418c-15 37 -29 52 -85 52v21h237v-21
c-50 0 -65 -8 -55 -34zM276 800l154 -244h-11l-148 147l-156 -147h-11l163 244h9z" />
    <glyph glyph-name="ygrave" unicode="&#x1ef3;" horiz-adv-x="534" 
d="M277 92l114 275c21 51 12 93 -32 93h-18v21h193v-21c-57 0 -84 -36 -101 -77l-235 -560c-47 -113 -96 -121 -138 -121c-43 0 -93 21 -93 56c0 20 15 37 37 37c44 0 39 -59 76 -59c28 0 52 10 89 100l62 154l-174 418c-15 37 -29 52 -85 52v21h237v-21
c-50 0 -65 -8 -55 -34zM295 556l-183 234h90l106 -234h-13z" />
    <glyph glyph-name="uni0233" unicode="&#x233;" horiz-adv-x="534" 
d="M277 92l114 275c21 51 12 93 -32 93h-18v21h193v-21c-57 0 -84 -36 -101 -77l-235 -560c-47 -113 -96 -121 -138 -121c-43 0 -93 21 -93 56c0 20 15 37 37 37c44 0 39 -59 76 -59c28 0 52 10 89 100l62 154l-174 418c-15 37 -29 52 -85 52v21h237v-21
c-50 0 -65 -8 -55 -34zM103 629v47h334v-47h-334z" />
    <glyph glyph-name="zacute" unicode="&#x17a;" horiz-adv-x="490" 
d="M61 340v141h389l-319 -462h92c165 0 193 37 208 140h12v-159h-428l317 459h-88c-120 0 -152 -20 -170 -119h-13zM403 790l-183 -234h-13l106 234h90z" />
    <glyph glyph-name="zcaron" unicode="&#x17e;" horiz-adv-x="490" 
d="M61 340v141h389l-319 -462h92c165 0 193 37 208 140h12v-159h-428l317 459h-88c-120 0 -152 -20 -170 -119h-13zM418 805l-154 -244h-9l-163 244h11l156 -151l148 151h11z" />
    <glyph glyph-name="zdotaccent" unicode="&#x17c;" horiz-adv-x="490" 
d="M61 340v141h389l-319 -462h92c165 0 193 37 208 140h12v-159h-428l317 459h-88c-120 0 -152 -20 -170 -119h-13zM190 675c0 36 28 65 64 65s65 -29 65 -65s-29 -64 -65 -64s-64 28 -64 64z" />
    <glyph glyph-name="uni0259" unicode="&#x259;" horiz-adv-x="520" 
d="M230 -14c-117 0 -205 89 -205 193h352c2 19 4 38 4 55c0 121 -56 235 -186 235c-48 0 -112 -20 -156 -72l-9 7c55 78 127 100 195 100c157 0 258 -102 258 -263c0 -150 -107 -255 -253 -255zM228 7c91 0 130 73 145 147h-256c3 -88 43 -147 111 -147z" />
    <glyph glyph-name="pi" unicode="&#x3c0;" horiz-adv-x="718" 
d="M70 439v42h578v-42h-92v-439h-46v439h-302v-439h-51v439h-87z" />
    <glyph glyph-name="ellipsis" unicode="&#x2026;" horiz-adv-x="635" 
d="M455 51c0 36 29 65 65 65s65 -29 65 -65s-29 -65 -65 -65s-65 29 -65 65zM252 51c0 36 29 65 65 65s65 -29 65 -65s-29 -65 -65 -65s-65 29 -65 65zM49 51c0 36 29 65 65 65s65 -29 65 -65s-29 -65 -65 -65s-65 29 -65 65z" />
    <glyph glyph-name="endash" unicode="&#x2013;" horiz-adv-x="514" 
d="M50 234v42h414v-42h-414z" />
    <glyph glyph-name="emdash" unicode="&#x2014;" horiz-adv-x="761" 
d="M50 234v42h661v-42h-661z" />
    <glyph glyph-name="guilsinglleft" unicode="&#x2039;" horiz-adv-x="275" 
d="M229 34l-213 207v8l212 206h12l-140 -210l140 -211h-11z" />
    <glyph glyph-name="guilsinglright" unicode="&#x203a;" horiz-adv-x="275" 
d="M240 241l-213 -207h-11l140 211l-140 210h12l212 -206v-8z" />
    <glyph glyph-name="quoteleft" unicode="&#x2018;" horiz-adv-x="202" 
d="M180 649c0 -36 -24 -65 -65 -65c-46 0 -65 36 -65 75c0 81 74 146 139 173l3 -7c-32 -19 -73 -70 -73 -111c34 -2 61 -30 61 -65z" />
    <glyph glyph-name="quoteright" unicode="&#x2019;" horiz-adv-x="202" 
d="M62 767c0 36 24 65 65 65c46 0 65 -36 65 -75c0 -81 -74 -146 -139 -173l-3 7c32 19 73 70 73 111c-34 2 -61 30 -61 65z" />
    <glyph glyph-name="quotedblleft" unicode="&#x201c;" horiz-adv-x="382" 
d="M350 649c0 -36 -24 -65 -65 -65c-46 0 -65 36 -65 75c0 81 74 146 139 173l3 -7c-32 -19 -73 -70 -73 -111c34 -2 61 -30 61 -65zM180 649c0 -36 -24 -65 -65 -65c-46 0 -65 36 -65 75c0 81 74 146 139 173l3 -7c-32 -19 -73 -70 -73 -111c34 -2 61 -30 61 -65z" />
    <glyph glyph-name="quotedblright" unicode="&#x201d;" horiz-adv-x="382" 
d="M232 767c0 36 24 65 65 65c43 0 65 -33 65 -75c0 -81 -74 -146 -139 -173l-3 7c32 19 73 70 73 111c-34 2 -61 30 -61 65zM62 767c0 36 24 65 65 65c43 0 65 -33 65 -75c0 -81 -74 -146 -139 -173l-3 7c32 19 73 70 73 111c-34 2 -61 30 -61 65z" />
    <glyph glyph-name="quotesinglbase" unicode="&#x201a;" horiz-adv-x="242" 
d="M62 51c0 36 24 65 65 65c43 0 65 -33 65 -75c0 -81 -74 -146 -139 -173l-3 7c32 19 73 70 73 111c-34 2 -61 30 -61 65z" />
    <glyph glyph-name="quotedblbase" unicode="&#x201e;" horiz-adv-x="382" 
d="M232 51c0 36 24 65 65 65c43 0 65 -33 65 -75c0 -81 -74 -146 -139 -173l-3 7c32 19 73 70 73 111c-34 2 -61 30 -61 65zM62 51c0 36 24 65 65 65c43 0 65 -33 65 -75c0 -81 -74 -146 -139 -173l-3 7c32 19 73 70 73 111c-34 2 -61 30 -61 65z" />
    <glyph glyph-name="bullet" unicode="&#x2022;" horiz-adv-x="426" 
d="M50 259c0 88 72 160 160 160c94 0 166 -72 166 -160c0 -94 -72 -166 -166 -166c-88 0 -160 72 -160 166z" />
    <glyph glyph-name="dagger" unicode="&#x2020;" horiz-adv-x="663" 
d="M307 818h46v-319h277v-42h-277v-629h-46v629h-274v42h274v319z" />
    <glyph glyph-name="daggerdbl" unicode="&#x2021;" horiz-adv-x="663" 
d="M307 818h46v-299h277v-42h-277v-326h277v-42h-277v-281h-46v281h-274v42h274v326h-274v42h274v299z" />
    <glyph glyph-name="perthousand" unicode="&#x2030;" horiz-adv-x="1313" 
d="M1259 167c0 -101 -76 -181 -180 -181c-106 0 -179 85 -179 181c0 98 83 181 179 181c111 0 180 -80 180 -181zM1211 167c0 78 -56 144 -132 144c-65 0 -129 -58 -129 -144c0 -82 55 -143 129 -143c84 0 132 71 132 143zM758 817l-542 -817h-48l540 817h50zM409 599
c0 -101 -76 -181 -180 -181c-106 0 -179 85 -179 181c0 98 83 181 179 181c111 0 180 -80 180 -181zM361 599c0 78 -56 144 -132 144c-65 0 -129 -58 -129 -144c0 -82 55 -143 129 -143c84 0 132 71 132 143zM844 167c0 -101 -76 -181 -180 -181c-106 0 -179 85 -179 181
c0 98 83 181 179 181c111 0 180 -80 180 -181zM796 167c0 78 -56 144 -132 144c-65 0 -129 -58 -129 -144c0 -82 55 -143 129 -143c84 0 132 71 132 143z" />
    <glyph glyph-name="trademark" unicode="&#x2122;" horiz-adv-x="1070" 
d="M199 415v380c-24 0 -42 0 -67 -1c-58 -3 -85 -31 -90 -84h-9v107h399v-107h-10c-5 53 -24 81 -83 84c-25 1 -48 1 -71 1v-380c0 -15 10 -23 28 -24l29 -2v-16h-179v16l23 2c24 2 30 10 30 24zM964 772l11 -245c3 -71 6 -100 8 -116c1 -15 10 -19 28 -20l29 -2v-17h-179
v17l24 2c24 2 29 5 29 20c-1 18 -2 59 -5 113l-9 235l-146 -385h-24l-146 386l-17 -338c-1 -15 4 -30 22 -31l30 -2v-16h-145v16l24 2c20 2 36 10 37 31l20 350c1 16 -14 26 -31 27l-30 2v16h143l126 -341l127 341h132v-16l-30 -2c-17 -2 -28 -11 -28 -27z" />
    <glyph glyph-name="lozenge" unicode="&#x25ca;" horiz-adv-x="563" 
d="M278 -50l-248 425l248 434l255 -434zM480 375l-202 345l-196 -345l197 -339z" />
    <glyph glyph-name="minus" unicode="&#x2212;" horiz-adv-x="554" 
d="M50 234v42h454v-42h-454z" />
    <glyph glyph-name="lessequal" unicode="&#x2264;" horiz-adv-x="605" 
d="M50 282v43l505 178v-49l-446 -150l446 -166v-51zM61 0v42h494v-42h-494z" />
    <glyph glyph-name="greaterequal" unicode="&#x2265;" horiz-adv-x="606" 
d="M556 325v-43l-505 -195v51l446 166l-446 150v49zM545 42v-42h-494v42h494z" />
    <glyph glyph-name="notequal" unicode="&#x2260;" horiz-adv-x="554" 
d="M50 323v42h246l50 125h47l-50 -125h161v-42h-178l-55 -138h233v-42h-250l-57 -143h-47l57 143h-157v42h174l55 138h-229z" />
    <glyph glyph-name="approxequal" unicode="&#x2248;" horiz-adv-x="659" 
d="M183 228c100 0 205 -99 292 -99c39 0 72 19 98 80l40 -16c-26 -77 -79 -108 -137 -108c-104 0 -207 98 -292 98c-39 0 -73 -22 -98 -84l-40 18c26 77 79 111 137 111zM183 409c100 0 205 -99 292 -99c39 0 72 19 98 80l40 -16c-26 -77 -79 -108 -137 -108
c-104 0 -207 98 -292 98c-39 0 -73 -22 -98 -84l-40 18c26 77 79 111 137 111z" />
    <glyph glyph-name="partialdiff" unicode="&#x2202;" horiz-adv-x="565" 
d="M273 503c96 0 176 -54 208 -183c-8 98 -44 187 -102 258c-58 70 -144 122 -238 150l15 41c143 -45 248 -129 306 -229c46 -80 63 -168 63 -252c0 -153 -74 -302 -246 -302c-152 0 -239 125 -239 258c0 161 115 259 233 259zM277 458c-94 0 -184 -80 -184 -212
s91 -215 185 -215c130 0 191 102 191 204c0 107 -64 223 -192 223z" />
    <glyph glyph-name="product" unicode="&#x220f;" horiz-adv-x="848" 
d="M70 775v42h708v-42h-92v-863h92v-42h-225v42h87v863h-432v-863h87v-42h-225v42h92v863h-92z" />
    <glyph glyph-name="radical" unicode="&#x221a;" horiz-adv-x="691" 
d="M20 349v43h157l122 -325l250 812h242v-43h-207l-285 -892l-155 405h-124z" />
    <glyph glyph-name="summation" unicode="&#x2211;" horiz-adv-x="704" 
d="M295 407l-268 410h592v-230h-46v188h-460l240 -368l-257 -365h487v188h46v-230h-619z" />
    <glyph glyph-name="integral" unicode="&#x222b;" horiz-adv-x="267" 
d="M111 -172v869c0 67 15 120 126 120h10v-42c-67 0 -90 -16 -90 -78v-869c0 -67 -16 -120 -127 -120h-10v42c67 0 91 16 91 78z" />
    <glyph glyph-name="infinity" unicode="&#x221e;" horiz-adv-x="787" 
d="M211 376c68 0 119 -32 184 -107c55 71 109 107 181 107c95 0 161 -60 161 -144c0 -85 -63 -145 -159 -145c-70 0 -129 43 -183 113c-58 -71 -117 -112 -186 -112c-96 0 -159 60 -159 144s65 144 161 144zM213 130c56 0 101 35 151 102c-45 57 -88 102 -148 102
c-69 0 -117 -41 -117 -102c0 -54 45 -102 114 -102zM578 130c62 0 110 45 110 102c0 54 -45 102 -119 102c-52 0 -92 -33 -143 -99c47 -63 92 -105 152 -105z" />
    <glyph glyph-name="Delta" unicode="&#x2206;" horiz-adv-x="604" 
d="M301 588l303 -588h-604zM301 493l-234 -451h466z" />
    <glyph glyph-name="Omega" unicode="&#x2126;" horiz-adv-x="932" 
d="M561 0v41c124 41 270 160 270 367c0 266 -206 383 -366 383c-161 0 -369 -119 -369 -376c0 -212 145 -331 273 -373v-42h-339v42h247c-127 61 -226 209 -226 369c0 251 181 421 414 421s414 -177 414 -428c0 -158 -99 -302 -224 -362h247v-42h-341z" />
    <glyph glyph-name="Euro" unicode="&#x20ac;" horiz-adv-x="823" 
d="M-42 462v34h100c37 209 203 337 421 337c106 0 198 -27 287 -77v-148h-11c-62 142 -172 192 -278 192c-138 0 -274 -91 -304 -304h229v-34h-233c-1 -19 -2 -38 -2 -58c0 -18 0 -35 2 -51h233v-34h-229c29 -203 162 -300 302 -300c113 0 223 32 289 202h11v-145
c-90 -68 -194 -90 -296 -90c-254 0 -389 152 -422 333h-99v34h95c-2 18 -3 36 -3 54c0 19 1 37 3 55h-95z" />
    <glyph glyph-name="fi" unicode="&#xfb01;" horiz-adv-x="610" 
d="M27 455v26h79v94c0 182 99 254 222 254c77 0 182 -37 182 -105c0 -26 -19 -48 -43 -48c-93 0 -24 134 -149 134c-81 0 -120 -64 -120 -232v-97h306v-405c0 -43 12 -55 57 -55h25v-21h-256v21h25c45 0 57 12 57 55v329c0 38 -10 50 -45 50h-169v-367c0 -55 22 -67 77 -67
h25v-21h-276v21h25c45 0 57 12 57 55v379h-79z" />
    <glyph glyph-name="fl" unicode="&#xfb02;" horiz-adv-x="611" 
d="M27 455v26h79v94c0 182 82 254 205 254c33 0 74 -4 103 -12h96v-741c0 -43 12 -55 57 -55h25v-21h-256v21h25c45 0 57 12 57 55v635c-64 59 -36 99 -107 99c-81 0 -113 -64 -113 -232v-97h145v-26h-145v-367c0 -55 22 -67 77 -67h25v-21h-276v21h25c45 0 57 12 57 55v379
h-79z" />
    <glyph glyph-name="uniFB06" unicode="&#xfb06;" horiz-adv-x="814" 
d="M215 10c62 0 110 30 110 92c0 58 -43 90 -97 104l-49 13c-99 26 -126 79 -126 145c0 87 75 139 171 139c110 0 160 -50 160 -80c0 -20 -16 -32 -33 -32c-30 0 -39 25 -53 46c-20 31 -39 42 -78 42c-47 0 -96 -27 -96 -80c0 -52 32 -80 97 -98l42 -12
c86 -24 142 -62 142 -151c0 -100 -92 -152 -186 -152c-117 0 -182 47 -182 84c0 22 19 33 35 33c34 0 44 -32 59 -53c21 -29 46 -40 84 -40zM485 455v26h69l76 132h15v-132h156v-26h-156v-350c0 -62 28 -81 72 -81c29 0 65 9 86 23l6 -9c-55 -44 -97 -52 -145 -52
c-65 0 -110 32 -110 108v361h-69z" />
    <glyph glyph-name="dot" horiz-adv-x="307" 
d="M89 717c0 36 28 65 64 65s65 -29 65 -65s-29 -64 -65 -64s-64 28 -64 64z" />
    <glyph glyph-name="breve" unicode="&#x2d8;" horiz-adv-x="390" 
d="M317 749h43c-16 -140 -119 -160 -166 -160c-51 0 -148 20 -164 160h45c14 -82 58 -120 122 -120c62 0 106 38 120 120z" />
    <glyph glyph-name="caron" unicode="&#x2c7;" horiz-adv-x="342" 
d="M328 805l-154 -244h-9l-163 244h11l156 -151l148 151h11z" />
    <glyph glyph-name="circumflex" unicode="&#x2c6;" horiz-adv-x="386" 
d="M202 800l154 -244h-11l-148 147l-156 -147h-11l163 244h9z" />
    <glyph glyph-name="dotaccent" unicode="&#x2d9;" horiz-adv-x="189" 
d="M30 675c0 36 28 65 64 65s65 -29 65 -65s-29 -64 -65 -64s-64 28 -64 64z" />
    <glyph glyph-name="dotaccent.low" horiz-adv-x="500" 
d="M185 -158c0 36 28 65 64 65s65 -29 65 -65s-29 -64 -65 -64s-64 28 -64 64z" />
    <glyph glyph-name="hungarumlaut" unicode="&#x2dd;" horiz-adv-x="397" 
d="M211 790l-163 -234h-13l86 234h90zM362 790l-163 -234h-13l86 234h90z" />
    <glyph glyph-name="commaaccent" horiz-adv-x="500" 
d="M198 -107c0 33 21 59 58 59c39 0 59 -30 59 -68c0 -73 -67 -131 -125 -156l-4 8c29 17 67 62 67 99c-31 1 -55 27 -55 58z" />
    <glyph glyph-name="ogonek" unicode="&#x2db;" horiz-adv-x="500" 
d="M402 -206l3 -8c-25 -16 -60 -29 -94 -29c-50 0 -96 24 -96 84c0 64 66 115 141 159h10c-46 -44 -78 -98 -78 -141c0 -50 39 -71 78 -71c12 0 25 2 36 6z" />
    <glyph glyph-name="ring" unicode="&#x2da;" horiz-adv-x="264" 
d="M234 683c0 -55 -46 -98 -102 -98s-102 43 -102 98s46 98 102 98s102 -43 102 -98zM196 683c0 39 -30 65 -64 65c-37 0 -63 -29 -63 -65s26 -65 63 -65c40 0 64 29 64 65z" />
    <glyph glyph-name="tilde" unicode="&#x2dc;" horiz-adv-x="417" 
d="M335 708l45 47l7 -4l-47 -117h-258l-45 -47l-7 4l47 117h258z" />
    <glyph glyph-name="one.pof" horiz-adv-x="280" 
d="M94 55v372c0 22 -18 34 -40 34h-30v21h231v-21h-29c-22 0 -40 -12 -40 -34v-372c0 -22 18 -34 40 -34h30v-21h-231v21h29c22 0 40 12 40 34z" />
    <glyph glyph-name="two.pof" horiz-adv-x="512" 
d="M467 0h-465c113 78 332 237 332 356c0 65 -42 99 -112 99c-38 0 -81 -11 -138 -71l-7 5c54 94 128 114 196 114c104 0 164 -55 164 -122c0 -123 -183 -236 -297 -301h231c35 2 74 7 91 78h5v-158z" />
    <glyph glyph-name="three.pof" horiz-adv-x="428" 
d="M76 108l-5 10c125 57 194 144 194 231c0 70 -47 115 -114 115c-47 0 -85 -16 -118 -45l-6 7c52 59 121 77 174 77c87 0 159 -47 159 -131c0 -97 -106 -173 -186 -208c118 -19 195 -95 195 -196c0 -100 -78 -246 -272 -246c-48 0 -119 17 -162 62l7 8
c41 -29 87 -39 124 -39c112 0 203 80 203 204c0 81 -61 151 -175 151h-18z" />
    <glyph glyph-name="four.pof" horiz-adv-x="592" 
d="M393 0v-217c0 -22 17 -34 39 -34h30v-21h-231v21h29c22 0 41 12 41 34v217h-297l-4 7l387 505h11v-447h52c69 0 102 14 115 83h7v-148h-179zM80 65h226v293z" />
    <glyph glyph-name="five.pof" horiz-adv-x="465" 
d="M34 114l-9 3l126 372h216v-80h-212l-71 -203c43 30 83 38 112 38c119 0 187 -88 187 -197c0 -170 -160 -292 -388 -382l-6 12c218 119 290 204 290 361c0 82 -48 137 -123 137c-33 0 -75 -10 -122 -61z" />
    <glyph glyph-name="six.pof" horiz-adv-x="612" 
d="M519 815c-202 -86 -301 -224 -346 -384c43 48 95 72 165 72c82 0 229 -65 229 -260c0 -140 -116 -257 -269 -257c-161 0 -253 129 -253 306c0 271 253 469 469 534zM307 462c-43 0 -101 -10 -140 -53c-2 -7 -4 -14 -5 -21c-11 -50 -17 -99 -17 -149
c0 -119 57 -224 150 -224c100 0 168 98 168 234c0 120 -61 213 -156 213z" />
    <glyph glyph-name="seven.pof" horiz-adv-x="532" 
d="M15 -279l423 687h-252c-79 0 -114 -12 -127 -83h-14v166h473l-454 -796z" />
    <glyph glyph-name="eight.pof" horiz-adv-x="606" 
d="M84 600c0 94 71 191 217 191c139 0 207 -74 207 -157c0 -76 -62 -149 -177 -193l55 -34c103 -65 157 -125 157 -213c0 -87 -78 -208 -252 -208c-128 0 -241 77 -241 195c0 86 61 163 176 204l-13 8c-84 52 -129 130 -129 207zM133 190c0 -105 66 -177 160 -177
c97 0 151 68 151 146c0 46 -16 100 -117 163l-87 54c-73 -46 -107 -121 -107 -186zM429 614c0 81 -39 152 -127 152c-74 0 -127 -53 -127 -137c0 -74 61 -128 136 -175l7 -5c63 39 111 99 111 165z" />
    <glyph glyph-name="nine.pof" horiz-adv-x="612" 
d="M93 -335c202 86 301 233 346 394c-43 -49 -96 -72 -165 -72c-82 0 -229 65 -229 260c0 140 116 257 269 257c161 0 253 -129 253 -306c0 -271 -253 -479 -469 -544zM305 28c43 0 101 10 140 53c1 7 3 14 5 21c11 50 17 99 17 149c0 119 -57 224 -150 224
c-100 0 -168 -98 -168 -234c0 -120 61 -213 156 -213z" />
    <glyph glyph-name="zero.pof" horiz-adv-x="614" 
d="M310 503c158 0 244 -114 244 -258c0 -145 -102 -259 -250 -259c-150 0 -244 110 -244 259c0 143 92 258 250 258zM307 49c109 0 176 82 176 196c0 105 -66 197 -176 197c-104 0 -176 -86 -176 -197c0 -101 58 -196 176 -196z" />
    <glyph glyph-name="fraction" unicode="&#x2044;" horiz-adv-x="591" 
d="M591 817l-543 -817h-48l541 817h50z" />
    <glyph glyph-name="acute.case" horiz-adv-x="500" 
d="M348 1086l-183 -234h-13l106 234h90z" />
    <glyph glyph-name="breve.case" horiz-adv-x="500" 
d="M372 1045h43c-16 -140 -119 -160 -166 -160c-51 0 -148 20 -164 160h45c14 -82 58 -120 122 -120c62 0 106 38 120 120z" />
    <glyph glyph-name="caron.case" horiz-adv-x="500" 
d="M413 1101l-154 -244h-9l-163 244h11l156 -151l148 151h11z" />
    <glyph glyph-name="cedilla.case" horiz-adv-x="500" 
d="M226 -4h30l-53 -74c16 12 34 20 57 20c46 0 80 -22 80 -71c0 -75 -107 -118 -178 -116l-3 6c87 8 130 71 130 107c0 31 -14 47 -50 47c-16 0 -30 -6 -41 -14l-24 19z" />
    <glyph glyph-name="circumflex.case" horiz-adv-x="500" 
d="M259 1096l154 -244h-11l-148 147l-156 -147h-11l163 244h9z" />
    <glyph glyph-name="dieresis.case" horiz-adv-x="500" 
d="M49 971c0 36 29 65 65 65s65 -29 65 -65s-29 -65 -65 -65s-65 29 -65 65zM321 971c0 36 29 65 65 65s65 -29 65 -65s-29 -65 -65 -65s-65 29 -65 65z" />
    <glyph glyph-name="dotaccent.case" horiz-adv-x="500" 
d="M186 961c0 36 28 65 64 65s65 -29 65 -65s-29 -64 -65 -64s-64 28 -64 64z" />
    <glyph glyph-name="grave.case" horiz-adv-x="500" 
d="M335 852l-183 234h90l106 -234h-13z" />
    <glyph glyph-name="hungarumlaut.case" horiz-adv-x="500" 
d="M262 1086l-163 -234h-13l86 234h90zM413 1086l-163 -234h-13l86 234h90z" />
    <glyph glyph-name="macron.case" horiz-adv-x="500" 
d="M83 915v47h334v-47h-334z" />
    <glyph glyph-name="ogonek.case" horiz-adv-x="500" 
d="M342 -205l3 -8c-25 -16 -60 -29 -94 -29c-50 0 -96 24 -96 84c0 64 66 115 141 159h10c-46 -44 -78 -98 -78 -141c0 -66 68 -81 114 -65z" />
    <glyph glyph-name="ring.case" horiz-adv-x="500" 
d="M352 979c0 -55 -46 -98 -102 -98s-102 43 -102 98s46 98 102 98s102 -43 102 -98zM314 979c0 39 -30 65 -64 65c-37 0 -63 -29 -63 -65s26 -65 63 -65c40 0 64 29 64 65z" />
    <glyph glyph-name="tilde.case" horiz-adv-x="500" 
d="M402 1004l45 47l7 -4l-47 -122h-308l-45 -47l-7 4l47 122h308z" />
    </font>
</defs>
</svg>
