<?xml version="1.0" standalone="no"?>
<!DOCTYPE svg PUBLIC "-//W3C//DTD SVG 1.1//EN" "http://www.w3.org/Graphics/SVG/1.1/DTD/svg11.dtd" >
<svg xmlns="http://www.w3.org/2000/svg" xmlns:xlink="http://www.w3.org/1999/xlink" version="1.1">
<metadata>
Created by FontForge 20170924 at Mon Oct 20 21:45:48 2014
 By www-data
Copyright (c) 2014 Swiss Typefaces Sa`rl. All rights reserved.
</metadata>
<defs>
<font id="RomainHeadline-Italic" horiz-adv-x="441" >
  <font-face 
    font-family="Romain Headline Italic"
    font-weight="400"
    font-style="italic"
    font-stretch="normal"
    units-per-em="1000"
    panose-1="2 2 0 0 0 0 0 0 0 0"
    ascent="786"
    descent="-214"
    x-height="481"
    cap-height="817"
    bbox="-255 -347 1339 1097"
    underline-thickness="30"
    underline-position="-150"
    slope="-9"
    stemh="21"
    stemv="115"
    unicode-range="U+0020-FB06"
  />
<missing-glyph horiz-adv-x="697" 
d="M100 0v787h497v-787h-497zM112 777v-767h473v767h-473z" />
    <glyph glyph-name="f_f" unicode="ff" horiz-adv-x="617" 
d="M334 -27l67 482h-163l-81 -491c-35 -213 -152 -269 -239 -269c-60 0 -135 23 -135 69c0 25 20 41 42 41c61 0 58 -90 109 -90c38 0 97 48 127 229l85 511h-95l7 26h92l6 35c36 214 159 272 247 272c37 0 80 -9 107 -25c49 45 106 61 152 61c60 0 135 -23 135 -66
c0 -28 -20 -44 -42 -44c-61 0 -58 91 -109 91c-38 0 -110 -51 -135 -230l-13 -94h161l-6 -26h-159l-64 -462c-34 -243 -116 -298 -203 -298c-60 0 -114 24 -114 67c0 28 19 43 41 43c61 0 38 -90 89 -90c38 0 61 47 91 258zM242 481h163l10 71c8 58 23 105 43 142
c-26 26 -34 75 -71 75c-38 0 -106 -52 -135 -230z" />
    <glyph glyph-name="f_i" unicode="fi" horiz-adv-x="563" 
d="M51 455l7 26h78l10 71c30 215 159 272 247 272c60 0 139 -22 139 -72c0 -25 -16 -48 -50 -48c-61 0 -54 101 -105 101c-38 0 -110 -51 -135 -230l-13 -94h264l-66 -368c-4 -20 -10 -81 12 -81c18 0 47 31 79 71l14 -10c-42 -61 -80 -107 -133 -107c-61 0 -80 41 -66 119
l64 350h-172l-68 -491c-30 -214 -152 -269 -239 -269c-60 0 -133 21 -135 64c0 28 20 46 42 46c61 0 58 -90 109 -90c38 0 102 47 127 229l71 511h-81z" />
    <glyph glyph-name="f_f_i" unicode="ffi" horiz-adv-x="831" 
d="M51 455l7 26h92l6 35c36 214 159 272 247 272c37 0 80 -9 107 -25c49 45 106 61 152 61c60 0 139 -22 139 -72c0 -25 -16 -48 -50 -48c-61 0 -54 101 -105 101c-38 0 -110 -51 -135 -230l-13 -94h264l-66 -368c-4 -20 -10 -81 12 -81c18 0 47 31 79 71l14 -10
c-42 -61 -80 -107 -133 -107c-61 0 -80 41 -66 119l64 350h-172l-64 -462c-34 -243 -116 -298 -203 -298c-60 0 -114 24 -114 67c0 28 19 43 41 43c61 0 38 -90 89 -90c38 0 61 47 91 258l67 482h-163l-81 -491c-35 -213 -152 -269 -239 -269c-60 0 -135 21 -135 68
c0 24 18 42 42 42c61 0 58 -90 109 -90c38 0 97 48 127 229l85 511h-95zM415 552c8 58 23 105 43 142c-26 26 -34 75 -71 75c-38 0 -106 -52 -135 -230l-10 -58h163z" />
    <glyph glyph-name="f_l" unicode="fl" horiz-adv-x="582" 
d="M549 817l-100 -704c-7 -47 -16 -79 5 -79c13 0 46 22 85 72l13 -10c-41 -61 -77 -110 -131 -110c-56 0 -76 43 -66 112l90 635c-34 24 -33 72 -68 72c-38 0 -110 -51 -135 -230l-13 -94h140l-6 -26h-138l-68 -491c-30 -214 -152 -269 -239 -269c-60 0 -133 21 -135 64
c0 28 20 46 42 46c61 0 58 -90 109 -90c38 0 102 47 127 229l71 511h-81l7 26h78l10 71c30 215 159 272 247 272c30 0 57 -3 81 -7h75z" />
    <glyph glyph-name="f_f_l" unicode="ffl" horiz-adv-x="851" 
d="M51 455l7 26h92l6 35c36 214 159 272 247 272c37 0 80 -9 107 -25c49 45 106 61 152 61c30 0 57 -3 81 -7h75l-100 -704c-7 -47 -16 -79 5 -79c13 0 46 22 85 72l13 -10c-41 -61 -77 -110 -131 -110c-56 0 -76 43 -66 112l90 635c-34 24 -33 72 -68 72
c-38 0 -110 -51 -135 -230l-13 -94h140l-6 -26h-138l-64 -462c-34 -243 -116 -298 -203 -298c-60 0 -114 24 -114 67c0 28 19 43 41 43c61 0 38 -90 89 -90c38 0 61 47 91 258l67 482h-163l-81 -491c-35 -213 -152 -269 -239 -269c-60 0 -135 23 -135 69c0 25 20 41 42 41
c61 0 58 -90 109 -90c38 0 97 48 127 229l85 511h-95zM242 481h163l10 71c8 58 23 105 43 142c-26 26 -34 75 -71 75c-38 0 -106 -52 -135 -230z" />
    <glyph glyph-name=".notdef" horiz-adv-x="697" 
d="M100 0v787h497v-787h-497zM112 777v-767h473v767h-473z" />
    <glyph glyph-name=".null" horiz-adv-x="190" 
 />
    <glyph glyph-name="CR" horiz-adv-x="190" 
 />
    <glyph glyph-name="space" unicode=" " horiz-adv-x="190" 
 />
    <glyph glyph-name="exclam" unicode="!" horiz-adv-x="249" 
d="M123 816c42 15 83 15 121 0c-42 -223 -105 -425 -153 -636h-18c20 212 30 427 50 636zM0 51c0 36 29 65 65 65s65 -29 65 -65s-29 -65 -65 -65s-65 29 -65 65z" />
    <glyph glyph-name="quotedbl" unicode="&#x22;" horiz-adv-x="339" 
d="M223 560l-10 220h93l-60 -220h-23zM77 560l-10 220h93l-60 -220h-23z" />
    <glyph glyph-name="numbersign" unicode="#" horiz-adv-x="846" 
d="M140 512l27 43h181l147 262h51l-147 -262h219l147 262h51l-147 -262h172l-27 -43h-169l-132 -237h191l-27 -43h-188l-130 -232h-51l130 232h-219l-130 -232h-51l130 232h-165l27 43h162l132 237h-184zM375 512l-132 -237h219l132 237h-219z" />
    <glyph glyph-name="dollar" unicode="$" horiz-adv-x="663" 
d="M357 835l14 87h42l-14 -89c72 -6 146 -35 184 -71l-19 -127h-10c-24 101 -82 155 -160 167l-51 -320l8 -5c76 -49 204 -102 204 -236c0 -156 -127 -255 -290 -255h-1l-14 -89h-42l14 91c-97 6 -160 34 -212 69l21 146h10c26 -128 86 -174 187 -180l58 364l-56 34
c-98 59 -129 128 -129 202c0 126 96 207 256 212zM444 189c0 76 -41 125 -120 175l-54 -342c102 5 174 68 174 167zM204 660c0 -45 19 -101 83 -142l18 -12l47 298c-79 -4 -148 -46 -148 -144z" />
    <glyph glyph-name="percent" unicode="%" horiz-adv-x="902" 
d="M823 817l-671 -817h-51l669 817h53zM246 456c89 0 141 81 141 161c0 66 -39 122 -114 122c-78 0 -142 -70 -142 -160c0 -62 34 -123 115 -123zM244 415c-108 0 -160 74 -160 159c0 121 80 205 193 205c110 0 159 -73 159 -155c0 -110 -80 -209 -192 -209zM612 27
c89 0 141 81 141 161c0 66 -39 122 -114 122c-78 0 -142 -70 -142 -160c0 -62 34 -123 115 -123zM610 -14c-108 0 -160 74 -160 159c0 121 80 205 193 205c110 0 159 -73 159 -155c0 -110 -80 -209 -192 -209z" />
    <glyph glyph-name="ampersand" unicode="&#x26;" horiz-adv-x="843" 
d="M633 707c0 -89 -100 -171 -191 -209l140 -195c55 164 146 178 189 178c39 0 72 -15 72 -45c0 -27 -23 -44 -47 -44c-34 0 -53 24 -82 24c-31 0 -68 -15 -120 -129l84 -116c31 -42 44 -80 44 -112c0 -71 -66 -118 -162 -150l-5 8c55 31 79 64 79 103c0 32 -17 68 -48 110
l-39 52c-77 -147 -175 -196 -292 -196c-155 0 -218 108 -218 209c0 146 121 238 298 271c-54 73 -73 134 -73 181c0 114 87 185 218 185c85 0 153 -49 153 -125zM306 38c69 0 162 36 229 160l-191 255c-123 -42 -198 -122 -198 -246c0 -96 68 -169 160 -169zM419 531l15 -22
c67 39 139 115 139 196c0 53 -35 108 -89 108c-88 0 -119 -70 -119 -137c0 -50 18 -96 54 -145z" />
    <glyph glyph-name="quotesingle" unicode="'" horiz-adv-x="193" 
d="M63 560l-10 220h93l-60 -220h-23z" />
    <glyph glyph-name="parenleft" unicode="(" horiz-adv-x="340" 
d="M365 823h54c-200 -176 -310 -426 -310 -666c0 -166 45 -346 142 -450h-55c-91 98 -135 273 -135 442c0 250 115 515 304 674z" />
    <glyph glyph-name="parenright" unicode=")" horiz-adv-x="344" 
d="M97 823h54c86 -99 129 -277 129 -437c0 -251 -122 -521 -313 -679h-55c198 169 319 424 319 668c0 154 -41 342 -134 448z" />
    <glyph glyph-name="asterisk" unicode="*" horiz-adv-x="368" 
d="M229 805l-21 -124l119 64l19 -36l-121 -63l102 -62l-26 -38l-104 66l-19 -129h-43l20 120l-112 -60l-18 36l118 62l-101 62l26 38l99 -64l19 128h43z" />
    <glyph glyph-name="plus" unicode="+" horiz-adv-x="554" 
d="M289 488h46l-34 -212h216l-7 -42h-216l-34 -217h-46l34 217h-212l7 42h212z" />
    <glyph glyph-name="comma" unicode="," horiz-adv-x="242" 
d="M123 -14c-30 9 -54 32 -54 63c0 37 25 67 67 67c44 0 64 -36 64 -75c0 -85 -104 -146 -163 -165l-3 7c32 19 81 62 89 103z" />
    <glyph glyph-name="hyphen" unicode="-" horiz-adv-x="394" 
d="M46 234l7 42h294l-7 -42h-294z" />
    <glyph glyph-name="period" unicode="." horiz-adv-x="228" 
d="M49 51c0 36 29 65 65 65s65 -29 65 -65s-29 -65 -65 -65s-65 29 -65 65z" />
    <glyph glyph-name="slash" unicode="/" horiz-adv-x="389" 
d="M457 832l-479 -865h-48l479 865h48z" />
    <glyph glyph-name="zero" unicode="0" horiz-adv-x="690" 
d="M156 250c0 -169 65 -238 129 -238c139 0 244 262 244 458c0 171 -64 243 -132 243c-144 0 -241 -266 -241 -463zM54 298c0 220 145 441 343 441c152 0 236 -118 236 -309c0 -225 -144 -445 -345 -445c-143 0 -234 120 -234 313z" />
    <glyph glyph-name="one" unicode="1" horiz-adv-x="366" 
d="M109 112l85 536c-38 -6 -93 -1 -130 5l2 11c67 12 145 36 218 75h16l-99 -625c-11 -71 3 -93 70 -93h33l-3 -21h-330l3 21h33c68 0 90 19 102 91z" />
    <glyph glyph-name="two" unicode="2" horiz-adv-x="592" 
d="M-54 0l-2 6c213 174 508 358 508 562c0 69 -50 118 -126 118c-93 0 -163 -54 -184 -145l-17 1c18 119 114 197 244 197c109 0 194 -60 194 -161c0 -196 -275 -360 -500 -497h244c120 0 164 11 209 133h11l-34 -214h-547z" />
    <glyph glyph-name="three" unicode="3" horiz-adv-x="584" 
d="M318 687c-64 0 -141 -29 -179 -102l-12 5c53 123 157 149 236 149c101 0 162 -56 162 -121c0 -97 -101 -158 -218 -200c136 -11 197 -92 197 -181c0 -141 -112 -251 -294 -251c-102 0 -207 58 -207 124c0 33 18 47 43 47c35 0 43 -32 50 -62c12 -48 47 -87 116 -87
c113 0 187 96 187 206c0 91 -66 149 -155 149c-22 0 -45 -3 -68 -10l2 14c142 51 246 144 246 231c0 50 -40 89 -106 89z" />
    <glyph glyph-name="four" unicode="4" horiz-adv-x="647" 
d="M499 760l-74 -463h48c90 0 117 36 143 113h10l-30 -188h-183l-17 -108c-11 -71 0 -93 67 -93h33l-4 -21h-331l4 21h34c68 0 93 19 105 91l18 110h-345l-1 7l516 531h7zM384 604l-303 -307h253z" />
    <glyph glyph-name="five" unicode="5" horiz-adv-x="563" 
d="M565 769l-43 -138h-321l-78 -222c47 33 113 56 180 56c123 0 197 -82 197 -189c0 -170 -138 -290 -304 -290c-101 0 -210 61 -210 127c0 34 23 49 46 49c40 0 46 -42 57 -78s43 -73 114 -73c100 0 188 97 188 232c0 81 -46 151 -135 151c-59 0 -137 -25 -187 -77l-7 2
l138 401h249c56 0 86 13 106 49h10z" />
    <glyph glyph-name="six" unicode="6" horiz-adv-x="642" 
d="M567 763l6 -17c-230 -81 -341 -207 -397 -382c32 56 94 122 194 122c97 0 200 -64 200 -204c0 -166 -128 -296 -287 -296c-145 0 -239 94 -239 260c0 260 265 463 523 517zM336 442c-126 0 -198 -133 -198 -242c0 -115 56 -189 144 -189c107 0 182 122 182 264
c0 95 -48 167 -128 167z" />
    <glyph glyph-name="seven" unicode="7" horiz-adv-x="532" 
d="M499 631h-287c-75 0 -116 -31 -141 -102h-12l31 191h484l7 -9l-576 -813l-74 46z" />
    <glyph glyph-name="eight" unicode="8" horiz-adv-x="593" 
d="M116 552c0 104 81 191 237 191c124 0 197 -57 197 -126c0 -93 -78 -164 -212 -200l51 -44c74 -64 122 -112 122 -191c0 -106 -107 -195 -268 -195c-129 0 -233 67 -233 171s79 165 217 207l-12 10c-60 51 -99 114 -99 177zM93 154c0 -86 62 -140 152 -140
c102 0 159 49 159 131c0 46 -21 88 -89 145l-77 65c-104 -46 -145 -115 -145 -201zM470 617c0 56 -41 100 -121 100c-79 0 -136 -46 -136 -127c0 -61 53 -111 109 -159l5 -5c85 37 143 100 143 191z" />
    <glyph glyph-name="nine" unicode="9" horiz-adv-x="642" 
d="M51 -38l-6 17c230 81 341 207 397 382c-32 -56 -94 -122 -194 -122c-97 0 -200 64 -200 212c0 158 128 288 286 288c146 0 240 -94 240 -260c0 -260 -265 -463 -523 -517zM282 283c126 0 198 133 198 242c0 115 -56 189 -144 189c-107 0 -182 -122 -182 -264
c0 -95 48 -167 128 -167z" />
    <glyph glyph-name="colon" unicode=":" horiz-adv-x="265" 
d="M110 439c0 36 29 65 65 65s65 -29 65 -65s-29 -65 -65 -65s-65 29 -65 65zM49 51c0 36 29 65 65 65s65 -29 65 -65s-29 -65 -65 -65s-65 29 -65 65z" />
    <glyph glyph-name="semicolon" unicode=";" horiz-adv-x="282" 
d="M128 439c0 36 29 65 65 65s65 -29 65 -65s-29 -65 -65 -65s-65 29 -65 65zM123 -14c-30 9 -54 32 -54 63c0 37 25 67 67 67c44 0 64 -36 64 -75c0 -85 -104 -146 -163 -165l-3 7c32 19 81 62 89 103z" />
    <glyph glyph-name="less" unicode="&#x3c;" horiz-adv-x="555" 
d="M47 232l7 43l541 228l-8 -54l-479 -198l414 -214l-8 -50z" />
    <glyph glyph-name="equal" unicode="=" horiz-adv-x="554" 
d="M32 143l7 42h454l-7 -42h-454zM60 323l7 42h454l-7 -42h-454z" />
    <glyph glyph-name="greater" unicode="&#x3e;" horiz-adv-x="555" 
d="M509 275l-7 -43l-542 -245l8 55l481 214l-417 198l8 49z" />
    <glyph glyph-name="question" unicode="?" horiz-adv-x="385" 
d="M147 188l-8 -5c-9 11 -48 43 -48 105c0 182 231 274 231 445c0 38 -15 78 -58 78c-79 0 -86 -97 -143 -97c-19 0 -35 11 -35 33c0 51 94 82 174 82c81 0 151 -38 151 -130c0 -168 -273 -288 -273 -471c0 -21 5 -34 9 -40zM49 51c0 36 29 65 65 65s65 -29 65 -65
s-29 -65 -65 -65s-65 29 -65 65z" />
    <glyph glyph-name="at" unicode="@" horiz-adv-x="953" 
d="M663 132c-117 0 -146 71 -135 166c-56 -100 -119 -122 -174 -122c-87 0 -119 78 -119 140c0 181 124 319 265 319c26 0 61 -7 89 -25l9 33h90l-51 -275c-23 -124 -33 -193 57 -193c110 0 209 133 209 301c0 190 -144 318 -356 318c-246 0 -458 -187 -458 -452
c0 -199 149 -340 354 -340c38 0 71 7 109 15l6 -36c-44 -11 -87 -17 -132 -17c-225 0 -385 164 -385 380c0 288 233 489 507 489c211 0 401 -118 401 -357c0 -186 -118 -344 -286 -344zM532 327c0 1 0 3 1 5l36 190c1 64 -26 94 -66 94c-74 0 -163 -176 -163 -289
c0 -61 29 -91 69 -91c24 0 86 14 123 91z" />
    <glyph glyph-name="A" unicode="A" horiz-adv-x="789" 
d="M102 145l382 696h13l178 -761c10 -38 30 -59 70 -59h24l-3 -21h-285l3 21h22c40 0 69 12 60 49l-51 223h-289l-73 -134c-69 -122 -56 -138 17 -138h17l-3 -21h-240l3 21h10c56 0 85 15 145 124zM430 667l-167 -306h236z" />
    <glyph glyph-name="B" unicode="B" horiz-adv-x="725" 
d="M216 61c-4 -30 8 -34 65 -34h29c150 0 244 91 244 230c0 93 -60 156 -247 156h-35zM332 788l-57 -356h22c196 0 268 90 268 216c0 92 -72 140 -197 140h-36zM134 817h261c155 0 280 -45 280 -167c0 -119 -99 -201 -226 -218c129 -9 213 -73 213 -180
c0 -202 -201 -252 -329 -252h-327l3 21h35c45 0 65 12 72 55l105 665c7 43 -9 55 -54 55h-36z" />
    <glyph glyph-name="C" unicode="C" horiz-adv-x="844" 
d="M772 207l-23 -145c-100 -62 -179 -76 -281 -76c-272 0 -420 188 -420 397c0 271 195 450 441 450c106 0 246 -36 325 -91l-16 -152h-11c-40 154 -175 214 -293 214c-175 0 -326 -179 -326 -458c0 -219 122 -327 293 -327c113 0 206 23 300 188h11z" />
    <glyph glyph-name="D" unicode="D" horiz-adv-x="924" 
d="M338 787l-111 -702c-8 -49 4 -56 110 -56h18c199 0 411 144 411 433c0 234 -188 325 -360 325h-68zM140 817h273c314 0 467 -150 467 -355c0 -269 -209 -462 -505 -462h-363l3 21h35c45 0 65 12 72 55l105 665c7 43 -9 55 -54 55h-36z" />
    <glyph glyph-name="E" unicode="E" horiz-adv-x="733" 
d="M122 76l105 665c7 43 -9 55 -54 55h-36l3 21h583l-22 -157h-10c0 100 -53 120 -184 120h-170l-52 -328h125c68 0 123 7 153 102h10l-37 -239h-10c-1 96 -53 102 -121 102h-126l-51 -327c-7 -44 18 -53 56 -53h176c97 0 156 33 186 129h10l-26 -166h-618l3 21h35
c45 0 65 12 72 55z" />
    <glyph glyph-name="F" unicode="F" horiz-adv-x="668" 
d="M718 817l-22 -157h-10c0 100 -53 120 -184 120h-165l-52 -328h120c68 0 123 7 153 102h10l-37 -239h-10c-1 96 -53 102 -121 102h-121l-52 -333c-8 -51 15 -63 64 -63h46l-3 -21h-322l3 21h35c45 0 65 12 72 55l105 665c7 43 -9 55 -54 55h-36l3 21h578z" />
    <glyph glyph-name="G" unicode="G" horiz-adv-x="905" 
d="M486 833c116 0 249 -36 328 -91l-16 -152h-11c-40 154 -180 214 -286 214c-175 0 -333 -179 -333 -458c0 -219 122 -327 293 -327c80 0 200 8 218 128l19 124c3 22 -12 34 -34 34h-40l3 21h263l-3 -21h-39c-22 0 -43 -12 -46 -34l-18 -115c-16 -103 -143 -170 -316 -170
c-272 0 -420 188 -420 397c0 271 208 450 438 450z" />
    <glyph glyph-name="H" unicode="H" horiz-adv-x="959" 
d="M647 76l53 338h-421l-53 -338c-7 -43 9 -55 54 -55h36l-3 -21h-301l3 21h35c45 0 65 12 72 55l105 665c7 43 -9 55 -54 55h-36l3 21h302l-3 -21h-36c-45 0 -65 -12 -72 -55l-46 -288h421l46 288c7 43 -9 55 -54 55h-36l3 21h302l-3 -21h-36c-45 0 -65 -12 -72 -55
l-105 -665c-7 -43 9 -55 54 -55h36l-3 -21h-302l3 21h36c45 0 65 12 72 55z" />
    <glyph glyph-name="I" unicode="I" horiz-adv-x="434" 
d="M122 76l105 665c7 43 -9 55 -54 55h-36l3 21h302l-3 -21h-36c-45 0 -65 -12 -72 -55l-105 -665c-7 -43 9 -55 54 -55h36l-3 -21h-301l3 21h35c45 0 65 12 72 55z" />
    <glyph glyph-name="J" unicode="J" horiz-adv-x="467" 
d="M221 298l71 443c7 43 -14 55 -64 55h-36l3 21h312l-3 -21h-36c-45 0 -65 -12 -72 -55l-71 -443c-24 -152 -64 -312 -235 -312c-98 0 -140 52 -140 85c0 28 19 47 48 47c24 0 44 -14 49 -46c7 -45 15 -67 48 -67c70 0 92 82 126 293z" />
    <glyph glyph-name="K" unicode="K" horiz-adv-x="810" 
d="M112 76l105 665c7 43 -9 55 -54 55h-36l3 21h302l-3 -21h-36c-45 0 -65 -12 -72 -55l-51 -325l309 286c51 47 83 94 0 94h-20l3 21h258l-3 -21h-10c-64 0 -109 -32 -174 -93l-270 -253l237 -347c52 -77 108 -86 148 -86l3 -17c-29 -8 -59 -14 -87 -14
c-97 0 -147 49 -180 98l-216 323l-52 -331c-7 -43 9 -55 54 -55h36l-3 -21h-301l3 21h35c45 0 65 12 72 55z" />
    <glyph glyph-name="L" unicode="L" horiz-adv-x="666" 
d="M112 76l105 665c7 43 -9 55 -54 55h-36l3 21h302l-3 -21h-36c-45 0 -65 -12 -72 -55l-102 -647c-8 -49 16 -58 59 -58h171c97 0 157 34 187 130h10l-26 -166h-618l3 21h35c45 0 65 12 72 55z" />
    <glyph glyph-name="M" unicode="M" horiz-adv-x="1060" 
d="M960 717l-78 -641c-5 -43 9 -55 54 -55h36l-3 -21h-305l3 21h36c45 0 67 12 72 55l80 640l-387 -730h-11l-169 709l-113 -572c-14 -73 -6 -102 54 -102h38l-3 -21h-260l3 21h35c51 0 75 28 90 103l120 593c13 64 -41 78 -83 78l3 22h206l150 -637l334 637h210l-3 -22
c-42 0 -101 -14 -109 -78z" />
    <glyph glyph-name="N" unicode="N" horiz-adv-x="923" 
d="M730 174l83 522c11 70 4 100 -56 100h-38l3 21h261l-3 -21h-30c-57 0 -84 -29 -95 -100l-112 -710h-9l-464 699l-89 -564c-11 -70 -4 -100 56 -100h38l-3 -21h-260l3 21h29c57 0 84 29 95 100l93 586c10 64 -52 88 -94 88l3 22h172z" />
    <glyph glyph-name="O" unicode="O" horiz-adv-x="954" 
d="M499 804c-178 0 -331 -181 -331 -458c0 -230 130 -329 292 -329c183 0 327 179 327 455c0 228 -127 332 -288 332zM486 833c239 0 416 -154 416 -394c0 -266 -188 -451 -430 -451c-245 0 -420 154 -420 397c0 262 196 448 434 448z" />
    <glyph glyph-name="P" unicode="P" horiz-adv-x="682" 
d="M338 785l-60 -379c30 -7 60 -11 88 -11c124 0 235 53 235 219c0 125 -69 176 -206 176c-18 0 -37 -2 -57 -5zM140 817h254c196 0 318 -60 318 -202c0 -174 -138 -255 -288 -255c-48 0 -99 11 -148 33l-49 -309c-8 -51 15 -63 64 -63h46l-3 -21h-322l3 21h35
c45 0 65 12 72 55l105 665c7 43 -9 55 -54 55h-36z" />
    <glyph glyph-name="Q" unicode="Q" horiz-adv-x="954" 
d="M486 833c239 0 416 -164 416 -404c0 -182 -88 -321 -221 -391l113 -203l-5 -5l-265 161c-17 -2 -35 -3 -52 -3c-245 0 -420 164 -420 407c0 262 196 438 434 438zM499 804c-178 0 -331 -171 -331 -448c0 -230 130 -339 292 -339c183 0 327 169 327 445
c0 228 -127 342 -288 342z" />
    <glyph glyph-name="R" unicode="R" horiz-adv-x="772" 
d="M328 785l-58 -369h24c152 0 276 43 276 215c0 102 -59 155 -208 155c-11 0 -22 0 -34 -1zM130 817h249c166 0 303 -37 303 -181c0 -115 -99 -207 -253 -229c114 -17 165 -83 179 -192c18 -149 30 -209 152 -205l2 -12c-34 -9 -65 -12 -91 -12c-122 0 -168 79 -181 219
c-13 143 -89 184 -209 184h-16l-48 -306c-8 -50 8 -62 64 -62h35l-3 -21h-311l2 21h36c45 0 65 12 72 55l105 665c7 43 -9 55 -54 55h-36z" />
    <glyph glyph-name="S" unicode="S" horiz-adv-x="623" 
d="M257 22c109 0 194 64 194 167c0 80 -52 130 -138 182l-83 50c-98 59 -129 128 -129 202c0 130 102 212 270 212c80 0 169 -32 212 -73l-19 -127h-10c-27 114 -97 169 -192 169c-83 0 -168 -42 -168 -144c0 -45 29 -101 93 -142l64 -41c76 -49 204 -102 204 -236
c0 -156 -127 -255 -290 -255c-122 0 -196 31 -255 71l21 146h10c29 -140 97 -181 216 -181z" />
    <glyph glyph-name="T" unicode="T" horiz-adv-x="682" 
d="M446 780l-110 -694c-8 -53 8 -65 62 -65h47l-3 -21h-342l3 21h42c59 0 79 12 87 64l110 695h-115c-101 0 -156 -43 -187 -139h-10l28 176h684l-28 -176h-10c0 95 -41 139 -143 139h-115z" />
    <glyph glyph-name="U" unicode="U" horiz-adv-x="846" 
d="M788 696l-60 -381c-32 -202 -159 -329 -356 -329c-196 0 -304 119 -270 335l66 420c7 43 -9 55 -54 55h-36l3 21h302l-3 -21h-36c-45 0 -65 -12 -72 -55l-68 -430c-26 -167 56 -271 198 -271c164 0 256 112 282 277l60 379c11 70 4 100 -56 100h-38l3 21h263l-3 -21h-30
c-57 0 -84 -29 -95 -100z" />
    <glyph glyph-name="V" unicode="V" horiz-adv-x="803" 
d="M674 620l-349 -644h-13l-169 761c-9 38 -29 59 -69 59h-24l3 21h289l-3 -21h-26c-40 0 -68 -12 -60 -49l125 -594l251 467c87 162 76 176 3 176h-17l3 21h244l-3 -21h-10c-57 0 -88 -15 -175 -176z" />
    <glyph glyph-name="W" unicode="W" horiz-adv-x="1156" 
d="M775 196l166 404c76 187 59 196 -14 196h-17l3 21h239l-3 -21h-10c-57 0 -79 -10 -150 -182l-264 -638h-13l-135 606l-252 -606h-13l-169 761c-9 38 -29 59 -69 59h-24l3 21h289l-3 -21h-26c-40 0 -68 -12 -60 -49l120 -550l191 446l-21 94c-8 38 -29 59 -69 59h-24l3 21
h289l-3 -21h-26c-40 0 -68 -12 -60 -49z" />
    <glyph glyph-name="X" unicode="X" horiz-adv-x="864" 
d="M570 68l-163 304l-222 -244c-79 -82 -56 -107 16 -107l-3 -21h-251l3 21c66 0 101 25 185 112l252 276l-175 328c-18 33 -28 59 -92 59l3 21h276l-3 -21h-16c-50 0 -71 -17 -55 -47l137 -257l178 195c82 84 59 109 -11 109l3 21h243l-3 -21c-67 0 -98 -22 -181 -113
l-209 -229l201 -374c19 -33 42 -59 106 -59l-3 -21h-299l3 21h26c56 0 69 20 54 47z" />
    <glyph glyph-name="Y" unicode="Y" horiz-adv-x="745" 
d="M395 424l211 269c64 82 43 103 -15 103h-28l3 21h243l-3 -21c-70 0 -87 -20 -166 -121l-234 -299l-46 -290c-8 -53 8 -65 62 -65h42l-3 -21h-332l3 21h37c59 0 79 12 87 64l46 289l-148 363c-14 36 -29 59 -69 59h-24l3 21h289l-3 -21h-26c-40 0 -74 -14 -60 -49z" />
    <glyph glyph-name="Z" unicode="Z" horiz-adv-x="679" 
d="M-41 0l612 779h-187c-159 0 -219 -45 -241 -130h-12l26 168h562l-610 -781h275c104 0 188 34 214 136h11l-27 -172h-623z" />
    <glyph glyph-name="bracketleft" unicode="[" horiz-adv-x="293" 
d="M2 -292l175 1109h203l-6 -42h-156l-163 -1025h156l-6 -42h-203z" />
    <glyph glyph-name="backslash" unicode="\" horiz-adv-x="386" 
d="M268 -33l-205 865h46l205 -865h-46z" />
    <glyph glyph-name="bracketright" unicode="]" horiz-adv-x="293" 
d="M290 817l-175 -1109h-202l6 42h155l163 1025h-156l6 42h203z" />
    <glyph glyph-name="asciicircum" unicode="^" horiz-adv-x="536" 
d="M268 818h47l138 -415h-50l-118 360l-214 -360h-54z" />
    <glyph glyph-name="underscore" unicode="_" horiz-adv-x="781" 
d="M56 -42l7 42h661l-7 -42h-661z" />
    <glyph glyph-name="grave" unicode="`" horiz-adv-x="209" 
d="M189 556l-146 234h90l69 -234h-13z" />
    <glyph glyph-name="a" unicode="a" horiz-adv-x="571" 
d="M325 495c20 0 58 -5 88 -30l7 38h89l-68 -390c-8 -47 -17 -79 4 -79c13 0 46 22 86 72l13 -10c-42 -61 -79 -110 -133 -110c-56 0 -75 43 -63 112v1c-61 -103 -123 -113 -171 -113c-107 0 -142 90 -142 160c0 198 157 349 290 349zM222 30c34 0 81 15 132 100l48 270
c-13 43 -43 74 -81 74c-127 0 -182 -211 -182 -296c0 -87 26 -148 83 -148z" />
    <glyph glyph-name="b" unicode="b" horiz-adv-x="533" 
d="M51 162l87 579c6 43 -3 55 -48 55h-25l4 21h171l-68 -461c51 117 128 148 184 148c107 0 142 -88 142 -158c0 -192 -161 -358 -282 -359c-92 0 -185 39 -165 175zM318 460c-41 0 -98 -37 -150 -129l-23 -159c-17 -128 37 -158 81 -158c125 -1 174 216 174 298
c0 87 -32 148 -82 148z" />
    <glyph glyph-name="c" unicode="c" 
d="M40 144c0 162 109 359 274 359c49 0 122 -26 122 -70c0 -28 -19 -47 -41 -47c-65 0 -40 93 -109 93c-80 0 -146 -172 -146 -300c0 -90 31 -145 80 -145c48 0 106 43 155 123l15 -9c-71 -133 -131 -162 -210 -162c-87 0 -140 52 -140 158z" />
    <glyph glyph-name="d" unicode="d" horiz-adv-x="589" 
d="M556 817l-100 -704c-8 -59 -8 -79 7 -79c10 0 43 22 83 72l13 -10c-42 -61 -79 -110 -133 -110c-56 0 -74 43 -64 112l3 24c-68 -126 -131 -136 -185 -136c-110 0 -145 88 -145 164c0 192 159 353 282 353c24 0 65 -8 98 -33l39 271c6 43 -3 55 -48 55h-25l4 21h171z
M222 30c34 0 84 16 147 118l35 248c-10 51 -48 84 -91 84c-126 0 -175 -217 -175 -302c0 -87 27 -148 84 -148z" />
    <glyph glyph-name="e" unicode="e" 
d="M421 427c0 -118 -146 -151 -281 -205c-2 -15 -3 -29 -3 -43c0 -66 16 -145 82 -145c59 0 122 70 156 125l15 -9c-71 -133 -138 -164 -207 -164c-90 0 -143 52 -143 158c0 191 134 359 274 359c83 0 107 -46 107 -76zM284 478c-59 0 -125 -123 -143 -241
c87 36 194 104 194 179c0 45 -24 62 -51 62z" />
    <glyph glyph-name="f" unicode="f" horiz-adv-x="348" 
d="M51 455l7 26h78l10 71c30 215 159 272 247 272c60 0 135 -21 135 -68c0 -24 -20 -42 -42 -42c-61 0 -58 91 -109 91c-38 0 -110 -51 -135 -230l-13 -94h161l-6 -26h-159l-68 -491c-30 -214 -152 -269 -239 -269c-60 0 -135 21 -135 68c0 24 20 42 43 42
c60 0 57 -90 108 -90c38 0 102 47 127 229l71 511h-81z" />
    <glyph glyph-name="g" unicode="g" horiz-adv-x="550" 
d="M295 503c24 0 50 -5 75 -14h205l-4 -43l-147 13c38 -29 64 -70 64 -122c0 -103 -87 -178 -221 -178c-17 0 -33 2 -48 5c-60 -7 -100 -35 -100 -68c0 -22 19 -44 72 -44h93c111 0 199 -25 199 -117c0 -150 -153 -231 -295 -231c-139 0 -208 48 -208 122
c0 76 68 122 161 142c-68 8 -92 48 -92 90c0 56 48 99 146 113c-70 25 -120 86 -120 159c0 95 90 173 220 173zM50 -174c0 -69 63 -97 140 -97c97 0 212 36 212 152c0 53 -40 85 -139 85h-95h-8c-69 -25 -110 -72 -110 -140zM273 178c86 0 125 89 125 171
c0 58 -36 135 -106 135c-88 0 -126 -97 -126 -161s37 -145 107 -145z" />
    <glyph glyph-name="h" unicode="h" horiz-adv-x="541" 
d="M29 0l114 741c7 43 -3 55 -48 55h-25l4 21h172l-74 -487c45 121 126 173 191 173c107 0 106 -92 82 -225l-30 -165c-9 -47 -6 -81 13 -81c15 0 39 21 79 71l14 -10c-42 -61 -79 -107 -133 -107c-61 0 -80 41 -66 119l31 175c20 111 17 172 -33 172
c-45 0 -106 -57 -150 -145l-49 -307h-92z" />
    <glyph glyph-name="i" unicode="i" horiz-adv-x="309" 
d="M176 503c66 0 59 -47 42 -144l-44 -246c-4 -20 -10 -81 12 -81c18 0 47 31 79 71l14 -10c-42 -61 -80 -107 -133 -107c-61 0 -80 41 -66 119l48 268c8 47 13 78 -7 78c-22 0 -61 -27 -85 -51l-11 12c67 73 129 91 151 91zM136 692c0 38 30 68 68 68c39 0 69 -30 69 -68
c0 -39 -30 -69 -69 -69c-38 0 -68 30 -68 69z" />
    <glyph glyph-name="j" unicode="j" horiz-adv-x="273" 
d="M224 359l-50 -306c-28 -168 -71 -264 -237 -356l-7 9c92 85 123 174 152 350l52 317c7 47 11 78 -9 78c-22 0 -61 -27 -85 -51l-11 12c67 73 129 91 151 91c56 0 61 -38 44 -144zM136 692c0 38 30 68 68 68c39 0 69 -30 69 -68c0 -39 -30 -69 -69 -69
c-38 0 -68 30 -68 69z" />
    <glyph glyph-name="k" unicode="k" horiz-adv-x="490" 
d="M255 817l-79 -535h13c117 0 159 67 159 136c0 36 -8 85 46 85c31 0 40 -21 40 -40c0 -51 -77 -170 -174 -186c86 -15 106 -78 122 -149c15 -65 19 -126 116 -118l1 -13c-24 -6 -53 -12 -81 -12c-62 0 -111 29 -133 127c-16 73 -21 147 -112 151l-38 -263h-92l108 741
c7 43 -3 55 -48 55h-25l4 21h173z" />
    <glyph glyph-name="l" unicode="l" horiz-adv-x="273" 
d="M240 817l-100 -704c-7 -47 -16 -79 5 -79c13 0 46 22 85 72l13 -10c-41 -61 -77 -110 -131 -110c-56 0 -76 43 -66 112l91 643c6 43 -4 55 -49 55h-25l3 21h174z" />
    <glyph glyph-name="m" unicode="m" horiz-adv-x="873" 
d="M36 400l-11 12c67 73 127 91 149 91c71 0 59 -67 40 -173c33 91 102 173 192 173c92 0 101 -70 90 -161c34 88 109 161 190 161c108 0 105 -95 81 -225l-31 -165c-4 -20 -13 -81 12 -81c18 0 47 31 79 71l14 -10c-42 -61 -80 -107 -133 -107c-61 0 -81 41 -66 119l33 175
c21 109 17 172 -33 172c-42 0 -110 -54 -150 -143c-2 -10 -4 -21 -5 -31l-45 -278h-92l45 280c18 108 16 172 -33 172c-47 0 -109 -60 -150 -145l-49 -307h-92l59 377c7 47 11 74 -9 74c-28 0 -62 -31 -85 -51z" />
    <glyph glyph-name="n" unicode="n" horiz-adv-x="593" 
d="M36 400l-11 12c67 73 128 91 150 91c64 0 59 -55 39 -173c42 113 118 173 192 173c108 0 105 -95 82 -225l-30 -165c-4 -20 -13 -81 12 -81c18 0 47 31 79 71l14 -10c-42 -61 -80 -107 -133 -107c-61 0 -80 41 -66 119l31 175c20 111 16 172 -33 172s-107 -61 -150 -145
l-49 -307h-92l60 377c8 47 10 74 -10 74c-22 0 -61 -27 -85 -51z" />
    <glyph glyph-name="o" unicode="o" horiz-adv-x="525" 
d="M138 178c0 -87 14 -167 71 -167c136 0 178 215 178 300c0 87 -15 165 -72 165c-136 0 -177 -213 -177 -298zM35 144c0 198 173 359 296 359s159 -88 159 -158c0 -198 -173 -359 -296 -359c-124 0 -159 88 -159 158z" />
    <glyph glyph-name="p" unicode="p" horiz-adv-x="577" 
d="M171 16l-33 -224c-8 -52 9 -64 67 -64h25l-3 -21h-277l3 21h24c45 0 62 12 68 55l87 594c6 47 11 74 -9 74c-22 0 -61 -27 -85 -51l-11 12c67 73 129 91 151 91c66 0 57 -56 44 -144c58 124 128 145 178 145c107 0 142 -88 142 -158c0 -162 -119 -360 -280 -360
c-32 0 -63 10 -91 30zM273 12c117 0 171 215 171 300c0 87 -28 150 -85 150c-34 0 -85 -36 -142 -133l-35 -236c15 -52 46 -81 91 -81z" />
    <glyph glyph-name="q" unicode="q" horiz-adv-x="561" 
d="M309 -217l53 325c-65 -112 -125 -122 -169 -122c-118 0 -153 88 -153 164c0 192 160 353 283 353c25 0 67 -8 99 -38l6 38h92l-117 -711c-9 -52 -5 -64 53 -64h25l-3 -21h-277l3 21h24c45 0 74 12 81 55zM227 30c33 0 80 15 140 106l42 252c-14 52 -46 92 -90 92
c-126 0 -176 -217 -176 -302c0 -87 27 -148 84 -148z" />
    <glyph glyph-name="r" unicode="r" horiz-adv-x="380" 
d="M176 503c66 0 54 -82 34 -201c67 184 154 201 176 201c31 0 44 -15 44 -33c0 -104 -152 21 -224 -205l-43 -265h-92l58 377c7 47 12 74 -8 74c-22 0 -61 -27 -85 -51l-11 12c67 73 129 91 151 91z" />
    <glyph glyph-name="s" unicode="s" horiz-adv-x="443" 
d="M234 313l35 -27c63 -49 116 -102 116 -161c0 -106 -101 -139 -176 -139c-80 0 -167 35 -167 89c0 34 25 51 50 51c80 0 44 -120 128 -120c43 0 84 22 84 73s-22 77 -80 126l-47 39c-43 36 -96 81 -96 141c0 81 78 118 165 118c78 0 156 -29 156 -70
c0 -29 -21 -45 -44 -45c-43 0 -67 93 -133 93c-47 0 -68 -23 -68 -57c0 -39 30 -75 77 -111z" />
    <glyph glyph-name="t" unicode="t" horiz-adv-x="324" 
d="M58 104l58 351l-76 6l3 20h83l92 127h14l-20 -127h142l-4 -26h-142l-56 -342c-9 -58 -5 -78 13 -78c19 0 56 17 102 65l11 -9c-48 -71 -102 -105 -156 -105c-56 0 -77 40 -64 118z" />
    <glyph glyph-name="u" unicode="u" horiz-adv-x="587" 
d="M367 156c-47 -118 -120 -170 -191 -170c-108 0 -103 95 -81 225l28 162c8 47 10 78 -10 78c-22 0 -61 -27 -85 -51l-11 12c67 73 125 91 147 91c66 0 66 -47 49 -144l-26 -150c-19 -111 -16 -162 39 -162c46 0 104 53 144 135l47 299h92l-58 -369c-10 -60 -2 -80 13 -80
c18 0 47 31 79 71l14 -10c-42 -61 -80 -107 -133 -107c-61 0 -83 44 -57 170z" />
    <glyph glyph-name="v" unicode="v" horiz-adv-x="494" 
d="M141 -30l-7 4c34 149 17 477 -60 477c-19 0 -40 -26 -58 -70l-16 8c40 114 101 114 129 114c118 0 133 -302 103 -461c48 29 144 136 173 247c27 102 -64 118 -64 172c0 20 16 42 45 42c49 0 72 -46 72 -102c0 -167 -128 -378 -317 -431z" />
    <glyph glyph-name="w" unicode="w" horiz-adv-x="737" 
d="M419 -19l-43 359l-219 -359h-14l-57 441c-4 30 -22 39 -66 40l6 19h238l-6 -19c-54 0 -77 -12 -73 -45l35 -283l151 247l-5 41c-4 29 -22 39 -56 40l6 19h232l-6 -19c-54 0 -86 -12 -83 -45l28 -290l151 249c39 65 21 85 -33 86l6 19h206l-6 -19c-53 -7 -92 -6 -132 -72
l-246 -409h-14z" />
    <glyph glyph-name="x" unicode="x" horiz-adv-x="547" 
d="M492 367c27 65 20 92 8 92c-13 0 -45 -32 -85 -78l-99 -112l48 -143c16 -48 28 -86 39 -86c10 0 36 35 52 84l16 -2c-30 -107 -62 -136 -110 -136c-30 0 -60 27 -81 90l-37 110l-104 -118c-23 -26 -78 -82 -111 -82c-19 0 -28 20 -28 46c0 32 17 70 40 96l15 -6
c-27 -65 -20 -92 -8 -92c13 0 45 32 85 77l99 113l-48 144c-16 48 -27 90 -38 90c-10 0 -33 -40 -49 -89l-20 3c30 107 62 136 110 136c30 0 61 -27 82 -90l37 -111l102 117c23 27 79 83 112 83c19 0 28 -20 28 -46c0 -32 -17 -70 -40 -96z" />
    <glyph glyph-name="y" unicode="y" horiz-adv-x="488" 
d="M-206 -191c60 0 37 -80 81 -80c41 0 171 92 290 206c33 151 -9 516 -85 516c-19 0 -41 -26 -59 -70l-16 8c40 114 101 114 129 114c116 0 147 -273 121 -474c72 85 129 178 152 263c27 102 -43 115 -43 169c0 20 16 42 45 42c39 0 54 -46 54 -102
c0 -136 -91 -291 -217 -425c-166 -176 -307 -279 -395 -279c-66 0 -106 25 -106 64c0 21 14 48 49 48z" />
    <glyph glyph-name="z" unicode="z" horiz-adv-x="439" 
d="M472 472l-388 -390h250l54 78h12l-38 -160h-388l-4 9l383 389h-226l-53 -77h-12l38 160h368z" />
    <glyph glyph-name="braceleft" unicode="{" horiz-adv-x="312" 
d="M15 261l2 8c103 20 152 149 152 245c0 41 -12 82 -12 121c0 112 61 195 210 195h29l-6 -42h-29c-114 0 -156 -64 -156 -145c0 -42 10 -82 10 -125c0 -92 -34 -191 -119 -253c42 -35 56 -94 56 -150c0 -64 -19 -122 -46 -181c-19 -39 -32 -73 -32 -109
c0 -52 34 -89 120 -89h29l-6 -42h-29c-115 0 -162 47 -162 121c0 50 17 95 43 146c22 43 35 97 35 148c0 70 -24 141 -89 152z" />
    <glyph glyph-name="bar" unicode="|" horiz-adv-x="267" 
d="M45 0l129 817h46l-129 -817h-46z" />
    <glyph glyph-name="braceright" unicode="}" horiz-adv-x="296" 
d="M297 269l-2 -8c-101 -20 -153 -156 -153 -251c0 -41 12 -82 12 -121c0 -114 -61 -195 -209 -195h-29l6 42h29c113 0 155 64 155 145c0 42 -10 82 -10 125c0 92 35 196 120 259c-42 35 -57 92 -57 147c0 17 1 34 4 50c7 43 23 87 42 128c19 39 32 73 32 109
c0 52 -34 89 -120 89h-29l6 42h29c115 0 162 -50 162 -123c0 -49 -17 -94 -43 -144c-14 -28 -26 -63 -31 -98c-3 -16 -4 -33 -4 -50c0 -68 23 -134 90 -146z" />
    <glyph glyph-name="asciitilde" unicode="~" horiz-adv-x="659" 
d="M194 319c100 0 189 -99 276 -99c39 0 75 19 111 80l37 -16c-38 -77 -96 -108 -154 -108c-104 0 -191 98 -276 98c-39 0 -77 -22 -112 -84l-37 18c38 77 97 111 155 111z" />
    <glyph glyph-name="uni00A0" unicode="&#xa0;" horiz-adv-x="190" 
 />
    <glyph glyph-name="exclamdown" unicode="&#xa1;" horiz-adv-x="249" 
d="M121 -327c-42 -15 -83 -15 -121 0c42 223 105 425 153 636h18c-20 -212 -30 -427 -50 -636zM114 438c0 36 29 65 65 65s65 -29 65 -65s-29 -65 -65 -65s-65 29 -65 65z" />
    <glyph glyph-name="cent" unicode="&#xa2;" horiz-adv-x="454" 
d="M40 144c0 146 88 320 227 353l16 102h41l-15 -96h5c49 0 122 -26 122 -70c0 -28 -19 -47 -41 -47c-58 0 -45 74 -90 90l-70 -441c45 8 96 50 140 122l15 -9c-56 -105 -105 -145 -162 -157l-15 -94h-41l14 89h-6c-87 0 -140 52 -140 158zM140 179c0 -73 20 -124 54 -140
l69 435c-69 -28 -123 -179 -123 -295z" />
    <glyph glyph-name="sterling" unicode="&#xa3;" horiz-adv-x="673" 
d="M96 426l4 28h111l2 40c6 301 167 335 266 335c96 0 172 -57 172 -111c0 -27 -16 -46 -40 -46c-76 0 -22 133 -144 133c-139 0 -146 -167 -146 -297c0 -19 -1 -37 -2 -54h241l-4 -28h-240c-27 -224 -156 -376 -219 -409c76 39 182 98 257 98c89 0 106 -49 154 -49
c24 0 51 11 87 44l8 -5c-71 -102 -126 -118 -168 -118c-50 0 -72 47 -165 47c-107 0 -157 -54 -270 -40l4 21h30c86 0 160 151 176 411h-114z" />
    <glyph glyph-name="yen" unicode="&#xa5;" horiz-adv-x="745" 
d="M395 424l211 269c64 82 43 103 -15 103h-28l3 21h243l-3 -21c-70 0 -87 -20 -166 -121l-219 -279h188l-5 -34h-200l-18 -109h201l-6 -34h-200l-21 -133c-8 -53 8 -65 62 -65h42l-3 -21h-332l3 21h37c59 0 79 12 87 64l21 134h-200l6 34h200l17 109h-200l5 34h188
l-139 341c-14 36 -29 59 -69 59h-24l3 21h289l-3 -21h-26c-40 0 -74 -14 -60 -49z" />
    <glyph glyph-name="brokenbar" unicode="&#xa6;" horiz-adv-x="267" 
d="M126 369l71 448h46l-71 -448h-46zM22 -292l71 448h46l-71 -448h-46z" />
    <glyph glyph-name="section" unicode="&#xa7;" horiz-adv-x="661" 
d="M75 -118c78 0 36 -160 203 -160c105 0 160 62 160 135c0 71 -29 122 -128 177l-71 40c-91 51 -142 107 -142 180c0 95 66 157 167 193c-64 40 -99 108 -99 176c0 123 107 206 236 206c123 0 219 -64 219 -123c0 -18 -8 -46 -37 -46c-83 0 -29 141 -188 141
c-90 0 -139 -52 -139 -129c0 -66 35 -108 96 -141l98 -53c76 -41 138 -92 138 -174c0 -95 -77 -171 -172 -206c64 -43 115 -102 115 -183c0 -120 -93 -220 -254 -220c-129 0 -245 80 -245 140c0 23 15 47 43 47zM505 236c0 75 -69 121 -128 152l-95 49l-5 2
c-66 -34 -93 -77 -93 -132c0 -68 50 -108 115 -143l71 -38l34 -20c58 32 101 75 101 130z" />
    <glyph glyph-name="dieresis" unicode="&#xa8;" horiz-adv-x="436" 
d="M52 685c0 36 29 65 65 65s65 -29 65 -65s-29 -65 -65 -65s-65 29 -65 65zM264 685c0 36 29 65 65 65s65 -29 65 -65s-29 -65 -65 -65s-65 29 -65 65z" />
    <glyph glyph-name="copyright" unicode="&#xa9;" horiz-adv-x="895" 
d="M50 383c0 220 178 398 397 398c220 0 398 -178 398 -398c0 -219 -178 -397 -398 -397c-219 0 -397 178 -397 397zM94 383c0 -197 156 -358 353 -358c198 0 353 161 353 358c0 198 -155 359 -353 359c-197 0 -353 -161 -353 -359zM642 290v-91c-48 -39 -129 -57 -194 -57
c-146 0 -254 114 -254 250c0 149 129 251 259 251c67 0 131 -17 180 -44v-93h-9c-30 86 -103 111 -166 111c-88 0 -180 -67 -180 -226c0 -152 98 -223 174 -223c66 0 150 16 181 122h9z" />
    <glyph glyph-name="ordfeminine" unicode="&#xaa;" horiz-adv-x="411" 
d="M243 812c13 0 39 -4 61 -21l5 27h73l-49 -272c-5 -33 -11 -55 3 -55c10 0 32 9 61 49l9 -6c-27 -52 -55 -78 -93 -78c-39 0 -63 30 -55 79c-43 -72 -88 -79 -119 -79c-74 0 -99 70 -99 119c0 139 109 237 203 237zM177 493c19 0 49 9 84 62l33 182c-5 35 -24 60 -54 60
c-89 0 -117 -146 -117 -206s14 -98 54 -98z" />
    <glyph glyph-name="guillemotleft" unicode="&#xab;" horiz-adv-x="422" 
d="M347 34l-180 207l1 8l245 206h12l-173 -211l106 -210h-11zM189 34l-180 207l1 8l245 206h12l-173 -211l106 -210h-11z" />
    <glyph glyph-name="logicalnot" unicode="&#xac;" horiz-adv-x="584" 
d="M52 219l7 42h475l-41 -261h-46l34 219h-429z" />
    <glyph glyph-name="uni00AD" unicode="&#xad;" horiz-adv-x="394" 
d="M46 234l7 42h294l-7 -42h-294z" />
    <glyph glyph-name="registered" unicode="&#xae;" horiz-adv-x="895" 
d="M50 383c0 220 178 398 397 398c220 0 398 -178 398 -398c0 -219 -178 -397 -398 -397c-219 0 -397 178 -397 397zM94 383c0 -197 156 -358 353 -358c198 0 353 161 353 358c0 198 -155 359 -353 359c-197 0 -353 -161 -353 -359zM377 612v-208l47 5c72 8 112 44 112 110
c0 83 -72 93 -133 93h-26zM377 391v-178c0 -13 7 -24 34 -25l39 -2v-17h-204v17l27 2c26 2 30 13 30 25v375c0 14 -8 24 -30 26l-27 3v17h169c84 0 197 -11 197 -113c0 -55 -58 -112 -145 -122c63 -5 102 -35 126 -105c28 -85 40 -123 100 -106l3 -5
c-10 -10 -34 -23 -62 -23c-65 0 -96 45 -117 118c-28 94 -73 113 -140 113z" />
    <glyph glyph-name="macron" unicode="&#xaf;" horiz-adv-x="434" 
d="M46 629l7 47h334l-7 -47h-334z" />
    <glyph glyph-name="degree" unicode="&#xb0;" horiz-adv-x="346" 
d="M30 690c0 79 64 142 143 142s143 -63 143 -142s-64 -142 -143 -142s-143 63 -143 142zM76 690c0 -50 36 -102 97 -102c62 0 97 49 97 102c0 56 -40 102 -97 102c-51 0 -97 -44 -97 -102z" />
    <glyph glyph-name="plusminus" unicode="&#xb1;" horiz-adv-x="554" 
d="M292 489h46l-30 -185h216l-7 -42h-215l-28 -175h-46l28 175h-214l7 42h213zM1 0l6 42h475l-6 -42h-475z" />
    <glyph glyph-name="twosuperior" unicode="&#xb2;" horiz-adv-x="440" 
d="M354 428h-337l1 7c88 57 267 162 267 253c0 42 -38 53 -67 53c-32 0 -67 -10 -98 -34l-6 8c48 46 106 65 149 65c54 0 113 -22 113 -81c0 -87 -137 -154 -234 -203h139c40 0 69 13 85 63h8z" />
    <glyph glyph-name="threesuperior" unicode="&#xb3;" horiz-adv-x="375" 
d="M100 517l-3 5c92 40 156 102 156 177c0 38 -26 54 -58 54c-28 0 -58 -13 -82 -35l-6 7c36 40 80 55 127 55c71 0 105 -39 105 -83c0 -67 -85 -127 -160 -147c82 -8 123 -65 123 -123c0 -77 -81 -167 -199 -167c-56 0 -96 15 -123 46l7 8c26 -20 62 -31 92 -31
c75 0 134 65 134 145c0 50 -32 89 -113 89z" />
    <glyph glyph-name="acute" unicode="&#xb4;" horiz-adv-x="209" 
d="M239 790l-220 -234h-13l143 234h90z" />
    <glyph glyph-name="mu" unicode="&#xb5;" horiz-adv-x="568" 
d="M166 481h46l-51 -322c-11 -71 29 -127 109 -127c57 0 116 40 153 104l55 345h46l-77 -481h-44l13 78c-41 -60 -98 -92 -161 -92c-35 0 -88 18 -111 70l-55 -348h-46z" />
    <glyph glyph-name="paragraph" unicode="&#xb6;" horiz-adv-x="560" 
d="M568 771h-85l-140 -888h-46l140 888h-78l-140 -888h-46l84 536c-112 0 -188 65 -188 184c0 112 73 213 283 213h223z" />
    <glyph glyph-name="periodcentered" unicode="&#xb7;" horiz-adv-x="228" 
d="M49 257c0 36 29 65 65 65s65 -29 65 -65s-29 -65 -65 -65s-65 29 -65 65z" />
    <glyph glyph-name="cedilla" unicode="&#xb8;" horiz-adv-x="280" 
d="M135 -4h30l-65 -74c18 12 37 20 60 20c41 0 70 -17 70 -56c0 -85 -122 -133 -197 -131l-2 6c92 11 148 73 148 118c0 24 -13 36 -44 36c-16 0 -31 -6 -43 -14l-21 19z" />
    <glyph glyph-name="onesuperior" unicode="&#xb9;" horiz-adv-x="296" 
d="M85 482l37 234c3 22 -13 34 -35 34h-30l4 21h221l-4 -21h-28c-22 0 -41 -12 -45 -34l-37 -234c-4 -22 13 -34 35 -34h30l-4 -21h-221l4 21h28c22 0 41 12 45 34z" />
    <glyph glyph-name="ordmasculine" unicode="&#xba;" horiz-adv-x="397" 
d="M122 595c0 -61 9 -116 39 -116c85 0 114 149 114 208c0 61 -11 115 -40 115c-85 0 -113 -148 -113 -207zM40 571c0 138 120 250 206 250s111 -61 111 -110c0 -138 -121 -250 -206 -250c-87 0 -111 62 -111 110z" />
    <glyph glyph-name="guillemotright" unicode="&#xbb;" horiz-adv-x="422" 
d="M411 241l-245 -207h-11l173 212l-107 209h12l179 -206zM253 241l-245 -207h-11l173 212l-107 209h12l179 -206z" />
    <glyph glyph-name="onequarter" unicode="&#xbc;" horiz-adv-x="847" 
d="M424 214h139l27 172zM532 55l16 96h-221l348 359h9l-46 -296h53c25 0 50 8 67 58h7l-19 -121h-115l-16 -96c-4 -22 13 -34 35 -34h30l-3 -21h-221l3 21h28c22 0 41 12 45 34zM124 482l37 234c3 22 -13 34 -35 34h-30l4 21h221l-4 -21h-28c-22 0 -41 -12 -45 -34l-37 -234
c-4 -22 13 -34 35 -34h30l-4 -21h-221l4 21h28c22 0 41 12 45 34zM750 817l-672 -817h-50l670 817h52z" />
    <glyph glyph-name="onehalf" unicode="&#xbd;" horiz-adv-x="778" 
d="M750 817l-672 -817h-50l670 817h52zM125 482l37 234c3 22 -13 34 -35 34h-30l4 21h221l-4 -21h-28c-22 0 -41 -12 -45 -34l-37 -234c-4 -22 13 -34 35 -34h30l-4 -21h-221l4 21h28c22 0 41 12 45 34zM649 -2h-337l1 7c88 57 267 162 267 253c0 42 -38 53 -67 53
c-32 0 -67 -10 -98 -34l-6 8c48 46 106 65 149 65c54 0 113 -22 113 -81c0 -87 -137 -154 -234 -203h139c40 0 69 13 85 63h8z" />
    <glyph glyph-name="threequarters" unicode="&#xbe;" horiz-adv-x="929" 
d="M503 214h139l27 172zM611 55l16 96h-221l348 359h9l-46 -296h53c25 0 50 8 67 58h7l-19 -121h-115l-16 -96c-3 -22 13 -34 35 -34h30l-3 -21h-221l3 21h28c22 0 42 12 45 34zM832 817l-672 -817h-50l670 817h52zM100 517l-3 5c92 40 156 102 156 177c0 38 -26 54 -58 54
c-28 0 -58 -13 -82 -35l-6 7c36 40 80 55 127 55c71 0 105 -39 105 -83c0 -67 -85 -127 -160 -147c82 -8 123 -65 123 -123c0 -77 -81 -167 -199 -167c-56 0 -96 15 -123 46l7 8c26 -20 62 -31 92 -31c75 0 134 65 134 145c0 50 -32 89 -113 89z" />
    <glyph glyph-name="questiondown" unicode="&#xbf;" horiz-adv-x="385" 
d="M315 301l8 5c9 -11 48 -43 48 -105c0 -182 -231 -274 -231 -445c0 -38 15 -78 58 -78c79 0 86 97 143 97c19 0 35 -11 35 -33c0 -51 -94 -82 -174 -82c-81 0 -151 38 -151 130c0 168 273 288 273 471c0 21 -5 34 -9 40zM282 438c0 36 29 65 65 65s65 -29 65 -65
s-29 -65 -65 -65s-65 29 -65 65z" />
    <glyph glyph-name="Agrave" unicode="&#xc0;" horiz-adv-x="789" 
d="M102 145l382 696h13l178 -761c10 -38 30 -59 70 -59h24l-3 -21h-285l3 21h22c40 0 69 12 60 49l-51 223h-289l-73 -134c-69 -122 -56 -138 17 -138h17l-3 -21h-240l3 21h10c56 0 85 15 145 124zM430 667l-167 -306h236zM461 848l-146 234h90l69 -234h-13z" />
    <glyph glyph-name="Aacute" unicode="&#xc1;" horiz-adv-x="789" 
d="M102 145l382 696h13l178 -761c10 -38 30 -59 70 -59h24l-3 -21h-285l3 21h22c40 0 69 12 60 49l-51 223h-289l-73 -134c-69 -122 -56 -138 17 -138h17l-3 -21h-240l3 21h10c56 0 85 15 145 124zM430 667l-167 -306h236zM621 1086l-220 -234h-13l143 234h90z" />
    <glyph glyph-name="Acircumflex" unicode="&#xc2;" horiz-adv-x="789" 
d="M102 145l382 696h13l178 -761c10 -38 30 -59 70 -59h24l-3 -21h-285l3 21h22c40 0 69 12 60 49l-51 223h-289l-73 -134c-69 -122 -56 -138 17 -138h17l-3 -21h-240l3 21h10c56 0 85 15 145 124zM430 667l-167 -306h236zM532 1092l115 -244h-10l-126 147l-178 -147h-12
l202 244h9z" />
    <glyph glyph-name="Atilde" unicode="&#xc3;" horiz-adv-x="789" 
d="M102 145l382 696h13l178 -761c10 -38 30 -59 70 -59h24l-3 -21h-285l3 21h22c40 0 69 12 60 49l-51 223h-289l-73 -134c-69 -122 -56 -138 17 -138h17l-3 -21h-240l3 21h10c56 0 85 15 145 124zM430 667l-167 -306h236zM664 1004l53 47l6 -4l-65 -122h-298l-53 -47l-6 4
l65 122h298z" />
    <glyph glyph-name="Adieresis" unicode="&#xc4;" horiz-adv-x="789" 
d="M102 145l382 696h13l178 -761c10 -38 30 -59 70 -59h24l-3 -21h-285l3 21h22c40 0 69 12 60 49l-51 223h-289l-73 -134c-69 -122 -56 -138 17 -138h17l-3 -21h-240l3 21h10c56 0 85 15 145 124zM430 667l-167 -306h236zM302 971c0 36 29 65 65 65s65 -29 65 -65
s-29 -65 -65 -65s-65 29 -65 65zM574 971c0 36 29 65 65 65s65 -29 65 -65s-29 -65 -65 -65s-65 29 -65 65z" />
    <glyph glyph-name="Aring" unicode="&#xc5;" horiz-adv-x="789" 
d="M102 145l382 696h13l178 -761c10 -38 30 -59 70 -59h24l-3 -21h-285l3 21h22c40 0 69 12 60 49l-51 223h-289l-73 -134c-69 -122 -56 -138 17 -138h17l-3 -21h-240l3 21h10c56 0 85 15 145 124zM430 667l-167 -306h236zM517 1073c51 0 90 -39 90 -88
c0 -61 -57 -108 -117 -108c-51 0 -89 38 -89 86c0 62 54 110 116 110zM512 1040c-41 0 -72 -33 -72 -73c0 -31 22 -57 55 -57c42 0 74 31 74 71c0 33 -26 59 -57 59z" />
    <glyph glyph-name="AE" unicode="&#xc6;" horiz-adv-x="1267" 
d="M237 199l512 544c6 41 -10 53 -54 53h-36l3 21h578l-24 -150h-10c0 92 -51 113 -147 113h-200l-52 -328h120c68 0 123 7 153 102h10l-37 -239h-10c-1 96 -53 102 -121 102h-121l-51 -327c-7 -44 18 -53 56 -53h171c97 0 156 33 186 129h10l-26 -166h-614l3 21h36
c45 0 65 12 72 55l54 341h-204l-233 -251c-96 -104 -120 -145 -22 -145h28l-3 -21h-288l3 21c93 8 123 34 258 178zM526 452h177l36 230z" />
    <glyph glyph-name="Ccedilla" unicode="&#xc7;" horiz-adv-x="844" 
d="M772 207l-23 -145c-100 -62 -179 -76 -281 -76c-4 0 -8 1 -12 1l-56 -65c18 12 37 20 60 20c41 0 70 -17 70 -56c0 -85 -122 -133 -197 -131l-2 6c92 11 148 73 148 118c0 24 -13 36 -44 36c-16 0 -31 -6 -43 -14l-21 19l57 68c-247 17 -380 196 -380 395
c0 271 195 450 441 450c106 0 246 -36 325 -91l-16 -152h-11c-40 154 -175 214 -293 214c-175 0 -326 -179 -326 -458c0 -219 122 -327 293 -327c113 0 206 23 300 188h11z" />
    <glyph glyph-name="Egrave" unicode="&#xc8;" horiz-adv-x="733" 
d="M122 76l105 665c7 43 -9 55 -54 55h-36l3 21h583l-22 -157h-10c0 100 -53 120 -184 120h-170l-52 -328h125c68 0 123 7 153 102h10l-37 -239h-10c-1 96 -53 102 -121 102h-126l-51 -327c-7 -44 18 -53 56 -53h176c97 0 156 33 186 129h10l-26 -166h-618l3 21h35
c45 0 65 12 72 55zM524 848l-146 234h90l69 -234h-13z" />
    <glyph glyph-name="Eacute" unicode="&#xc9;" horiz-adv-x="733" 
d="M122 76l105 665c7 43 -9 55 -54 55h-36l3 21h583l-22 -157h-10c0 100 -53 120 -184 120h-170l-52 -328h125c68 0 123 7 153 102h10l-37 -239h-10c-1 96 -53 102 -121 102h-126l-51 -327c-7 -44 18 -53 56 -53h176c97 0 156 33 186 129h10l-26 -166h-618l3 21h35
c45 0 65 12 72 55zM654 1086l-220 -234h-13l143 234h90z" />
    <glyph glyph-name="Ecircumflex" unicode="&#xca;" horiz-adv-x="733" 
d="M122 76l105 665c7 43 -9 55 -54 55h-36l3 21h583l-22 -157h-10c0 100 -53 120 -184 120h-170l-52 -328h125c68 0 123 7 153 102h10l-37 -239h-10c-1 96 -53 102 -121 102h-126l-51 -327c-7 -44 18 -53 56 -53h176c97 0 156 33 186 129h10l-26 -166h-618l3 21h35
c45 0 65 12 72 55zM504 1092l115 -244h-10l-126 147l-178 -147h-12l202 244h9z" />
    <glyph glyph-name="Edieresis" unicode="&#xcb;" horiz-adv-x="733" 
d="M122 76l105 665c7 43 -9 55 -54 55h-36l3 21h583l-22 -157h-10c0 100 -53 120 -184 120h-170l-52 -328h125c68 0 123 7 153 102h10l-37 -239h-10c-1 96 -53 102 -121 102h-126l-51 -327c-7 -44 18 -53 56 -53h176c97 0 156 33 186 129h10l-26 -166h-618l3 21h35
c45 0 65 12 72 55zM278 971c0 36 29 65 65 65s65 -29 65 -65s-29 -65 -65 -65s-65 29 -65 65zM550 971c0 36 29 65 65 65s65 -29 65 -65s-29 -65 -65 -65s-65 29 -65 65z" />
    <glyph glyph-name="Igrave" unicode="&#xcc;" horiz-adv-x="434" 
d="M122 76l105 665c7 43 -9 55 -54 55h-36l3 21h302l-3 -21h-36c-45 0 -65 -12 -72 -55l-105 -665c-7 -43 9 -55 54 -55h36l-3 -21h-301l3 21h35c45 0 65 12 72 55zM363 848l-146 234h90l69 -234h-13z" />
    <glyph glyph-name="Iacute" unicode="&#xcd;" horiz-adv-x="434" 
d="M122 76l105 665c7 43 -9 55 -54 55h-36l3 21h302l-3 -21h-36c-45 0 -65 -12 -72 -55l-105 -665c-7 -43 9 -55 54 -55h36l-3 -21h-301l3 21h35c45 0 65 12 72 55zM426 1086l-220 -234h-13l143 234h90z" />
    <glyph glyph-name="Icircumflex" unicode="&#xce;" horiz-adv-x="434" 
d="M122 76l105 665c7 43 -9 55 -54 55h-36l3 21h302l-3 -21h-36c-45 0 -65 -12 -72 -55l-105 -665c-7 -43 9 -55 54 -55h36l-3 -21h-301l3 21h35c45 0 65 12 72 55zM345 1092l115 -244h-10l-126 147l-178 -147h-12l202 244h9z" />
    <glyph glyph-name="Idieresis" unicode="&#xcf;" horiz-adv-x="434" 
d="M146 971c0 36 29 65 65 65s65 -29 65 -65s-29 -65 -65 -65s-65 29 -65 65zM358 971c0 36 29 65 65 65s65 -29 65 -65s-29 -65 -65 -65s-65 29 -65 65zM122 76l105 665c7 43 -9 55 -54 55h-36l3 21h302l-3 -21h-36c-45 0 -65 -12 -72 -55l-105 -665c-7 -43 9 -55 54 -55
h36l-3 -21h-301l3 21h35c45 0 65 12 72 55z" />
    <glyph glyph-name="Eth" unicode="&#xd0;" horiz-adv-x="924" 
d="M21 398l4 36h153l49 307c7 43 -9 55 -54 55h-36l3 21h273c314 0 467 -150 467 -355c0 -269 -209 -462 -505 -462h-363l3 21h35c45 0 65 12 72 55l51 322h-152zM338 787l-56 -353h182l-5 -36h-183l-49 -313c-8 -49 4 -56 110 -56h18c199 0 411 144 411 433
c0 234 -188 325 -360 325h-68z" />
    <glyph glyph-name="Ntilde" unicode="&#xd1;" horiz-adv-x="923" 
d="M730 174l83 522c11 70 4 100 -56 100h-38l3 21h261l-3 -21h-30c-57 0 -84 -29 -95 -100l-112 -710h-9l-464 699l-89 -564c-11 -70 -4 -100 56 -100h38l-3 -21h-260l3 21h29c57 0 84 29 95 100l93 586c10 64 -52 88 -94 88l3 22h172zM734 1004l53 47l6 -4l-65 -122h-298
l-53 -47l-6 4l65 122h298z" />
    <glyph glyph-name="Ograve" unicode="&#xd2;" horiz-adv-x="954" 
d="M499 804c-178 0 -331 -181 -331 -458c0 -230 130 -329 292 -329c183 0 327 179 327 455c0 228 -127 332 -288 332zM486 833c239 0 416 -154 416 -394c0 -266 -188 -451 -430 -451c-245 0 -420 154 -420 397c0 262 196 448 434 448zM573 848l-146 234h90l69 -234h-13z" />
    <glyph glyph-name="Oacute" unicode="&#xd3;" horiz-adv-x="954" 
d="M499 804c-178 0 -331 -181 -331 -458c0 -230 130 -329 292 -329c183 0 327 179 327 455c0 228 -127 332 -288 332zM486 833c239 0 416 -154 416 -394c0 -266 -188 -451 -430 -451c-245 0 -420 154 -420 397c0 262 196 448 434 448zM696 1086l-220 -234h-13l143 234h90z
" />
    <glyph glyph-name="Ocircumflex" unicode="&#xd4;" horiz-adv-x="954" 
d="M499 804c-178 0 -331 -181 -331 -458c0 -230 130 -329 292 -329c183 0 327 179 327 455c0 228 -127 332 -288 332zM486 833c239 0 416 -154 416 -394c0 -266 -188 -451 -430 -451c-245 0 -420 154 -420 397c0 262 196 448 434 448zM586 1092l115 -244h-10l-126 147
l-178 -147h-12l202 244h9z" />
    <glyph glyph-name="Otilde" unicode="&#xd5;" horiz-adv-x="954" 
d="M499 804c-178 0 -331 -181 -331 -458c0 -230 130 -329 292 -329c183 0 327 179 327 455c0 228 -127 332 -288 332zM486 833c239 0 416 -154 416 -394c0 -266 -188 -451 -430 -451c-245 0 -420 154 -420 397c0 262 196 448 434 448zM704 1004l53 47l6 -4l-65 -122h-298
l-53 -47l-6 4l65 122h298z" />
    <glyph glyph-name="Odieresis" unicode="&#xd6;" horiz-adv-x="954" 
d="M499 804c-178 0 -331 -181 -331 -458c0 -230 130 -329 292 -329c183 0 327 179 327 455c0 228 -127 332 -288 332zM486 833c239 0 416 -154 416 -394c0 -266 -188 -451 -430 -451c-245 0 -420 154 -420 397c0 262 196 448 434 448zM359 971c0 36 29 65 65 65
s65 -29 65 -65s-29 -65 -65 -65s-65 29 -65 65zM631 971c0 36 29 65 65 65s65 -29 65 -65s-29 -65 -65 -65s-65 29 -65 65z" />
    <glyph glyph-name="multiply" unicode="&#xd7;" horiz-adv-x="532" 
d="M485 467l30 -35l-214 -185l149 -177l-37 -31l-149 176l-208 -180l-30 35l209 181l-157 187l37 32l157 -187z" />
    <glyph glyph-name="Oslash" unicode="&#xd8;" horiz-adv-x="954" 
d="M486 833c105 0 198 -30 269 -84l81 83h58l-107 -110c72 -68 115 -165 115 -283c0 -266 -188 -451 -430 -451c-120 0 -224 37 -298 104l-89 -92h-56l116 120c-59 67 -93 157 -93 265c0 262 196 448 434 448zM787 472c0 84 -17 150 -47 202l-521 -536
c53 -83 141 -121 241 -121c183 0 327 179 327 455zM499 804c-178 0 -331 -181 -331 -458c0 -68 11 -124 31 -170l517 533c-52 64 -130 95 -217 95z" />
    <glyph glyph-name="Ugrave" unicode="&#xd9;" horiz-adv-x="846" 
d="M788 696l-60 -381c-32 -202 -159 -329 -356 -329c-196 0 -304 119 -270 335l66 420c7 43 -9 55 -54 55h-36l3 21h302l-3 -21h-36c-45 0 -65 -12 -72 -55l-68 -430c-26 -167 56 -271 198 -271c164 0 256 112 282 277l60 379c11 70 4 100 -56 100h-38l3 21h263l-3 -21h-30
c-57 0 -84 -29 -95 -100zM548 848l-146 234h90l69 -234h-13z" />
    <glyph glyph-name="Uacute" unicode="&#xda;" horiz-adv-x="846" 
d="M788 696l-60 -381c-32 -202 -159 -329 -356 -329c-196 0 -304 119 -270 335l66 420c7 43 -9 55 -54 55h-36l3 21h302l-3 -21h-36c-45 0 -65 -12 -72 -55l-68 -430c-26 -167 56 -271 198 -271c164 0 256 112 282 277l60 379c11 70 4 100 -56 100h-38l3 21h263l-3 -21h-30
c-57 0 -84 -29 -95 -100zM682 1086l-220 -234h-13l143 234h90z" />
    <glyph glyph-name="Ucircumflex" unicode="&#xdb;" horiz-adv-x="846" 
d="M788 696l-60 -381c-32 -202 -159 -329 -356 -329c-196 0 -304 119 -270 335l66 420c7 43 -9 55 -54 55h-36l3 21h302l-3 -21h-36c-45 0 -65 -12 -72 -55l-68 -430c-26 -167 56 -271 198 -271c164 0 256 112 282 277l60 379c11 70 4 100 -56 100h-38l3 21h263l-3 -21h-30
c-57 0 -84 -29 -95 -100zM572 1092l115 -244h-10l-126 147l-178 -147h-12l202 244h9z" />
    <glyph glyph-name="Udieresis" unicode="&#xdc;" horiz-adv-x="846" 
d="M788 696l-60 -381c-32 -202 -159 -329 -356 -329c-196 0 -304 119 -270 335l66 420c7 43 -9 55 -54 55h-36l3 21h302l-3 -21h-36c-45 0 -65 -12 -72 -55l-68 -430c-26 -167 56 -271 198 -271c164 0 256 112 282 277l60 379c11 70 4 100 -56 100h-38l3 21h263l-3 -21h-30
c-57 0 -84 -29 -95 -100zM328 971c0 36 29 65 65 65s65 -29 65 -65s-29 -65 -65 -65s-65 29 -65 65zM600 971c0 36 29 65 65 65s65 -29 65 -65s-29 -65 -65 -65s-65 29 -65 65z" />
    <glyph glyph-name="Yacute" unicode="&#xdd;" horiz-adv-x="745" 
d="M395 424l211 269c64 82 43 103 -15 103h-28l3 21h243l-3 -21c-70 0 -87 -20 -166 -121l-234 -299l-46 -290c-8 -53 8 -65 62 -65h42l-3 -21h-332l3 21h37c59 0 79 12 87 64l46 289l-148 363c-14 36 -29 59 -69 59h-24l3 21h289l-3 -21h-26c-40 0 -74 -14 -60 -49z
M641 1086l-220 -234h-13l143 234h90z" />
    <glyph glyph-name="Thorn" unicode="&#xde;" horiz-adv-x="694" 
d="M226 235l-25 -159c-7 -43 9 -55 54 -55h57l-3 -21h-322l3 21h35c45 0 65 12 72 55l105 665c7 43 -9 55 -54 55h-36l3 21h302l-3 -21h-36c-45 0 -65 -12 -72 -55l-12 -73h97c157 0 288 -57 288 -200c0 -173 -133 -265 -305 -265c-54 0 -104 8 -148 32zM381 641
c-25 0 -64 -5 -92 -9l-61 -384c33 -8 62 -10 94 -10c131 0 246 69 246 234c0 100 -60 169 -187 169z" />
    <glyph glyph-name="germandbls" unicode="&#xdf;" horiz-adv-x="614" 
d="M38 -56l86 614c23 166 128 268 268 268c83 0 160 -37 160 -107c0 -83 -80 -121 -136 -148c-38 -18 -71 -36 -71 -73c0 -47 47 -96 90 -128l37 -27c70 -51 107 -103 107 -167c0 -120 -115 -190 -206 -190c-103 0 -170 59 -170 105c0 19 11 41 40 41c72 0 25 -122 127 -122
c80 0 122 57 122 123c0 40 -18 82 -67 118l-52 38c-56 41 -96 84 -96 146c0 76 50 109 109 143c47 27 77 72 77 135c0 45 -25 89 -84 89c-63 0 -136 -55 -160 -227l-85 -611c-30 -214 -152 -269 -239 -269c-60 0 -135 21 -135 64c0 28 20 46 42 46c61 0 58 -90 109 -90
c38 0 102 47 127 229z" />
    <glyph glyph-name="agrave" unicode="&#xe0;" horiz-adv-x="571" 
d="M325 495c20 0 58 -5 88 -30l7 38h89l-68 -390c-8 -47 -17 -79 4 -79c13 0 46 22 86 72l13 -10c-42 -61 -79 -110 -133 -110c-56 0 -75 43 -63 112v1c-61 -103 -123 -113 -171 -113c-107 0 -142 90 -142 160c0 198 157 349 290 349zM222 30c34 0 81 15 132 100l48 270
c-13 43 -43 74 -81 74c-127 0 -182 -211 -182 -296c0 -87 26 -148 83 -148zM382 556l-146 234h90l69 -234h-13z" />
    <glyph glyph-name="aacute" unicode="&#xe1;" horiz-adv-x="571" 
d="M325 495c20 0 58 -5 88 -30l7 38h89l-68 -390c-8 -47 -17 -79 4 -79c13 0 46 22 86 72l13 -10c-42 -61 -79 -110 -133 -110c-56 0 -75 43 -63 112v1c-61 -103 -123 -113 -171 -113c-107 0 -142 90 -142 160c0 198 157 349 290 349zM222 30c34 0 81 15 132 100l48 270
c-13 43 -43 74 -81 74c-127 0 -182 -211 -182 -296c0 -87 26 -148 83 -148zM531 790l-220 -234h-13l143 234h90z" />
    <glyph glyph-name="acircumflex" unicode="&#xe2;" horiz-adv-x="571" 
d="M325 495c20 0 58 -5 88 -30l7 38h89l-68 -390c-8 -47 -17 -79 4 -79c13 0 46 22 86 72l13 -10c-42 -61 -79 -110 -133 -110c-56 0 -75 43 -63 112v1c-61 -103 -123 -113 -171 -113c-107 0 -142 90 -142 160c0 198 157 349 290 349zM222 30c34 0 81 15 132 100l48 270
c-13 43 -43 74 -81 74c-127 0 -182 -211 -182 -296c0 -87 26 -148 83 -148zM386 800l115 -244h-10l-126 147l-178 -147h-12l202 244h9z" />
    <glyph glyph-name="atilde" unicode="&#xe3;" horiz-adv-x="571" 
d="M325 495c20 0 58 -5 88 -30l7 38h89l-68 -390c-8 -47 -17 -79 4 -79c13 0 46 22 86 72l13 -10c-42 -61 -79 -110 -133 -110c-56 0 -75 43 -63 112v1c-61 -103 -123 -113 -171 -113c-107 0 -142 90 -142 160c0 198 157 349 290 349zM222 30c34 0 81 15 132 100l48 270
c-13 43 -43 74 -81 74c-127 0 -182 -211 -182 -296c0 -87 26 -148 83 -148zM506 708l53 47l6 -4l-65 -117h-258l-53 -47l-6 4l65 117h258z" />
    <glyph glyph-name="adieresis" unicode="&#xe4;" horiz-adv-x="571" 
d="M325 495c20 0 58 -5 88 -30l7 38h89l-68 -390c-8 -47 -17 -79 4 -79c13 0 46 22 86 72l13 -10c-42 -61 -79 -110 -133 -110c-56 0 -75 43 -63 112v1c-61 -103 -123 -113 -171 -113c-107 0 -142 90 -142 160c0 198 157 349 290 349zM222 30c34 0 81 15 132 100l48 270
c-13 43 -43 74 -81 74c-127 0 -182 -211 -182 -296c0 -87 26 -148 83 -148zM197 685c0 36 29 65 65 65s65 -29 65 -65s-29 -65 -65 -65s-65 29 -65 65zM409 685c0 36 29 65 65 65s65 -29 65 -65s-29 -65 -65 -65s-65 29 -65 65z" />
    <glyph glyph-name="aring" unicode="&#xe5;" horiz-adv-x="571" 
d="M325 495c20 0 58 -5 88 -30l7 38h89l-68 -390c-8 -47 -17 -79 4 -79c13 0 46 22 86 72l13 -10c-42 -61 -79 -110 -133 -110c-56 0 -75 43 -63 112v1c-61 -103 -123 -113 -171 -113c-107 0 -142 90 -142 160c0 198 157 349 290 349zM222 30c34 0 81 15 132 100l48 270
c-13 43 -43 74 -81 74c-127 0 -182 -211 -182 -296c0 -87 26 -148 83 -148zM395 781c51 0 90 -39 90 -88c0 -61 -57 -108 -117 -108c-51 0 -89 38 -89 86c0 62 54 110 116 110zM390 748c-41 0 -72 -33 -72 -73c0 -31 22 -57 55 -57c42 0 74 31 74 71c0 33 -26 59 -57 59z
" />
    <glyph glyph-name="ae" unicode="&#xe6;" horiz-adv-x="758" 
d="M325 495c20 0 57 -5 88 -30l7 38h89l-10 -51c40 32 85 51 132 51c83 0 107 -46 107 -76c0 -119 -146 -152 -281 -205c-2 -15 -3 -29 -3 -43c0 -90 34 -145 83 -145c48 0 106 43 155 123l15 -9c-71 -133 -130 -162 -206 -162c-71 0 -131 45 -138 137
c-59 -125 -135 -137 -184 -137c-107 0 -144 88 -144 158c0 198 157 351 290 351zM362 149c2 30 5 59 11 93l28 159c-12 42 -42 73 -80 73c-127 0 -182 -211 -182 -296c0 -87 26 -148 83 -148c33 0 88 21 140 119zM601 478c-51 0 -120 -98 -142 -241c87 36 193 104 193 179
c0 45 -24 62 -51 62z" />
    <glyph glyph-name="ccedilla" unicode="&#xe7;" 
d="M40 144c0 162 109 359 274 359c49 0 122 -26 122 -70c0 -28 -19 -47 -41 -47c-65 0 -40 93 -109 93c-80 0 -146 -172 -146 -300c0 -90 31 -145 80 -145c48 0 106 43 155 123l15 -9c-69 -130 -128 -160 -204 -162l-56 -64c18 12 37 20 60 20c41 0 70 -17 70 -56
c0 -85 -122 -133 -197 -131l-2 6c92 11 148 73 148 118c0 24 -13 36 -44 36c-16 0 -31 -6 -43 -14l-21 19l56 68c-73 8 -117 59 -117 156z" />
    <glyph glyph-name="egrave" unicode="&#xe8;" 
d="M421 427c0 -118 -146 -151 -281 -205c-2 -15 -3 -29 -3 -43c0 -66 16 -145 82 -145c59 0 122 70 156 125l15 -9c-71 -133 -138 -164 -207 -164c-90 0 -143 52 -143 158c0 191 134 359 274 359c83 0 107 -46 107 -76zM284 478c-59 0 -125 -123 -143 -241
c87 36 194 104 194 179c0 45 -24 62 -51 62zM327 556l-146 234h90l69 -234h-13z" />
    <glyph glyph-name="eacute" unicode="&#xe9;" 
d="M421 427c0 -118 -146 -151 -281 -205c-2 -15 -3 -29 -3 -43c0 -66 16 -145 82 -145c59 0 122 70 156 125l15 -9c-71 -133 -138 -164 -207 -164c-90 0 -143 52 -143 158c0 191 134 359 274 359c83 0 107 -46 107 -76zM284 478c-59 0 -125 -123 -143 -241
c87 36 194 104 194 179c0 45 -24 62 -51 62zM469 790l-220 -234h-13l143 234h90z" />
    <glyph glyph-name="ecircumflex" unicode="&#xea;" 
d="M421 427c0 -118 -146 -151 -281 -205c-2 -15 -3 -29 -3 -43c0 -66 16 -145 82 -145c59 0 122 70 156 125l15 -9c-71 -133 -138 -164 -207 -164c-90 0 -143 52 -143 158c0 191 134 359 274 359c83 0 107 -46 107 -76zM284 478c-59 0 -125 -123 -143 -241
c87 36 194 104 194 179c0 45 -24 62 -51 62zM346 800l115 -244h-10l-126 147l-178 -147h-12l202 244h9z" />
    <glyph glyph-name="edieresis" unicode="&#xeb;" 
d="M421 427c0 -118 -146 -151 -281 -205c-2 -15 -3 -29 -3 -43c0 -66 16 -145 82 -145c59 0 122 70 156 125l15 -9c-71 -133 -138 -164 -207 -164c-90 0 -143 52 -143 158c0 191 134 359 274 359c83 0 107 -46 107 -76zM284 478c-59 0 -125 -123 -143 -241
c87 36 194 104 194 179c0 45 -24 62 -51 62zM131 685c0 36 29 65 65 65s65 -29 65 -65s-29 -65 -65 -65s-65 29 -65 65zM343 685c0 36 29 65 65 65s65 -29 65 -65s-29 -65 -65 -65s-65 29 -65 65z" />
    <glyph glyph-name="igrave" unicode="&#xec;" horiz-adv-x="309" 
d="M176 503c66 0 59 -47 42 -144l-44 -246c-4 -20 -10 -81 12 -81c18 0 47 31 79 71l14 -10c-42 -61 -80 -107 -133 -107c-61 0 -80 41 -66 119l48 268c8 47 13 78 -7 78c-22 0 -61 -27 -85 -51l-11 12c67 73 129 91 151 91zM221 556l-146 234h90l69 -234h-13z" />
    <glyph glyph-name="iacute" unicode="&#xed;" horiz-adv-x="309" 
d="M176 503c66 0 59 -47 42 -144l-44 -246c-4 -20 -10 -81 12 -81c18 0 47 31 79 71l14 -10c-42 -61 -80 -107 -133 -107c-61 0 -80 41 -66 119l48 268c8 47 13 78 -7 78c-22 0 -61 -27 -85 -51l-11 12c67 73 129 91 151 91zM291 790l-220 -234h-13l143 234h90z" />
    <glyph glyph-name="icircumflex" unicode="&#xee;" horiz-adv-x="309" 
d="M176 503c66 0 59 -47 42 -144l-44 -246c-4 -20 -10 -81 12 -81c18 0 47 31 79 71l14 -10c-42 -61 -80 -107 -133 -107c-61 0 -80 41 -66 119l48 268c8 47 13 78 -7 78c-22 0 -61 -27 -85 -51l-11 12c67 73 129 91 151 91zM213 800l115 -244h-10l-126 147l-178 -147h-12
l202 244h9z" />
    <glyph glyph-name="idieresis" unicode="&#xef;" horiz-adv-x="309" 
d="M176 503c66 0 59 -47 42 -144l-44 -246c-4 -20 -10 -81 12 -81c18 0 47 31 79 71l14 -10c-42 -61 -80 -107 -133 -107c-61 0 -80 41 -66 119l48 268c8 47 13 78 -7 78c-22 0 -61 -27 -85 -51l-11 12c67 73 129 91 151 91zM14 685c0 36 29 65 65 65s65 -29 65 -65
s-29 -65 -65 -65s-65 29 -65 65zM226 685c0 36 29 65 65 65s65 -29 65 -65s-29 -65 -65 -65s-65 29 -65 65z" />
    <glyph glyph-name="eth" unicode="&#xf0;" horiz-adv-x="565" 
d="M220 558l-26 31l129 120c-42 45 -96 84 -165 116l7 11c64 -21 130 -54 189 -99l107 100l26 -30l-102 -95c96 -85 167 -202 167 -342c0 -197 -118 -384 -302 -384c-147 0 -235 123 -235 249c0 208 170 268 260 268c61 0 131 -24 168 -74c-9 93 -38 178 -94 249zM296 462
c-114 0 -178 -110 -178 -242c0 -109 44 -205 140 -205c137 0 189 206 189 339c0 17 -1 35 -2 52c-34 44 -107 56 -149 56z" />
    <glyph glyph-name="ntilde" unicode="&#xf1;" horiz-adv-x="593" 
d="M36 400l-11 12c67 73 128 91 150 91c64 0 59 -55 39 -173c42 113 118 173 192 173c108 0 105 -95 82 -225l-30 -165c-4 -20 -13 -81 12 -81c18 0 47 31 79 71l14 -10c-42 -61 -80 -107 -133 -107c-61 0 -80 41 -66 119l31 175c20 111 16 172 -33 172s-107 -61 -150 -145
l-49 -307h-92l60 377c8 47 10 74 -10 74c-22 0 -61 -27 -85 -51zM475 708l53 47l6 -4l-65 -117h-258l-53 -47l-6 4l65 117h258z" />
    <glyph glyph-name="ograve" unicode="&#xf2;" horiz-adv-x="525" 
d="M138 178c0 -87 14 -167 71 -167c136 0 178 215 178 300c0 87 -15 165 -72 165c-136 0 -177 -213 -177 -298zM35 144c0 198 173 359 296 359s159 -88 159 -158c0 -198 -173 -359 -296 -359c-124 0 -159 88 -159 158zM360 556l-146 234h90l69 -234h-13z" />
    <glyph glyph-name="oacute" unicode="&#xf3;" horiz-adv-x="525" 
d="M138 178c0 -87 14 -167 71 -167c136 0 178 215 178 300c0 87 -15 165 -72 165c-136 0 -177 -213 -177 -298zM35 144c0 198 173 359 296 359s159 -88 159 -158c0 -198 -173 -359 -296 -359c-124 0 -159 88 -159 158zM460 790l-220 -234h-13l143 234h90z" />
    <glyph glyph-name="ocircumflex" unicode="&#xf4;" horiz-adv-x="525" 
d="M138 178c0 -87 14 -167 71 -167c136 0 178 215 178 300c0 87 -15 165 -72 165c-136 0 -177 -213 -177 -298zM35 144c0 198 173 359 296 359s159 -88 159 -158c0 -198 -173 -359 -296 -359c-124 0 -159 88 -159 158zM370 800l115 -244h-10l-126 147l-178 -147h-12l202 244
h9z" />
    <glyph glyph-name="otilde" unicode="&#xf5;" horiz-adv-x="525" 
d="M138 178c0 -87 14 -167 71 -167c136 0 178 215 178 300c0 87 -15 165 -72 165c-136 0 -177 -213 -177 -298zM35 144c0 198 173 359 296 359s159 -88 159 -158c0 -198 -173 -359 -296 -359c-124 0 -159 88 -159 158zM473 708l53 47l6 -4l-65 -117h-258l-53 -47l-6 4
l65 117h258z" />
    <glyph glyph-name="odieresis" unicode="&#xf6;" horiz-adv-x="525" 
d="M138 178c0 -87 14 -167 71 -167c136 0 178 215 178 300c0 87 -15 165 -72 165c-136 0 -177 -213 -177 -298zM35 144c0 198 173 359 296 359s159 -88 159 -158c0 -198 -173 -359 -296 -359c-124 0 -159 88 -159 158zM181 685c0 36 29 65 65 65s65 -29 65 -65
s-29 -65 -65 -65s-65 29 -65 65zM393 685c0 36 29 65 65 65s65 -29 65 -65s-29 -65 -65 -65s-65 29 -65 65z" />
    <glyph glyph-name="divide" unicode="&#xf7;" horiz-adv-x="554" 
d="M46 233l7 43h454l-7 -43h-454zM238 427c0 36 29 65 65 65s65 -29 65 -65s-29 -65 -65 -65s-65 29 -65 65zM178 85c0 36 29 65 65 65s65 -29 65 -65s-29 -65 -65 -65s-65 29 -65 65z" />
    <glyph glyph-name="oslash" unicode="&#xf8;" horiz-adv-x="525" 
d="M35 144c0 172 130 315 245 350l17 105h41l-15 -97c2 0 5 1 8 1c123 0 159 -88 159 -158c0 -173 -132 -318 -248 -351l-15 -97h-41l14 90c-2 0 -4 -1 -6 -1c-124 0 -159 88 -159 158zM387 311c0 85 -15 161 -68 165l-73 -459c106 35 141 217 141 294zM138 178
c0 -85 13 -162 66 -167l72 459c-105 -36 -138 -216 -138 -292z" />
    <glyph glyph-name="ugrave" unicode="&#xf9;" horiz-adv-x="587" 
d="M367 156c-47 -118 -120 -170 -191 -170c-108 0 -103 95 -81 225l28 162c8 47 10 78 -10 78c-22 0 -61 -27 -85 -51l-11 12c67 73 125 91 147 91c66 0 66 -47 49 -144l-26 -150c-19 -111 -16 -162 39 -162c46 0 104 53 144 135l47 299h92l-58 -369c-10 -60 -2 -80 13 -80
c18 0 47 31 79 71l14 -10c-42 -61 -80 -107 -133 -107c-61 0 -83 44 -57 170zM332 556l-146 234h90l69 -234h-13z" />
    <glyph glyph-name="uacute" unicode="&#xfa;" horiz-adv-x="587" 
d="M367 156c-47 -118 -120 -170 -191 -170c-108 0 -103 95 -81 225l28 162c8 47 10 78 -10 78c-22 0 -61 -27 -85 -51l-11 12c67 73 125 91 147 91c66 0 66 -47 49 -144l-26 -150c-19 -111 -16 -162 39 -162c46 0 104 53 144 135l47 299h92l-58 -369c-10 -60 -2 -80 13 -80
c18 0 47 31 79 71l14 -10c-42 -61 -80 -107 -133 -107c-61 0 -83 44 -57 170zM511 790l-220 -234h-13l143 234h90z" />
    <glyph glyph-name="ucircumflex" unicode="&#xfb;" horiz-adv-x="587" 
d="M367 156c-47 -118 -120 -170 -191 -170c-108 0 -103 95 -81 225l28 162c8 47 10 78 -10 78c-22 0 -61 -27 -85 -51l-11 12c67 73 125 91 147 91c66 0 66 -47 49 -144l-26 -150c-19 -111 -16 -162 39 -162c46 0 104 53 144 135l47 299h92l-58 -369c-10 -60 -2 -80 13 -80
c18 0 47 31 79 71l14 -10c-42 -61 -80 -107 -133 -107c-61 0 -83 44 -57 170zM368 800l115 -244h-10l-126 147l-178 -147h-12l202 244h9z" />
    <glyph glyph-name="udieresis" unicode="&#xfc;" horiz-adv-x="587" 
d="M367 156c-47 -118 -120 -170 -191 -170c-108 0 -103 95 -81 225l28 162c8 47 10 78 -10 78c-22 0 -61 -27 -85 -51l-11 12c67 73 125 91 147 91c66 0 66 -47 49 -144l-26 -150c-19 -111 -16 -162 39 -162c46 0 104 53 144 135l47 299h92l-58 -369c-10 -60 -2 -80 13 -80
c18 0 47 31 79 71l14 -10c-42 -61 -80 -107 -133 -107c-61 0 -83 44 -57 170zM173 685c0 36 29 65 65 65s65 -29 65 -65s-29 -65 -65 -65s-65 29 -65 65zM385 685c0 36 29 65 65 65s65 -29 65 -65s-29 -65 -65 -65s-65 29 -65 65z" />
    <glyph glyph-name="yacute" unicode="&#xfd;" horiz-adv-x="488" 
d="M-206 -191c60 0 37 -80 81 -80c41 0 171 92 290 206c33 151 -9 516 -85 516c-19 0 -41 -26 -59 -70l-16 8c40 114 101 114 129 114c116 0 147 -273 121 -474c72 85 129 178 152 263c27 102 -43 115 -43 169c0 20 16 42 45 42c39 0 54 -46 54 -102
c0 -136 -91 -291 -217 -425c-166 -176 -307 -279 -395 -279c-66 0 -106 25 -106 64c0 21 14 48 49 48zM470 790l-220 -234h-13l143 234h90z" />
    <glyph glyph-name="thorn" unicode="&#xfe;" horiz-adv-x="577" 
d="M45 -217l140 958c6 43 -3 55 -48 55h-25l4 21h173l-68 -460c58 126 129 147 179 147c107 0 142 -88 142 -158c0 -162 -119 -360 -280 -360c-32 0 -63 10 -91 30l-33 -224c-8 -52 9 -64 67 -64h25l-3 -21h-277l3 21h24c45 0 62 12 68 55zM273 12c117 0 171 215 171 300
c0 87 -28 150 -85 150c-34 0 -86 -36 -142 -133l-35 -236c15 -52 46 -81 91 -81z" />
    <glyph glyph-name="ydieresis" unicode="&#xff;" horiz-adv-x="488" 
d="M-206 -191c60 0 37 -80 81 -80c41 0 171 92 290 206c33 151 -9 516 -85 516c-19 0 -41 -26 -59 -70l-16 8c40 114 101 114 129 114c116 0 147 -273 121 -474c72 85 129 178 152 263c27 102 -43 115 -43 169c0 20 16 42 45 42c39 0 54 -46 54 -102
c0 -136 -91 -291 -217 -425c-166 -176 -307 -279 -395 -279c-66 0 -106 25 -106 64c0 21 14 48 49 48zM111 685c0 36 29 65 65 65s65 -29 65 -65s-29 -65 -65 -65s-65 29 -65 65zM323 685c0 36 29 65 65 65s65 -29 65 -65s-29 -65 -65 -65s-65 29 -65 65z" />
    <glyph glyph-name="Abreve" unicode="&#x102;" horiz-adv-x="789" 
d="M102 145l382 696h13l178 -761c10 -38 30 -59 70 -59h24l-3 -21h-285l3 21h22c40 0 69 12 60 49l-51 223h-289l-73 -134c-69 -122 -56 -138 17 -138h17l-3 -21h-240l3 21h10c56 0 85 15 145 124zM430 667l-167 -306h236zM649 1041h43c-38 -140 -144 -160 -191 -160
c-51 0 -145 20 -139 160h45c1 -82 39 -120 103 -120c62 0 112 38 139 120z" />
    <glyph glyph-name="Amacron" unicode="&#x100;" horiz-adv-x="789" 
d="M102 145l382 696h13l178 -761c10 -38 30 -59 70 -59h24l-3 -21h-285l3 21h22c40 0 69 12 60 49l-51 223h-289l-73 -134c-69 -122 -56 -138 17 -138h17l-3 -21h-240l3 21h10c56 0 85 15 145 124zM430 667l-167 -306h236zM324 916l7 47h334l-7 -47h-334z" />
    <glyph glyph-name="Aogonek" unicode="&#x104;" horiz-adv-x="789" 
d="M673 -205l2 -8c-28 -16 -65 -29 -99 -29c-45 0 -83 23 -83 71c0 77 78 123 165 171h-177l3 21h22c40 0 69 12 60 49l-51 223h-289l-73 -134c-69 -122 -56 -138 17 -138h17l-3 -21h-240l3 21h10c56 0 85 15 145 124l382 696h13l178 -761c10 -38 30 -59 70 -59h24l-3 -21
h-97c-55 -48 -101 -101 -101 -152c0 -41 32 -59 68 -59c12 0 26 2 37 6zM430 667l-167 -306h236z" />
    <glyph glyph-name="Cacute" unicode="&#x106;" horiz-adv-x="844" 
d="M772 207l-23 -145c-100 -62 -179 -76 -281 -76c-272 0 -420 188 -420 397c0 271 195 450 441 450c106 0 246 -36 325 -91l-16 -152h-11c-40 154 -175 214 -293 214c-175 0 -326 -179 -326 -458c0 -219 122 -327 293 -327c113 0 206 23 300 188h11zM689 1086l-220 -234
h-13l143 234h90z" />
    <glyph glyph-name="Ccaron" unicode="&#x10c;" horiz-adv-x="844" 
d="M772 207l-23 -145c-100 -62 -179 -76 -281 -76c-272 0 -420 188 -420 397c0 271 195 450 441 450c106 0 246 -36 325 -91l-16 -152h-11c-40 154 -175 214 -293 214c-175 0 -326 -179 -326 -458c0 -219 122 -327 293 -327c113 0 206 23 300 188h11zM734 1097l-193 -244h-9
l-124 244h11l132 -151l172 151h11z" />
    <glyph glyph-name="Ccircumflex" unicode="&#x108;" horiz-adv-x="844" 
d="M772 207l-23 -145c-100 -62 -179 -76 -281 -76c-272 0 -420 188 -420 397c0 271 195 450 441 450c106 0 246 -36 325 -91l-16 -152h-11c-40 154 -175 214 -293 214c-175 0 -326 -179 -326 -458c0 -219 122 -327 293 -327c113 0 206 23 300 188h11zM591 1092l115 -244h-10
l-126 147l-178 -147h-12l202 244h9z" />
    <glyph glyph-name="Cdotaccent" unicode="&#x10a;" horiz-adv-x="844" 
d="M772 207l-23 -145c-100 -62 -179 -76 -281 -76c-272 0 -420 188 -420 397c0 271 195 450 441 450c106 0 246 -36 325 -91l-16 -152h-11c-40 154 -175 214 -293 214c-175 0 -326 -179 -326 -458c0 -219 122 -327 293 -327c113 0 206 23 300 188h11zM455 963
c0 36 28 65 64 65s65 -29 65 -65s-29 -64 -65 -64s-64 28 -64 64z" />
    <glyph glyph-name="Dcaron" unicode="&#x10e;" horiz-adv-x="924" 
d="M338 787l-111 -702c-8 -49 4 -56 110 -56h18c199 0 411 144 411 433c0 234 -188 325 -360 325h-68zM140 817h273c314 0 467 -150 467 -355c0 -269 -209 -462 -505 -462h-363l3 21h35c45 0 65 12 72 55l105 665c7 43 -9 55 -54 55h-36zM683 1097l-193 -244h-9l-124 244h11
l132 -151l172 151h11z" />
    <glyph glyph-name="Dcroat" unicode="&#x110;" horiz-adv-x="924" 
d="M22 398l4 36h152l49 307c7 43 -9 55 -54 55h-36l3 21h273c314 0 467 -150 467 -355c0 -269 -209 -462 -505 -462h-363l3 21h35c45 0 65 12 72 55l51 322h-151zM338 787l-56 -353h183l-5 -36h-184l-49 -313c-8 -49 4 -56 110 -56h18c199 0 411 144 411 433
c0 234 -188 325 -360 325h-68z" />
    <glyph glyph-name="Ebreve" unicode="&#x114;" horiz-adv-x="733" 
d="M122 76l105 665c7 43 -9 55 -54 55h-36l3 21h583l-22 -157h-10c0 100 -53 120 -184 120h-170l-52 -328h125c68 0 123 7 153 102h10l-37 -239h-10c-1 96 -53 102 -121 102h-126l-51 -327c-7 -44 18 -53 56 -53h176c97 0 156 33 186 129h10l-26 -166h-618l3 21h35
c45 0 65 12 72 55zM611 1041h43c-38 -140 -144 -160 -191 -160c-51 0 -145 20 -139 160h45c1 -82 39 -120 103 -120c62 0 112 38 139 120z" />
    <glyph glyph-name="Ecaron" unicode="&#x11a;" horiz-adv-x="733" 
d="M122 76l105 665c7 43 -9 55 -54 55h-36l3 21h583l-22 -157h-10c0 100 -53 120 -184 120h-170l-52 -328h125c68 0 123 7 153 102h10l-37 -239h-10c-1 96 -53 102 -121 102h-126l-51 -327c-7 -44 18 -53 56 -53h176c97 0 156 33 186 129h10l-26 -166h-618l3 21h35
c45 0 65 12 72 55zM658 1097l-193 -244h-9l-124 244h11l132 -151l172 151h11z" />
    <glyph glyph-name="Emacron" unicode="&#x112;" horiz-adv-x="733" 
d="M122 76l105 665c7 43 -9 55 -54 55h-36l3 21h583l-22 -157h-10c0 100 -53 120 -184 120h-170l-52 -328h125c68 0 123 7 153 102h10l-37 -239h-10c-1 96 -53 102 -121 102h-126l-51 -327c-7 -44 18 -53 56 -53h176c97 0 156 33 186 129h10l-26 -166h-618l3 21h35
c45 0 65 12 72 55zM316 916l7 47h334l-7 -47h-334z" />
    <glyph glyph-name="Eogonek" unicode="&#x118;" horiz-adv-x="733" 
d="M385 -205l2 -8c-28 -16 -65 -29 -99 -29c-45 0 -83 23 -83 71c0 77 78 123 165 171h-358l3 21h35c45 0 65 12 72 55l105 665c7 43 -9 55 -54 55h-36l3 21h583l-22 -157h-10c0 100 -53 120 -184 120h-170l-52 -328h125c68 0 123 7 153 102h10l-37 -239h-10
c-1 96 -53 102 -121 102h-126l-51 -327c-7 -44 18 -53 56 -53h176c97 0 156 33 186 129h10l-26 -166h-249c-55 -48 -101 -101 -101 -152c0 -41 32 -59 68 -59c12 0 26 2 37 6z" />
    <glyph glyph-name="Edotaccent" unicode="&#x116;" horiz-adv-x="733" 
d="M122 76l105 665c7 43 -9 55 -54 55h-36l3 21h583l-22 -157h-10c0 100 -53 120 -184 120h-170l-52 -328h125c68 0 123 7 153 102h10l-37 -239h-10c-1 96 -53 102 -121 102h-126l-51 -327c-7 -44 18 -53 56 -53h176c97 0 156 33 186 129h10l-26 -166h-618l3 21h35
c45 0 65 12 72 55zM412 963c0 36 28 65 64 65s65 -29 65 -65s-29 -64 -65 -64s-64 28 -64 64z" />
    <glyph glyph-name="Gbreve" unicode="&#x11e;" horiz-adv-x="905" 
d="M486 833c116 0 249 -36 328 -91l-16 -152h-11c-40 154 -180 214 -286 214c-175 0 -333 -179 -333 -458c0 -219 122 -327 293 -327c80 0 200 8 218 128l19 124c3 22 -12 34 -34 34h-40l3 21h263l-3 -21h-39c-22 0 -43 -12 -46 -34l-18 -115c-16 -103 -143 -170 -316 -170
c-272 0 -420 188 -420 397c0 271 208 450 438 450zM687 1041h43c-38 -140 -144 -160 -191 -160c-51 0 -145 20 -139 160h45c1 -82 39 -120 103 -120c62 0 112 38 139 120z" />
    <glyph glyph-name="Gcircumflex" unicode="&#x11c;" horiz-adv-x="905" 
d="M486 833c116 0 249 -36 328 -91l-16 -152h-11c-40 154 -180 214 -286 214c-175 0 -333 -179 -333 -458c0 -219 122 -327 293 -327c80 0 200 8 218 128l19 124c3 22 -12 34 -34 34h-40l3 21h263l-3 -21h-39c-22 0 -43 -12 -46 -34l-18 -115c-16 -103 -143 -170 -316 -170
c-272 0 -420 188 -420 397c0 271 208 450 438 450zM579 1092l115 -244h-10l-126 147l-178 -147h-12l202 244h9z" />
    <glyph glyph-name="Gcommaaccent" unicode="&#x122;" horiz-adv-x="905" 
d="M486 833c116 0 249 -36 328 -91l-16 -152h-11c-40 154 -180 214 -286 214c-175 0 -333 -179 -333 -458c0 -219 122 -327 293 -327c80 0 200 8 218 128l19 124c3 22 -12 34 -34 34h-40l3 21h263l-3 -21h-39c-22 0 -43 -12 -46 -34l-18 -115c-16 -103 -143 -170 -316 -170
c-272 0 -420 188 -420 397c0 271 208 450 438 450zM461 -103c0 -81 -84 -142 -150 -169l-3 8c32 17 77 62 83 99c-28 1 -48 27 -48 54c0 37 27 63 66 63c33 0 52 -25 52 -55z" />
    <glyph glyph-name="Gdotaccent" unicode="&#x120;" horiz-adv-x="905" 
d="M486 833c116 0 249 -36 328 -91l-16 -152h-11c-40 154 -180 214 -286 214c-175 0 -333 -179 -333 -458c0 -219 122 -327 293 -327c80 0 200 8 218 128l19 124c3 22 -12 34 -34 34h-40l3 21h263l-3 -21h-39c-22 0 -43 -12 -46 -34l-18 -115c-16 -103 -143 -170 -316 -170
c-272 0 -420 188 -420 397c0 271 208 450 438 450zM477 963c0 36 28 65 64 65s65 -29 65 -65s-29 -64 -65 -64s-64 28 -64 64z" />
    <glyph glyph-name="Hbar" unicode="&#x126;" horiz-adv-x="959" 
d="M115 604l5 36h91l16 101c7 43 -9 55 -54 55h-36l3 21h302l-3 -21h-36c-45 0 -65 -12 -72 -55l-16 -101h421l16 101c7 43 -9 55 -54 55h-36l3 21h302l-3 -21h-36c-45 0 -65 -12 -72 -55l-16 -101h102l-5 -36h-103l-83 -528c-7 -43 9 -55 54 -55h36l-3 -21h-302l3 21h36
c45 0 65 12 72 55l53 338h-421l-53 -338c-7 -43 9 -55 54 -55h36l-3 -21h-301l3 21h35c45 0 65 12 72 55l83 528h-90zM285 453h421l24 151h-421z" />
    <glyph glyph-name="Hcircumflex" unicode="&#x124;" horiz-adv-x="959" 
d="M647 76l53 338h-421l-53 -338c-7 -43 9 -55 54 -55h36l-3 -21h-301l3 21h35c45 0 65 12 72 55l105 665c7 43 -9 55 -54 55h-36l3 21h302l-3 -21h-36c-45 0 -65 -12 -72 -55l-46 -288h421l46 288c7 43 -9 55 -54 55h-36l3 21h302l-3 -21h-36c-45 0 -65 -12 -72 -55
l-105 -665c-7 -43 9 -55 54 -55h36l-3 -21h-302l3 21h36c45 0 65 12 72 55zM607 1092l115 -244h-10l-126 147l-178 -147h-12l202 244h9z" />
    <glyph glyph-name="Ibreve" unicode="&#x12c;" horiz-adv-x="434" 
d="M122 76l105 665c7 43 -9 55 -54 55h-36l3 21h302l-3 -21h-36c-45 0 -65 -12 -72 -55l-105 -665c-7 -43 9 -55 54 -55h36l-3 -21h-301l3 21h35c45 0 65 12 72 55zM452 1041h43c-38 -140 -144 -160 -191 -160c-51 0 -145 20 -139 160h45c1 -82 39 -120 103 -120
c62 0 112 38 139 120z" />
    <glyph glyph-name="Idotaccent" unicode="&#x130;" horiz-adv-x="434" 
d="M122 76l105 665c7 43 -9 55 -54 55h-36l3 21h302l-3 -21h-36c-45 0 -65 -12 -72 -55l-105 -665c-7 -43 9 -55 54 -55h36l-3 -21h-301l3 21h35c45 0 65 12 72 55zM243 963c0 36 28 65 64 65s65 -29 65 -65s-29 -64 -65 -64s-64 28 -64 64z" />
    <glyph glyph-name="Imacron" unicode="&#x12a;" horiz-adv-x="434" 
d="M122 76l105 665c7 43 -9 55 -54 55h-36l3 21h302l-3 -21h-36c-45 0 -65 -12 -72 -55l-105 -665c-7 -43 9 -55 54 -55h36l-3 -21h-301l3 21h35c45 0 65 12 72 55zM137 916l7 47h334l-7 -47h-334z" />
    <glyph glyph-name="Iogonek" unicode="&#x12e;" horiz-adv-x="434" 
d="M206 -205l2 -8c-28 -16 -65 -29 -99 -29c-45 0 -83 23 -83 71c0 77 78 123 165 171h-179l3 21h35c45 0 65 12 72 55l105 665c7 43 -9 55 -54 55h-36l3 21h302l-3 -21h-36c-45 0 -65 -12 -72 -55l-105 -665c-7 -43 9 -55 54 -55h36l-3 -21h-111
c-55 -48 -101 -101 -101 -152c0 -41 32 -59 68 -59c12 0 26 2 37 6z" />
    <glyph glyph-name="Itilde" unicode="&#x128;" horiz-adv-x="434" 
d="M450 1004l53 47l6 -4l-65 -122h-258l-53 -47l-6 4l65 122h258zM122 76l105 665c7 43 -9 55 -54 55h-36l3 21h302l-3 -21h-36c-45 0 -65 -12 -72 -55l-105 -665c-7 -43 9 -55 54 -55h36l-3 -21h-301l3 21h35c45 0 65 12 72 55z" />
    <glyph glyph-name="uni1ECA" unicode="&#x1eca;" horiz-adv-x="434" 
d="M122 76l105 665c7 43 -9 55 -54 55h-36l3 21h302l-3 -21h-36c-45 0 -65 -12 -72 -55l-105 -665c-7 -43 9 -55 54 -55h36l-3 -21h-301l3 21h35c45 0 65 12 72 55zM76 -160c0 38 30 68 68 68c39 0 69 -30 69 -68c0 -39 -30 -69 -69 -69c-38 0 -68 30 -68 69z" />
    <glyph glyph-name="Jcircumflex" unicode="&#x134;" horiz-adv-x="467" 
d="M221 298l71 443c7 43 -14 55 -64 55h-36l3 21h312l-3 -21h-36c-45 0 -65 -12 -72 -55l-71 -443c-24 -152 -64 -312 -235 -312c-98 0 -140 52 -140 85c0 28 19 47 48 47c24 0 44 -14 49 -46c7 -45 15 -67 48 -67c70 0 92 82 126 293zM400 1092l115 -244h-10l-126 147
l-178 -147h-12l202 244h9z" />
    <glyph glyph-name="Kcommaaccent" unicode="&#x136;" horiz-adv-x="810" 
d="M112 76l105 665c7 43 -9 55 -54 55h-36l3 21h302l-3 -21h-36c-45 0 -65 -12 -72 -55l-51 -325l309 286c51 47 83 94 0 94h-20l3 21h258l-3 -21h-10c-64 0 -109 -32 -174 -93l-270 -253l237 -347c52 -77 108 -86 148 -86l3 -17c-29 -8 -59 -14 -87 -14
c-97 0 -147 49 -180 98l-216 323l-52 -331c-7 -43 9 -55 54 -55h36l-3 -21h-301l3 21h35c45 0 65 12 72 55zM439 -103c0 -81 -84 -142 -150 -169l-3 8c32 17 77 62 83 99c-28 1 -48 27 -48 54c0 37 27 63 66 63c33 0 52 -25 52 -55z" />
    <glyph glyph-name="Lacute" unicode="&#x139;" horiz-adv-x="666" 
d="M112 76l105 665c7 43 -9 55 -54 55h-36l3 21h302l-3 -21h-36c-45 0 -65 -12 -72 -55l-102 -647c-8 -49 16 -58 59 -58h171c97 0 157 34 187 130h10l-26 -166h-618l3 21h35c45 0 65 12 72 55zM502 1086l-220 -234h-13l143 234h90z" />
    <glyph glyph-name="Lcaron" unicode="&#x13d;" horiz-adv-x="666" 
d="M112 76l105 665c7 43 -9 55 -54 55h-36l3 21h302l-3 -21h-36c-45 0 -65 -12 -72 -55l-102 -647c-8 -49 16 -58 59 -58h171c97 0 157 34 187 130h10l-26 -166h-618l3 21h35c45 0 65 12 72 55zM562 728c0 -81 -84 -142 -150 -169l-3 8c32 17 77 62 83 99
c-28 1 -48 27 -48 54c0 37 27 63 66 63c33 0 52 -25 52 -55z" />
    <glyph glyph-name="Lcommaaccent" unicode="&#x13b;" horiz-adv-x="666" 
d="M112 76l105 665c7 43 -9 55 -54 55h-36l3 21h302l-3 -21h-36c-45 0 -65 -12 -72 -55l-102 -647c-8 -49 16 -58 59 -58h171c97 0 157 34 187 130h10l-26 -166h-618l3 21h35c45 0 65 12 72 55zM390 -103c0 -81 -84 -142 -150 -169l-3 8c32 17 77 62 83 99
c-28 1 -48 27 -48 54c0 37 27 63 66 63c33 0 52 -25 52 -55z" />
    <glyph glyph-name="Ldot" unicode="&#x13f;" horiz-adv-x="666" 
d="M112 76l105 665c7 43 -9 55 -54 55h-36l3 21h302l-3 -21h-36c-45 0 -65 -12 -72 -55l-102 -647c-8 -49 16 -58 59 -58h171c97 0 157 34 187 130h10l-26 -166h-618l3 21h35c45 0 65 12 72 55zM465 385c0 36 28 65 64 65s65 -29 65 -65s-29 -64 -65 -64s-64 28 -64 64z" />
    <glyph glyph-name="Lslash" unicode="&#x141;" horiz-adv-x="666" 
d="M27 285l-15 35l151 81l54 340c7 43 -9 55 -54 55h-36l3 21h302l-3 -21h-36c-45 0 -65 -12 -72 -55l-44 -280l135 73l14 -35l-157 -84l-50 -321c-8 -49 16 -58 59 -58h171c97 0 157 34 187 130h10l-26 -166h-618l3 21h35c45 0 65 12 72 55l44 278z" />
    <glyph glyph-name="Eng" unicode="&#x14a;" horiz-adv-x="923" 
d="M662 56l5 31l-397 598l-89 -564c-11 -70 -4 -100 56 -100h38l-3 -21h-260l3 21h29c57 0 84 29 95 100l93 586c10 64 -52 88 -94 88l3 22h172l417 -643l83 522c11 70 4 100 -56 100h-38l3 21h261l-3 -21h-30c-57 0 -84 -29 -95 -100l-101 -643
c-26 -168 -71 -264 -237 -356l-7 9c92 85 124 174 152 350z" />
    <glyph glyph-name="Nacute" unicode="&#x143;" horiz-adv-x="923" 
d="M730 174l83 522c11 70 4 100 -56 100h-38l3 21h261l-3 -21h-30c-57 0 -84 -29 -95 -100l-112 -710h-9l-464 699l-89 -564c-11 -70 -4 -100 56 -100h38l-3 -21h-260l3 21h29c57 0 84 29 95 100l93 586c10 64 -52 88 -94 88l3 22h172zM742 1086l-220 -234h-13l143 234h90z
" />
    <glyph glyph-name="Ncaron" unicode="&#x147;" horiz-adv-x="923" 
d="M730 174l83 522c11 70 4 100 -56 100h-38l3 21h261l-3 -21h-30c-57 0 -84 -29 -95 -100l-112 -710h-9l-464 699l-89 -564c-11 -70 -4 -100 56 -100h38l-3 -21h-260l3 21h29c57 0 84 29 95 100l93 586c10 64 -52 88 -94 88l3 22h172zM755 1097l-193 -244h-9l-124 244h11
l132 -151l172 151h11z" />
    <glyph glyph-name="Ncommaaccent" unicode="&#x145;" horiz-adv-x="923" 
d="M730 174l83 522c11 70 4 100 -56 100h-38l3 21h261l-3 -21h-30c-57 0 -84 -29 -95 -100l-112 -710h-9l-464 699l-89 -564c-11 -70 -4 -100 56 -100h38l-3 -21h-260l3 21h29c57 0 84 29 95 100l93 586c10 64 -52 88 -94 88l3 22h172zM481 -103c0 -81 -84 -142 -150 -169
l-3 8c32 17 77 62 83 99c-28 1 -48 27 -48 54c0 37 27 63 66 63c33 0 52 -25 52 -55z" />
    <glyph glyph-name="OE" unicode="&#x152;" horiz-adv-x="1349" 
d="M901 452h125c68 0 123 7 153 102h10l-37 -239h-10c-1 96 -53 102 -121 102h-126l-51 -327c-7 -44 18 -53 56 -53h176c97 0 156 33 186 129h10l-26 -166h-521l18 114c-70 -75 -165 -126 -277 -126c-245 0 -414 164 -414 407c0 262 196 438 434 438c160 0 279 -74 340 -195
l28 179h485l-22 -157h-10c0 100 -53 120 -184 120h-170zM499 804c-178 0 -331 -171 -331 -448c0 -230 130 -339 292 -339c183 0 334 169 334 445c0 228 -134 342 -295 342z" />
    <glyph glyph-name="Obreve" unicode="&#x14e;" horiz-adv-x="954" 
d="M499 804c-178 0 -331 -181 -331 -458c0 -230 130 -329 292 -329c183 0 327 179 327 455c0 228 -127 332 -288 332zM486 833c239 0 416 -154 416 -394c0 -266 -188 -451 -430 -451c-245 0 -420 154 -420 397c0 262 196 448 434 448zM702 1041h43
c-38 -140 -144 -160 -191 -160c-51 0 -145 20 -139 160h45c1 -82 39 -120 103 -120c62 0 112 38 139 120z" />
    <glyph glyph-name="Ohungarumlaut" unicode="&#x150;" horiz-adv-x="954" 
d="M499 804c-178 0 -331 -181 -331 -458c0 -230 130 -329 292 -329c183 0 327 179 327 455c0 228 -127 332 -288 332zM486 833c239 0 416 -154 416 -394c0 -266 -188 -451 -430 -451c-245 0 -420 154 -420 397c0 262 196 448 434 448zM638 1082l-200 -234h-13l123 234h90z
M789 1082l-200 -234h-13l123 234h90z" />
    <glyph glyph-name="Omacron" unicode="&#x14c;" horiz-adv-x="954" 
d="M499 804c-178 0 -331 -181 -331 -458c0 -230 130 -329 292 -329c183 0 327 179 327 455c0 228 -127 332 -288 332zM486 833c239 0 416 -154 416 -394c0 -266 -188 -451 -430 -451c-245 0 -420 154 -420 397c0 262 196 448 434 448zM415 916l7 47h334l-7 -47h-334z" />
    <glyph glyph-name="uni1ECC" unicode="&#x1ecc;" horiz-adv-x="954" 
d="M499 804c-178 0 -331 -181 -331 -458c0 -230 130 -329 292 -329c183 0 327 179 327 455c0 228 -127 332 -288 332zM486 833c239 0 416 -154 416 -394c0 -266 -188 -451 -430 -451c-245 0 -420 154 -420 397c0 262 196 448 434 448zM329 -160c0 38 30 68 68 68
c39 0 69 -30 69 -68c0 -39 -30 -69 -69 -69c-38 0 -68 30 -68 69z" />
    <glyph glyph-name="Racute" unicode="&#x154;" horiz-adv-x="772" 
d="M328 785l-58 -369h24c152 0 276 43 276 215c0 102 -59 155 -208 155c-11 0 -22 0 -34 -1zM130 817h249c166 0 303 -37 303 -181c0 -115 -99 -207 -253 -229c114 -17 165 -83 179 -192c18 -149 30 -209 152 -205l2 -12c-34 -9 -65 -12 -91 -12c-122 0 -168 79 -181 219
c-13 143 -89 184 -209 184h-16l-48 -306c-8 -50 8 -62 64 -62h35l-3 -21h-311l2 21h36c45 0 65 12 72 55l105 665c7 43 -9 55 -54 55h-36zM604 1086l-220 -234h-13l143 234h90z" />
    <glyph glyph-name="Rcaron" unicode="&#x158;" horiz-adv-x="772" 
d="M328 785l-58 -369h24c152 0 276 43 276 215c0 102 -59 155 -208 155c-11 0 -22 0 -34 -1zM130 817h249c166 0 303 -37 303 -181c0 -115 -99 -207 -253 -229c114 -17 165 -83 179 -192c18 -149 30 -209 152 -205l2 -12c-34 -9 -65 -12 -91 -12c-122 0 -168 79 -181 219
c-13 143 -89 184 -209 184h-16l-48 -306c-8 -50 8 -62 64 -62h35l-3 -21h-311l2 21h36c45 0 65 12 72 55l105 665c7 43 -9 55 -54 55h-36zM618 1097l-193 -244h-9l-124 244h11l132 -151l172 151h11z" />
    <glyph glyph-name="Rcommaaccent" unicode="&#x156;" horiz-adv-x="772" 
d="M328 785l-58 -369h24c152 0 276 43 276 215c0 102 -59 155 -208 155c-11 0 -22 0 -34 -1zM130 817h249c166 0 303 -37 303 -181c0 -115 -99 -207 -253 -229c114 -17 165 -83 179 -192c18 -149 30 -209 152 -205l2 -12c-34 -9 -65 -12 -91 -12c-122 0 -168 79 -181 219
c-13 143 -89 184 -209 184h-16l-48 -306c-8 -50 8 -62 64 -62h35l-3 -21h-311l2 21h36c45 0 65 12 72 55l105 665c7 43 -9 55 -54 55h-36zM446 -103c0 -81 -84 -142 -150 -169l-3 8c32 17 77 62 83 99c-28 1 -48 27 -48 54c0 37 27 63 66 63c33 0 52 -25 52 -55z" />
    <glyph glyph-name="Sacute" unicode="&#x15a;" horiz-adv-x="623" 
d="M257 22c109 0 194 64 194 167c0 80 -52 130 -138 182l-83 50c-98 59 -129 128 -129 202c0 130 102 212 270 212c80 0 169 -32 212 -73l-19 -127h-10c-27 114 -97 169 -192 169c-83 0 -168 -42 -168 -144c0 -45 29 -101 93 -142l64 -41c76 -49 204 -102 204 -236
c0 -156 -127 -255 -290 -255c-122 0 -196 31 -255 71l21 146h10c29 -140 97 -181 216 -181zM559 1086l-220 -234h-13l143 234h90z" />
    <glyph glyph-name="Scaron" unicode="&#x160;" horiz-adv-x="623" 
d="M257 22c109 0 194 64 194 167c0 80 -52 130 -138 182l-83 50c-98 59 -129 128 -129 202c0 130 102 212 270 212c80 0 169 -32 212 -73l-19 -127h-10c-27 114 -97 169 -192 169c-83 0 -168 -42 -168 -144c0 -45 29 -101 93 -142l64 -41c76 -49 204 -102 204 -236
c0 -156 -127 -255 -290 -255c-122 0 -196 31 -255 71l21 146h10c29 -140 97 -181 216 -181zM586 1097l-193 -244h-9l-124 244h11l132 -151l172 151h11z" />
    <glyph glyph-name="Scedilla" unicode="&#x15e;" horiz-adv-x="623" 
d="M257 22c109 0 194 64 194 167c0 80 -52 130 -138 182l-83 50c-98 59 -129 128 -129 202c0 130 102 212 270 212c80 0 169 -32 212 -73l-19 -127h-10c-27 114 -97 169 -192 169c-83 0 -168 -42 -168 -144c0 -45 29 -101 93 -142l64 -41c76 -49 204 -102 204 -236
c0 -156 -127 -255 -290 -255h-6l-56 -64c18 12 37 20 60 20c41 0 70 -17 70 -56c0 -85 -122 -133 -197 -131l-2 6c92 11 148 73 148 118c0 24 -13 36 -44 36c-16 0 -31 -6 -43 -14l-21 19l56 67c-101 6 -167 34 -220 70l21 146h10c29 -140 97 -181 216 -181z" />
    <glyph glyph-name="Scircumflex" unicode="&#x15c;" horiz-adv-x="623" 
d="M257 22c109 0 194 64 194 167c0 80 -52 130 -138 182l-83 50c-98 59 -129 128 -129 202c0 130 102 212 270 212c80 0 169 -32 212 -73l-19 -127h-10c-27 114 -97 169 -192 169c-83 0 -168 -42 -168 -144c0 -45 29 -101 93 -142l64 -41c76 -49 204 -102 204 -236
c0 -156 -127 -255 -290 -255c-122 0 -196 31 -255 71l21 146h10c29 -140 97 -181 216 -181zM427 1092l115 -244h-10l-126 147l-178 -147h-12l202 244h9z" />
    <glyph glyph-name="Scommaaccent" unicode="&#x218;" horiz-adv-x="623" 
d="M257 22c109 0 194 64 194 167c0 80 -52 130 -138 182l-83 50c-98 59 -129 128 -129 202c0 130 102 212 270 212c80 0 169 -32 212 -73l-19 -127h-10c-27 114 -97 169 -192 169c-83 0 -168 -42 -168 -144c0 -45 29 -101 93 -142l64 -41c76 -49 204 -102 204 -236
c0 -156 -127 -255 -290 -255c-122 0 -196 31 -255 71l21 146h10c29 -140 97 -181 216 -181zM282 -103c0 -81 -84 -142 -150 -169l-3 8c32 17 77 62 83 99c-28 1 -48 27 -48 54c0 37 27 63 66 63c33 0 52 -25 52 -55z" />
    <glyph glyph-name="Tbar" unicode="&#x166;" horiz-adv-x="682" 
d="M446 780l-51 -316h163l-5 -36h-163l-54 -342c-8 -53 8 -65 62 -65h47l-3 -21h-342l3 21h42c59 0 79 12 87 64l54 343h-172l5 36h173l50 316h-115c-101 0 -156 -43 -187 -139h-10l28 176h684l-28 -176h-10c0 95 -41 139 -143 139h-115z" />
    <glyph glyph-name="Tcaron" unicode="&#x164;" horiz-adv-x="682" 
d="M446 780l-110 -694c-8 -53 8 -65 62 -65h47l-3 -21h-342l3 21h42c59 0 79 12 87 64l110 695h-115c-101 0 -156 -43 -187 -139h-10l28 176h684l-28 -176h-10c0 95 -41 139 -143 139h-115zM606 1097l-193 -244h-9l-124 244h11l132 -151l172 151h11z" />
    <glyph glyph-name="uni0162" unicode="&#x162;" horiz-adv-x="682" 
d="M446 780l-110 -694c-8 -53 8 -65 62 -65h47l-3 -21h-342l3 21h42c59 0 79 12 87 64l110 695h-115c-101 0 -156 -43 -187 -139h-10l28 176h684l-28 -176h-10c0 95 -41 139 -143 139h-115zM306 -103c0 -81 -84 -142 -150 -169l-3 8c32 17 77 62 83 99c-28 1 -48 27 -48 54
c0 37 27 63 66 63c33 0 52 -25 52 -55z" />
    <glyph glyph-name="Tcommaaccent" unicode="&#x21a;" horiz-adv-x="682" 
d="M446 780l-110 -694c-8 -53 8 -65 62 -65h47l-3 -21h-342l3 21h42c59 0 79 12 87 64l110 695h-115c-101 0 -156 -43 -187 -139h-10l28 176h684l-28 -176h-10c0 95 -41 139 -143 139h-115zM306 -103c0 -81 -84 -142 -150 -169l-3 8c32 17 77 62 83 99c-28 1 -48 27 -48 54
c0 37 27 63 66 63c33 0 52 -25 52 -55z" />
    <glyph glyph-name="Ubreve" unicode="&#x16c;" horiz-adv-x="846" 
d="M788 696l-60 -381c-32 -202 -159 -329 -356 -329c-196 0 -304 119 -270 335l66 420c7 43 -9 55 -54 55h-36l3 21h302l-3 -21h-36c-45 0 -65 -12 -72 -55l-68 -430c-26 -167 56 -271 198 -271c164 0 256 112 282 277l60 379c11 70 4 100 -56 100h-38l3 21h263l-3 -21h-30
c-57 0 -84 -29 -95 -100zM668 1041h43c-38 -140 -144 -160 -191 -160c-51 0 -145 20 -139 160h45c1 -82 39 -120 103 -120c62 0 112 38 139 120z" />
    <glyph glyph-name="Uhungarumlaut" unicode="&#x170;" horiz-adv-x="846" 
d="M788 696l-60 -381c-32 -202 -159 -329 -356 -329c-196 0 -304 119 -270 335l66 420c7 43 -9 55 -54 55h-36l3 21h302l-3 -21h-36c-45 0 -65 -12 -72 -55l-68 -430c-26 -167 56 -271 198 -271c164 0 256 112 282 277l60 379c11 70 4 100 -56 100h-38l3 21h263l-3 -21h-30
c-57 0 -84 -29 -95 -100zM621 1082l-200 -234h-13l123 234h90zM772 1082l-200 -234h-13l123 234h90z" />
    <glyph glyph-name="Umacron" unicode="&#x16a;" horiz-adv-x="846" 
d="M788 696l-60 -381c-32 -202 -159 -329 -356 -329c-196 0 -304 119 -270 335l66 420c7 43 -9 55 -54 55h-36l3 21h302l-3 -21h-36c-45 0 -65 -12 -72 -55l-68 -430c-26 -167 56 -271 198 -271c164 0 256 112 282 277l60 379c11 70 4 100 -56 100h-38l3 21h263l-3 -21h-30
c-57 0 -84 -29 -95 -100zM365 916l7 47h334l-7 -47h-334z" />
    <glyph glyph-name="Uogonek" unicode="&#x172;" horiz-adv-x="846" 
d="M401 -205l2 -8c-28 -16 -65 -29 -99 -29c-45 0 -83 23 -83 71c0 69 63 114 140 157c-189 5 -293 123 -259 335l66 420c7 43 -9 55 -54 55h-36l3 21h302l-3 -21h-36c-45 0 -65 -12 -72 -55l-68 -430c-26 -167 56 -271 198 -271c164 0 256 112 282 277l60 379
c11 70 4 100 -56 100h-38l3 21h263l-3 -21h-30c-57 0 -84 -29 -95 -100l-60 -381c-32 -199 -155 -325 -347 -329c-47 -44 -85 -92 -85 -138c0 -41 32 -59 68 -59c12 0 26 2 37 6z" />
    <glyph glyph-name="Uring" unicode="&#x16e;" horiz-adv-x="846" 
d="M788 696l-60 -381c-32 -202 -159 -329 -356 -329c-196 0 -304 119 -270 335l66 420c7 43 -9 55 -54 55h-36l3 21h302l-3 -21h-36c-45 0 -65 -12 -72 -55l-68 -430c-26 -167 56 -271 198 -271c164 0 256 112 282 277l60 379c11 70 4 100 -56 100h-38l3 21h263l-3 -21h-30
c-57 0 -84 -29 -95 -100zM543 1073c51 0 90 -39 90 -88c0 -61 -57 -108 -117 -108c-51 0 -89 38 -89 86c0 62 54 110 116 110zM538 1040c-41 0 -72 -33 -72 -73c0 -31 22 -57 55 -57c42 0 74 31 74 71c0 33 -26 59 -57 59z" />
    <glyph glyph-name="Utilde" unicode="&#x168;" horiz-adv-x="846" 
d="M788 696l-60 -381c-32 -202 -159 -329 -356 -329c-196 0 -304 119 -270 335l66 420c7 43 -9 55 -54 55h-36l3 21h302l-3 -21h-36c-45 0 -65 -12 -72 -55l-68 -430c-26 -167 56 -271 198 -271c164 0 256 112 282 277l60 379c11 70 4 100 -56 100h-38l3 21h263l-3 -21h-30
c-57 0 -84 -29 -95 -100zM686 1004l53 47l6 -4l-65 -122h-298l-53 -47l-6 4l65 122h298z" />
    <glyph glyph-name="uni1EE4" unicode="&#x1ee4;" horiz-adv-x="846" 
d="M788 696l-60 -381c-32 -202 -159 -329 -356 -329c-196 0 -304 119 -270 335l66 420c7 43 -9 55 -54 55h-36l3 21h302l-3 -21h-36c-45 0 -65 -12 -72 -55l-68 -430c-26 -167 56 -271 198 -271c164 0 256 112 282 277l60 379c11 70 4 100 -56 100h-38l3 21h263l-3 -21h-30
c-57 0 -84 -29 -95 -100zM286 -160c0 38 30 68 68 68c39 0 69 -30 69 -68c0 -39 -30 -69 -69 -69c-38 0 -68 30 -68 69z" />
    <glyph glyph-name="Wacute" unicode="&#x1e82;" horiz-adv-x="1156" 
d="M775 196l166 404c76 187 59 196 -14 196h-17l3 21h239l-3 -21h-10c-57 0 -79 -10 -150 -182l-264 -638h-13l-135 606l-252 -606h-13l-169 761c-9 38 -29 59 -69 59h-24l3 21h289l-3 -21h-26c-40 0 -68 -12 -60 -49l120 -550l191 446l-21 94c-8 38 -29 59 -69 59h-24l3 21
h289l-3 -21h-26c-40 0 -68 -12 -60 -49zM821 1086l-220 -234h-13l143 234h90z" />
    <glyph glyph-name="Wcircumflex" unicode="&#x174;" horiz-adv-x="1156" 
d="M775 196l166 404c76 187 59 196 -14 196h-17l3 21h239l-3 -21h-10c-57 0 -79 -10 -150 -182l-264 -638h-13l-135 606l-252 -606h-13l-169 761c-9 38 -29 59 -69 59h-24l3 21h289l-3 -21h-26c-40 0 -68 -12 -60 -49l120 -550l191 446l-21 94c-8 38 -29 59 -69 59h-24l3 21
h289l-3 -21h-26c-40 0 -68 -12 -60 -49zM654 1092l115 -244h-10l-126 147l-178 -147h-12l202 244h9z" />
    <glyph glyph-name="Wdieresis" unicode="&#x1e84;" horiz-adv-x="1156" 
d="M775 196l166 404c76 187 59 196 -14 196h-17l3 21h239l-3 -21h-10c-57 0 -79 -10 -150 -182l-264 -638h-13l-135 606l-252 -606h-13l-169 761c-9 38 -29 59 -69 59h-24l3 21h289l-3 -21h-26c-40 0 -68 -12 -60 -49l120 -550l191 446l-21 94c-8 38 -29 59 -69 59h-24l3 21
h289l-3 -21h-26c-40 0 -68 -12 -60 -49zM419 971c0 36 29 65 65 65s65 -29 65 -65s-29 -65 -65 -65s-65 29 -65 65zM691 971c0 36 29 65 65 65s65 -29 65 -65s-29 -65 -65 -65s-65 29 -65 65z" />
    <glyph glyph-name="Wgrave" unicode="&#x1e80;" horiz-adv-x="1156" 
d="M775 196l166 404c76 187 59 196 -14 196h-17l3 21h239l-3 -21h-10c-57 0 -79 -10 -150 -182l-264 -638h-13l-135 606l-252 -606h-13l-169 761c-9 38 -29 59 -69 59h-24l3 21h289l-3 -21h-26c-40 0 -68 -12 -60 -49l120 -550l191 446l-21 94c-8 38 -29 59 -69 59h-24l3 21
h289l-3 -21h-26c-40 0 -68 -12 -60 -49zM603 848l-146 234h90l69 -234h-13z" />
    <glyph glyph-name="Ycircumflex" unicode="&#x176;" horiz-adv-x="745" 
d="M395 424l211 269c64 82 43 103 -15 103h-28l3 21h243l-3 -21c-70 0 -87 -20 -166 -121l-234 -299l-46 -290c-8 -53 8 -65 62 -65h42l-3 -21h-332l3 21h37c59 0 79 12 87 64l46 289l-148 363c-14 36 -29 59 -69 59h-24l3 21h289l-3 -21h-26c-40 0 -74 -14 -60 -49z
M488 1092l115 -244h-10l-126 147l-178 -147h-12l202 244h9z" />
    <glyph glyph-name="Ydieresis" unicode="&#x178;" horiz-adv-x="745" 
d="M395 424l211 269c64 82 43 103 -15 103h-28l3 21h243l-3 -21c-70 0 -87 -20 -166 -121l-234 -299l-46 -290c-8 -53 8 -65 62 -65h42l-3 -21h-332l3 21h37c59 0 79 12 87 64l46 289l-148 363c-14 36 -29 59 -69 59h-24l3 21h289l-3 -21h-26c-40 0 -74 -14 -60 -49z
M259 971c0 36 29 65 65 65s65 -29 65 -65s-29 -65 -65 -65s-65 29 -65 65zM531 971c0 36 29 65 65 65s65 -29 65 -65s-29 -65 -65 -65s-65 29 -65 65z" />
    <glyph glyph-name="Ygrave" unicode="&#x1ef2;" horiz-adv-x="745" 
d="M395 424l211 269c64 82 43 103 -15 103h-28l3 21h243l-3 -21c-70 0 -87 -20 -166 -121l-234 -299l-46 -290c-8 -53 8 -65 62 -65h42l-3 -21h-332l3 21h37c59 0 79 12 87 64l46 289l-148 363c-14 36 -29 59 -69 59h-24l3 21h289l-3 -21h-26c-40 0 -74 -14 -60 -49z
M469 848l-146 234h90l69 -234h-13z" />
    <glyph glyph-name="uni0232" unicode="&#x232;" horiz-adv-x="745" 
d="M395 424l211 269c64 82 43 103 -15 103h-28l3 21h243l-3 -21c-70 0 -87 -20 -166 -121l-234 -299l-46 -290c-8 -53 8 -65 62 -65h42l-3 -21h-332l3 21h37c59 0 79 12 87 64l46 289l-148 363c-14 36 -29 59 -69 59h-24l3 21h289l-3 -21h-26c-40 0 -74 -14 -60 -49z
M299 916l7 47h334l-7 -47h-334z" />
    <glyph glyph-name="Zacute" unicode="&#x179;" horiz-adv-x="679" 
d="M-41 0l612 779h-187c-159 0 -219 -45 -241 -130h-12l26 168h562l-610 -781h275c104 0 188 34 214 136h11l-27 -172h-623zM617 1086l-220 -234h-13l143 234h90z" />
    <glyph glyph-name="Zcaron" unicode="&#x17d;" horiz-adv-x="679" 
d="M-41 0l612 779h-187c-159 0 -219 -45 -241 -130h-12l26 168h562l-610 -781h275c104 0 188 34 214 136h11l-27 -172h-623zM643 1097l-193 -244h-9l-124 244h11l132 -151l172 151h11z" />
    <glyph glyph-name="Zdotaccent" unicode="&#x17b;" horiz-adv-x="679" 
d="M-41 0l612 779h-187c-159 0 -219 -45 -241 -130h-12l26 168h562l-610 -781h275c104 0 188 34 214 136h11l-27 -172h-623zM375 963c0 36 28 65 64 65s65 -29 65 -65s-29 -64 -65 -64s-64 28 -64 64z" />
    <glyph glyph-name="uni018F" unicode="&#x18f;" horiz-adv-x="786" 
d="M312 -13c-175 0 -304 105 -290 313h582c13 50 20 107 20 169c0 157 -72 295 -237 295c-95 0 -223 -35 -319 -168l-10 5c88 156 223 226 356 226c214 0 333 -145 333 -347c0 -284 -193 -493 -435 -493zM314 14c118 0 231 92 282 256h-464c-20 -177 81 -256 182 -256z" />
    <glyph glyph-name="abreve" unicode="&#x103;" horiz-adv-x="571" 
d="M325 495c20 0 58 -5 88 -30l7 38h89l-68 -390c-8 -47 -17 -79 4 -79c13 0 46 22 86 72l13 -10c-42 -61 -79 -110 -133 -110c-56 0 -75 43 -63 112v1c-61 -103 -123 -113 -171 -113c-107 0 -142 90 -142 160c0 198 157 349 290 349zM222 30c34 0 81 15 132 100l48 270
c-13 43 -43 74 -81 74c-127 0 -182 -211 -182 -296c0 -87 26 -148 83 -148zM504 749h43c-38 -140 -144 -160 -191 -160c-51 0 -145 20 -139 160h45c1 -82 39 -120 103 -120c62 0 112 38 139 120z" />
    <glyph glyph-name="amacron" unicode="&#x101;" horiz-adv-x="571" 
d="M325 495c20 0 58 -5 88 -30l7 38h89l-68 -390c-8 -47 -17 -79 4 -79c13 0 46 22 86 72l13 -10c-42 -61 -79 -110 -133 -110c-56 0 -75 43 -63 112v1c-61 -103 -123 -113 -171 -113c-107 0 -142 90 -142 160c0 198 157 349 290 349zM222 30c34 0 81 15 132 100l48 270
c-13 43 -43 74 -81 74c-127 0 -182 -211 -182 -296c0 -87 26 -148 83 -148zM205 629l7 47h334l-7 -47h-334z" />
    <glyph glyph-name="aogonek" unicode="&#x105;" horiz-adv-x="571" 
d="M434 -206l2 -8c-28 -16 -65 -29 -99 -29c-45 0 -83 23 -83 71c0 70 65 115 143 159c-45 7 -60 48 -49 111v1c-61 -103 -123 -113 -171 -113c-107 0 -142 90 -142 160c0 198 157 349 290 349c20 0 58 -5 88 -30l7 38h89l-68 -390c-8 -47 -17 -79 4 -79c13 0 46 22 86 72
l13 -10c-41 -59 -77 -107 -128 -110c-48 -45 -87 -93 -87 -139c0 -41 32 -59 68 -59c12 0 26 2 37 6zM222 30c34 0 81 15 132 100l48 270c-13 43 -43 74 -81 74c-127 0 -182 -211 -182 -296c0 -87 26 -148 83 -148z" />
    <glyph glyph-name="cacute" unicode="&#x107;" 
d="M40 144c0 162 109 359 274 359c49 0 122 -26 122 -70c0 -28 -19 -47 -41 -47c-65 0 -40 93 -109 93c-80 0 -146 -172 -146 -300c0 -90 31 -145 80 -145c48 0 106 43 155 123l15 -9c-71 -133 -131 -162 -210 -162c-87 0 -140 52 -140 158zM538 790l-220 -234h-13l143 234
h90z" />
    <glyph glyph-name="ccaron" unicode="&#x10d;" 
d="M40 144c0 162 109 359 274 359c49 0 122 -26 122 -70c0 -28 -19 -47 -41 -47c-65 0 -40 93 -109 93c-80 0 -146 -172 -146 -300c0 -90 31 -145 80 -145c48 0 106 43 155 123l15 -9c-71 -133 -131 -162 -210 -162c-87 0 -140 52 -140 158zM525 805l-193 -244h-9l-124 244
h11l132 -151l172 151h11z" />
    <glyph glyph-name="ccircumflex" unicode="&#x109;" 
d="M40 144c0 162 109 359 274 359c49 0 122 -26 122 -70c0 -28 -19 -47 -41 -47c-65 0 -40 93 -109 93c-80 0 -146 -172 -146 -300c0 -90 31 -145 80 -145c48 0 106 43 155 123l15 -9c-71 -133 -131 -162 -210 -162c-87 0 -140 52 -140 158zM368 800l115 -244h-10l-126 147
l-178 -147h-12l202 244h9z" />
    <glyph glyph-name="cdotaccent" unicode="&#x10b;" 
d="M40 144c0 162 109 359 274 359c49 0 122 -26 122 -70c0 -28 -19 -47 -41 -47c-65 0 -40 93 -109 93c-80 0 -146 -172 -146 -300c0 -90 31 -145 80 -145c48 0 106 43 155 123l15 -9c-71 -133 -131 -162 -210 -162c-87 0 -140 52 -140 158zM288 675c0 36 28 65 64 65
s65 -29 65 -65s-29 -64 -65 -64s-64 28 -64 64z" />
    <glyph glyph-name="dcaron" unicode="&#x10f;" horiz-adv-x="606" 
d="M556 817l-100 -704c-8 -59 -8 -79 7 -79c10 0 43 22 83 72l13 -10c-42 -61 -79 -110 -133 -110c-56 0 -74 43 -64 112l3 24c-68 -126 -131 -136 -185 -136c-110 0 -145 88 -145 164c0 192 159 353 282 353c24 0 65 -8 98 -33l39 271c6 43 -3 55 -48 55h-25l4 21h171z
M222 30c34 0 84 16 147 118l35 248c-10 51 -48 84 -91 84c-126 0 -175 -217 -175 -302c0 -87 27 -148 84 -148zM706 728c0 -81 -84 -142 -150 -169l-3 8c32 17 77 62 83 99c-28 1 -48 27 -48 54c0 37 27 63 66 63c33 0 52 -25 52 -55z" />
    <glyph glyph-name="dcroat" unicode="&#x111;" horiz-adv-x="589" 
d="M556 817l-25 -173h93l-5 -26h-92l-71 -505c-8 -59 -8 -79 7 -79c10 0 43 22 83 72l13 -10c-42 -61 -79 -110 -133 -110c-56 0 -74 43 -64 112l3 24c-68 -126 -131 -136 -185 -136c-110 0 -145 88 -145 164c0 192 159 353 282 353c24 0 65 -8 98 -33l21 148h-213l5 26h212
l14 97c6 43 -3 55 -48 55h-25l4 21h171zM222 30c34 0 84 16 147 118l35 248c-10 51 -48 84 -91 84c-126 0 -175 -217 -175 -302c0 -87 27 -148 84 -148z" />
    <glyph glyph-name="ebreve" unicode="&#x115;" 
d="M421 427c0 -118 -146 -151 -281 -205c-2 -15 -3 -29 -3 -43c0 -66 16 -145 82 -145c59 0 122 70 156 125l15 -9c-71 -133 -138 -164 -207 -164c-90 0 -143 52 -143 158c0 191 134 359 274 359c83 0 107 -46 107 -76zM284 478c-59 0 -125 -123 -143 -241
c87 36 194 104 194 179c0 45 -24 62 -51 62zM455 749h43c-38 -140 -144 -160 -191 -160c-51 0 -145 20 -139 160h45c1 -82 39 -120 103 -120c62 0 112 38 139 120z" />
    <glyph glyph-name="ecaron" unicode="&#x11b;" 
d="M421 427c0 -118 -146 -151 -281 -205c-2 -15 -3 -29 -3 -43c0 -66 16 -145 82 -145c59 0 122 70 156 125l15 -9c-71 -133 -138 -164 -207 -164c-90 0 -143 52 -143 158c0 191 134 359 274 359c83 0 107 -46 107 -76zM284 478c-59 0 -125 -123 -143 -241
c87 36 194 104 194 179c0 45 -24 62 -51 62zM503 805l-193 -244h-9l-124 244h11l132 -151l172 151h11z" />
    <glyph glyph-name="emacron" unicode="&#x113;" 
d="M421 427c0 -118 -146 -151 -281 -205c-2 -15 -3 -29 -3 -43c0 -66 16 -145 82 -145c59 0 122 70 156 125l15 -9c-71 -133 -138 -164 -207 -164c-90 0 -143 52 -143 158c0 191 134 359 274 359c83 0 107 -46 107 -76zM284 478c-59 0 -125 -123 -143 -241
c87 36 194 104 194 179c0 45 -24 62 -51 62zM140 629l7 47h334l-7 -47h-334z" />
    <glyph glyph-name="eogonek" unicode="&#x119;" 
d="M199 -206l2 -8c-28 -16 -65 -29 -99 -29c-45 0 -83 23 -83 71c0 70 66 115 144 159c-78 8 -123 59 -123 157c0 191 134 359 274 359c83 0 107 -46 107 -76c0 -118 -146 -151 -281 -205c-2 -15 -3 -29 -3 -43c0 -66 16 -145 82 -145c59 0 122 70 156 125l15 -9
c-71 -133 -138 -164 -207 -164h-2c-48 -45 -87 -93 -87 -139c0 -41 32 -59 68 -59c12 0 26 2 37 6zM284 478c-59 0 -125 -123 -143 -241c87 36 194 104 194 179c0 45 -24 62 -51 62z" />
    <glyph glyph-name="edotaccent" unicode="&#x117;" 
d="M421 427c0 -118 -146 -151 -281 -205c-2 -15 -3 -29 -3 -43c0 -66 16 -145 82 -145c59 0 122 70 156 125l15 -9c-71 -133 -138 -164 -207 -164c-90 0 -143 52 -143 158c0 191 134 359 274 359c83 0 107 -46 107 -76zM284 478c-59 0 -125 -123 -143 -241
c87 36 194 104 194 179c0 45 -24 62 -51 62zM280 675c0 36 28 65 64 65s65 -29 65 -65s-29 -64 -65 -64s-64 28 -64 64z" />
    <glyph glyph-name="gbreve" unicode="&#x11f;" horiz-adv-x="550" 
d="M295 503c24 0 50 -5 75 -14h205l-4 -43l-147 13c38 -29 64 -70 64 -122c0 -103 -87 -178 -221 -178c-17 0 -33 2 -48 5c-60 -7 -100 -35 -100 -68c0 -22 19 -44 72 -44h93c111 0 199 -25 199 -117c0 -150 -153 -231 -295 -231c-139 0 -208 48 -208 122
c0 76 68 122 161 142c-68 8 -92 48 -92 90c0 56 48 99 146 113c-70 25 -120 86 -120 159c0 95 90 173 220 173zM50 -174c0 -69 63 -97 140 -97c97 0 212 36 212 152c0 53 -40 85 -139 85h-95h-8c-69 -25 -110 -72 -110 -140zM273 178c86 0 125 89 125 171
c0 58 -36 135 -106 135c-88 0 -126 -97 -126 -161s37 -145 107 -145zM470 749h43c-38 -140 -144 -160 -191 -160c-51 0 -145 20 -139 160h45c1 -82 39 -120 103 -120c62 0 112 38 139 120z" />
    <glyph glyph-name="gcircumflex" unicode="&#x11d;" horiz-adv-x="550" 
d="M295 503c24 0 50 -5 75 -14h205l-4 -43l-147 13c38 -29 64 -70 64 -122c0 -103 -87 -178 -221 -178c-17 0 -33 2 -48 5c-60 -7 -100 -35 -100 -68c0 -22 19 -44 72 -44h93c111 0 199 -25 199 -117c0 -150 -153 -231 -295 -231c-139 0 -208 48 -208 122
c0 76 68 122 161 142c-68 8 -92 48 -92 90c0 56 48 99 146 113c-70 25 -120 86 -120 159c0 95 90 173 220 173zM50 -174c0 -69 63 -97 140 -97c97 0 212 36 212 152c0 53 -40 85 -139 85h-95h-8c-69 -25 -110 -72 -110 -140zM273 178c86 0 125 89 125 171
c0 58 -36 135 -106 135c-88 0 -126 -97 -126 -161s37 -145 107 -145zM353 800l115 -244h-10l-126 147l-178 -147h-12l202 244h9z" />
    <glyph glyph-name="gcommaaccent" unicode="&#x123;" horiz-adv-x="550" 
d="M256 614c0 81 84 142 150 169l3 -8c-32 -17 -77 -62 -83 -99c28 -1 48 -27 48 -54c0 -37 -27 -63 -66 -63c-33 0 -52 25 -52 55zM295 503c24 0 50 -5 75 -14h205l-4 -43l-147 13c38 -29 64 -70 64 -122c0 -103 -87 -178 -221 -178c-17 0 -33 2 -48 5
c-60 -7 -100 -35 -100 -68c0 -22 19 -44 72 -44h93c111 0 199 -25 199 -117c0 -150 -153 -231 -295 -231c-139 0 -208 48 -208 122c0 76 68 122 161 142c-68 8 -92 48 -92 90c0 56 48 99 146 113c-70 25 -120 86 -120 159c0 95 90 173 220 173zM50 -174
c0 -69 63 -97 140 -97c97 0 212 36 212 152c0 53 -40 85 -139 85h-95h-8c-69 -25 -110 -72 -110 -140zM273 178c86 0 125 89 125 171c0 58 -36 135 -106 135c-88 0 -126 -97 -126 -161s37 -145 107 -145z" />
    <glyph glyph-name="gdotaccent" unicode="&#x121;" horiz-adv-x="550" 
d="M295 503c24 0 50 -5 75 -14h205l-4 -43l-147 13c38 -29 64 -70 64 -122c0 -103 -87 -178 -221 -178c-17 0 -33 2 -48 5c-60 -7 -100 -35 -100 -68c0 -22 19 -44 72 -44h93c111 0 199 -25 199 -117c0 -150 -153 -231 -295 -231c-139 0 -208 48 -208 122
c0 76 68 122 161 142c-68 8 -92 48 -92 90c0 56 48 99 146 113c-70 25 -120 86 -120 159c0 95 90 173 220 173zM50 -174c0 -69 63 -97 140 -97c97 0 212 36 212 152c0 53 -40 85 -139 85h-95h-8c-69 -25 -110 -72 -110 -140zM273 178c86 0 125 89 125 171
c0 58 -36 135 -106 135c-88 0 -126 -97 -126 -161s37 -145 107 -145zM251 675c0 36 28 65 64 65s65 -29 65 -65s-29 -64 -65 -64s-64 28 -64 64z" />
    <glyph glyph-name="hbar" unicode="&#x127;" horiz-adv-x="541" 
d="M43 618l5 26h80l15 97c7 43 -3 55 -48 55h-25l4 21h172l-26 -173h204l-5 -26h-203l-44 -288c45 121 126 173 191 173c107 0 106 -92 82 -225l-30 -165c-9 -47 -6 -81 13 -81c15 0 39 21 79 71l14 -10c-42 -61 -79 -107 -133 -107c-61 0 -80 41 -66 119l31 175
c20 111 17 172 -33 172c-45 0 -106 -57 -150 -145l-49 -307h-92l95 618h-81z" />
    <glyph glyph-name="hcircumflex" unicode="&#x125;" horiz-adv-x="541" 
d="M411 800l85 -244h-10l-96 147l-138 -147h-12l162 244h9zM29 0l114 741c7 43 -3 55 -48 55h-25l4 21h172l-74 -487c45 121 126 173 191 173c107 0 106 -92 82 -225l-30 -165c-9 -47 -6 -81 13 -81c15 0 39 21 79 71l14 -10c-42 -61 -79 -107 -133 -107
c-61 0 -80 41 -66 119l31 175c20 111 17 172 -33 172c-45 0 -106 -57 -150 -145l-49 -307h-92z" />
    <glyph glyph-name="dotlessi" unicode="&#x131;" horiz-adv-x="309" 
d="M176 503c66 0 59 -47 42 -144l-44 -246c-4 -20 -10 -81 12 -81c18 0 47 31 79 71l14 -10c-42 -61 -80 -107 -133 -107c-61 0 -80 41 -66 119l48 268c8 47 13 78 -7 78c-22 0 -61 -27 -85 -51l-11 12c67 73 129 91 151 91z" />
    <glyph glyph-name="ibreve" unicode="&#x12d;" horiz-adv-x="309" 
d="M304 749h45c-28 -140 -116 -160 -163 -160c-51 0 -133 20 -127 160h43c1 -82 29 -120 93 -120c62 0 94 43 109 120zM176 503c66 0 59 -47 42 -144l-44 -246c-4 -20 -10 -81 12 -81c18 0 47 31 79 71l14 -10c-42 -61 -80 -107 -133 -107c-61 0 -80 41 -66 119l48 268
c8 47 13 78 -7 78c-22 0 -61 -27 -85 -51l-11 12c67 73 129 91 151 91z" />
    <glyph glyph-name="imacron" unicode="&#x12b;" horiz-adv-x="309" 
d="M44 629l7 47h284l-7 -47h-284zM176 503c66 0 59 -47 42 -144l-44 -246c-4 -20 -10 -81 12 -81c18 0 47 31 79 71l14 -10c-42 -61 -80 -107 -133 -107c-61 0 -80 41 -66 119l48 268c8 47 13 78 -7 78c-22 0 -61 -27 -85 -51l-11 12c67 73 129 91 151 91z" />
    <glyph glyph-name="iogonek" unicode="&#x12f;" horiz-adv-x="309" 
d="M182 -206l2 -8c-28 -16 -65 -29 -99 -29c-45 0 -83 23 -83 71c0 70 64 114 142 158c-60 1 -78 42 -64 119l48 268c8 47 13 78 -7 78c-22 0 -61 -27 -85 -51l-11 12c67 73 129 91 151 91c66 0 59 -47 42 -144l-44 -246c-4 -20 -10 -81 12 -81c18 0 47 31 79 71l14 -10
c-37 -53 -70 -94 -113 -104c-49 -46 -89 -95 -89 -142c0 -41 32 -59 68 -59c12 0 26 2 37 6zM136 692c0 38 30 68 68 68c39 0 69 -30 69 -68c0 -39 -30 -69 -69 -69c-38 0 -68 30 -68 69z" />
    <glyph glyph-name="itilde" unicode="&#x129;" horiz-adv-x="309" 
d="M288 708l53 47l6 -4l-65 -117h-198l-53 -47l-6 4l65 117h198zM176 503c66 0 59 -47 42 -144l-44 -246c-4 -20 -10 -81 12 -81c18 0 47 31 79 71l14 -10c-42 -61 -80 -107 -133 -107c-61 0 -80 41 -66 119l48 268c8 47 13 78 -7 78c-22 0 -61 -27 -85 -51l-11 12
c67 73 129 91 151 91z" />
    <glyph glyph-name="uni1ECB" unicode="&#x1ecb;" horiz-adv-x="309" 
d="M176 503c66 0 59 -47 42 -144l-44 -246c-4 -20 -10 -81 12 -81c18 0 47 31 79 71l14 -10c-42 -61 -80 -107 -133 -107c-61 0 -80 41 -66 119l48 268c8 47 13 78 -7 78c-22 0 -61 -27 -85 -51l-11 12c67 73 129 91 151 91zM136 692c0 38 30 68 68 68c39 0 69 -30 69 -68
c0 -39 -30 -69 -69 -69c-38 0 -68 30 -68 69zM44 -160c0 38 30 68 68 68c39 0 69 -30 69 -68c0 -39 -30 -69 -69 -69c-38 0 -68 30 -68 69z" />
    <glyph glyph-name="dotlessj" unicode="&#x237;" horiz-adv-x="273" 
d="M224 359l-50 -306c-28 -168 -71 -264 -237 -356l-7 9c92 85 123 174 152 350l52 317c7 47 11 78 -9 78c-22 0 -61 -27 -85 -51l-11 12c67 73 129 91 151 91c56 0 61 -38 44 -144z" />
    <glyph glyph-name="jcircumflex" unicode="&#x135;" horiz-adv-x="273" 
d="M226 800l115 -244h-10l-126 147l-178 -147h-12l202 244h9zM224 359l-50 -306c-28 -168 -71 -264 -237 -356l-7 9c92 85 123 174 152 350l52 317c7 47 11 78 -9 78c-22 0 -61 -27 -85 -51l-11 12c67 73 129 91 151 91c56 0 61 -38 44 -144z" />
    <glyph glyph-name="kcommaaccent" unicode="&#x137;" horiz-adv-x="490" 
d="M255 817l-79 -535h13c117 0 159 67 159 136c0 36 -8 85 46 85c31 0 40 -21 40 -40c0 -51 -77 -170 -174 -186c86 -15 106 -78 122 -149c15 -65 19 -126 116 -118l1 -13c-24 -6 -53 -12 -81 -12c-62 0 -111 29 -133 127c-16 73 -21 147 -112 151l-38 -263h-92l108 741
c7 43 -3 55 -48 55h-25l4 21h173zM278 -103c0 -81 -84 -142 -150 -169l-3 8c32 17 77 62 83 99c-28 1 -48 27 -48 54c0 37 27 63 66 63c33 0 52 -25 52 -55z" />
    <glyph glyph-name="lacute" unicode="&#x13a;" horiz-adv-x="273" 
d="M240 817l-100 -704c-7 -47 -16 -79 5 -79c13 0 46 22 85 72l13 -10c-41 -61 -77 -110 -131 -110c-56 0 -76 43 -66 112l91 643c6 43 -4 55 -49 55h-25l3 21h174zM377 1086l-220 -234h-13l143 234h90z" />
    <glyph glyph-name="lcaron" unicode="&#x13e;" horiz-adv-x="299" 
d="M240 817l-100 -704c-7 -47 -16 -79 5 -79c13 0 46 22 85 72l13 -10c-41 -61 -77 -110 -131 -110c-56 0 -76 43 -66 112l91 643c6 43 -4 55 -49 55h-25l3 21h174zM399 728c0 -81 -84 -142 -150 -169l-3 8c32 17 77 62 83 99c-28 1 -48 27 -48 54c0 37 27 63 66 63
c33 0 52 -25 52 -55z" />
    <glyph glyph-name="lcommaaccent" unicode="&#x13c;" horiz-adv-x="273" 
d="M240 817l-100 -704c-7 -47 -16 -79 5 -79c13 0 46 22 85 72l13 -10c-41 -61 -77 -110 -131 -110c-56 0 -76 43 -66 112l91 643c6 43 -4 55 -49 55h-25l3 21h174zM136 -103c0 -81 -84 -142 -150 -169l-3 8c32 17 77 62 83 99c-28 1 -48 27 -48 54c0 37 27 63 66 63
c33 0 52 -25 52 -55z" />
    <glyph glyph-name="ldot" unicode="&#x140;" horiz-adv-x="273" 
d="M240 817l-100 -704c-7 -47 -16 -79 5 -79c13 0 46 22 85 72l13 -10c-41 -61 -77 -110 -131 -110c-56 0 -76 43 -66 112l91 643c6 43 -4 55 -49 55h-25l3 21h174zM205 385c0 36 28 65 64 65s65 -29 65 -65s-29 -64 -65 -64s-64 28 -64 64z" />
    <glyph glyph-name="lslash" unicode="&#x142;" horiz-adv-x="293" 
d="M250 817l-50 -351l107 58l13 -35l-126 -68l-44 -308c-7 -47 -16 -79 5 -79c13 0 46 22 85 72l13 -10c-41 -61 -77 -110 -131 -110c-56 0 -76 43 -66 112l38 269l-90 -48l-13 35l109 59l47 328c6 43 -4 55 -49 55h-25l3 21h174z" />
    <glyph glyph-name="eng" unicode="&#x14b;" horiz-adv-x="593" 
d="M357 56l38 224c19 111 16 172 -33 172s-107 -61 -150 -145l-49 -307h-92l60 377c8 47 10 74 -10 74c-22 0 -61 -27 -85 -51l-11 12c67 73 128 91 150 91c64 0 59 -55 39 -173c42 113 118 173 192 173c108 0 105 -95 82 -225l-39 -225c-29 -168 -71 -264 -237 -356l-7 9
c92 85 122 174 152 350z" />
    <glyph glyph-name="nacute" unicode="&#x144;" horiz-adv-x="593" 
d="M36 400l-11 12c67 73 128 91 150 91c64 0 59 -55 39 -173c42 113 118 173 192 173c108 0 105 -95 82 -225l-30 -165c-4 -20 -13 -81 12 -81c18 0 47 31 79 71l14 -10c-42 -61 -80 -107 -133 -107c-61 0 -80 41 -66 119l31 175c20 111 16 172 -33 172s-107 -61 -150 -145
l-49 -307h-92l60 377c8 47 10 74 -10 74c-22 0 -61 -27 -85 -51zM508 790l-220 -234h-13l143 234h90z" />
    <glyph glyph-name="ncaron" unicode="&#x148;" horiz-adv-x="593" 
d="M36 400l-11 12c67 73 128 91 150 91c64 0 59 -55 39 -173c42 113 118 173 192 173c108 0 105 -95 82 -225l-30 -165c-4 -20 -13 -81 12 -81c18 0 47 31 79 71l14 -10c-42 -61 -80 -107 -133 -107c-61 0 -80 41 -66 119l31 175c20 111 16 172 -33 172s-107 -61 -150 -145
l-49 -307h-92l60 377c8 47 10 74 -10 74c-22 0 -61 -27 -85 -51zM514 805l-193 -244h-9l-124 244h11l132 -151l172 151h11z" />
    <glyph glyph-name="ncommaaccent" unicode="&#x146;" horiz-adv-x="593" 
d="M36 400l-11 12c67 73 128 91 150 91c64 0 59 -55 39 -173c42 113 118 173 192 173c108 0 105 -95 82 -225l-30 -165c-4 -20 -13 -81 12 -81c18 0 47 31 79 71l14 -10c-42 -61 -80 -107 -133 -107c-61 0 -80 41 -66 119l31 175c20 111 16 172 -33 172s-107 -61 -150 -145
l-49 -307h-92l60 377c8 47 10 74 -10 74c-22 0 -61 -27 -85 -51zM318 -103c0 -81 -84 -142 -150 -169l-3 8c32 17 77 62 83 99c-28 1 -48 27 -48 54c0 37 27 63 66 63c33 0 52 -25 52 -55z" />
    <glyph glyph-name="oe" unicode="&#x153;" horiz-adv-x="769" 
d="M35 144c0 198 173 359 296 359c90 0 123 -48 134 -101c46 62 109 102 177 102c83 0 107 -46 107 -76c0 -118 -146 -151 -281 -205c-2 -15 -3 -29 -3 -43c0 -90 34 -146 83 -146c48 0 106 44 155 124l15 -9c-71 -133 -134 -163 -197 -163c-86 0 -123 51 -134 117
c-55 -72 -128 -117 -193 -117c-124 0 -159 88 -159 158zM138 178c0 -87 14 -167 71 -167c136 0 178 215 178 300c0 87 -15 165 -72 165c-136 0 -177 -213 -177 -298zM612 479c-59 0 -125 -123 -143 -241c87 36 194 104 194 179c0 45 -24 62 -51 62z" />
    <glyph glyph-name="obreve" unicode="&#x14f;" horiz-adv-x="525" 
d="M138 178c0 -87 14 -167 71 -167c136 0 178 215 178 300c0 87 -15 165 -72 165c-136 0 -177 -213 -177 -298zM35 144c0 198 173 359 296 359s159 -88 159 -158c0 -198 -173 -359 -296 -359c-124 0 -159 88 -159 158zM457 749h43c-38 -140 -144 -160 -191 -160
c-51 0 -145 20 -139 160h45c1 -82 39 -120 103 -120c62 0 112 38 139 120z" />
    <glyph glyph-name="ohungarumlaut" unicode="&#x151;" horiz-adv-x="525" 
d="M138 178c0 -87 14 -167 71 -167c136 0 178 215 178 300c0 87 -15 165 -72 165c-136 0 -177 -213 -177 -298zM35 144c0 198 173 359 296 359s159 -88 159 -158c0 -198 -173 -359 -296 -359c-124 0 -159 88 -159 158zM403 790l-200 -234h-13l123 234h90zM554 790l-200 -234
h-13l123 234h90z" />
    <glyph glyph-name="omacron" unicode="&#x14d;" horiz-adv-x="525" 
d="M138 178c0 -87 14 -167 71 -167c136 0 178 215 178 300c0 87 -15 165 -72 165c-136 0 -177 -213 -177 -298zM35 144c0 198 173 359 296 359s159 -88 159 -158c0 -198 -173 -359 -296 -359c-124 0 -159 88 -159 158zM182 629l7 47h334l-7 -47h-334z" />
    <glyph glyph-name="uni1ECD" unicode="&#x1ecd;" horiz-adv-x="525" 
d="M138 178c0 -87 14 -167 71 -167c136 0 178 215 178 300c0 87 -15 165 -72 165c-136 0 -177 -213 -177 -298zM35 144c0 198 173 359 296 359s159 -88 159 -158c0 -198 -173 -359 -296 -359c-124 0 -159 88 -159 158zM96 -160c0 38 30 68 68 68c39 0 69 -30 69 -68
c0 -39 -30 -69 -69 -69c-38 0 -68 30 -68 69z" />
    <glyph glyph-name="racute" unicode="&#x155;" horiz-adv-x="380" 
d="M176 503c66 0 54 -82 34 -201c67 184 154 201 176 201c31 0 44 -15 44 -33c0 -104 -152 21 -224 -205l-43 -265h-92l58 377c7 47 12 74 -8 74c-22 0 -61 -27 -85 -51l-11 12c67 73 129 91 151 91zM366 790l-220 -234h-13l143 234h90z" />
    <glyph glyph-name="rcaron" unicode="&#x159;" horiz-adv-x="380" 
d="M176 503c66 0 54 -82 34 -201c67 184 154 201 176 201c31 0 44 -15 44 -33c0 -104 -152 21 -224 -205l-43 -265h-92l58 377c7 47 12 74 -8 74c-22 0 -61 -27 -85 -51l-11 12c67 73 129 91 151 91zM384 805l-193 -244h-9l-124 244h11l132 -151l172 151h11z" />
    <glyph glyph-name="rcommaaccent" unicode="&#x157;" horiz-adv-x="380" 
d="M176 503c66 0 54 -82 34 -201c67 184 154 201 176 201c31 0 44 -15 44 -33c0 -104 -152 21 -224 -205l-43 -265h-92l58 377c7 47 12 74 -8 74c-22 0 -61 -27 -85 -51l-11 12c67 73 129 91 151 91zM161 -103c0 -81 -84 -142 -150 -169l-3 8c32 17 77 62 83 99
c-28 1 -48 27 -48 54c0 37 27 63 66 63c33 0 52 -25 52 -55z" />
    <glyph glyph-name="sacute" unicode="&#x15b;" horiz-adv-x="443" 
d="M234 313l35 -27c63 -49 116 -102 116 -161c0 -106 -101 -139 -176 -139c-80 0 -167 35 -167 89c0 34 25 51 50 51c80 0 44 -120 128 -120c43 0 84 22 84 73s-22 77 -80 126l-47 39c-43 36 -96 81 -96 141c0 81 78 118 165 118c78 0 156 -29 156 -70
c0 -29 -21 -45 -44 -45c-43 0 -67 93 -133 93c-47 0 -68 -23 -68 -57c0 -39 30 -75 77 -111zM419 790l-220 -234h-13l143 234h90z" />
    <glyph glyph-name="scaron" unicode="&#x161;" horiz-adv-x="443" 
d="M234 313l35 -27c63 -49 116 -102 116 -161c0 -106 -101 -139 -176 -139c-80 0 -167 35 -167 89c0 34 25 51 50 51c80 0 44 -120 128 -120c43 0 84 22 84 73s-22 77 -80 126l-47 39c-43 36 -96 81 -96 141c0 81 78 118 165 118c78 0 156 -29 156 -70
c0 -29 -21 -45 -44 -45c-43 0 -67 93 -133 93c-47 0 -68 -23 -68 -57c0 -39 30 -75 77 -111zM454 805l-193 -244h-9l-124 244h11l132 -151l172 151h11z" />
    <glyph glyph-name="scedilla" unicode="&#x15f;" horiz-adv-x="443" 
d="M234 313l35 -27c63 -49 116 -102 116 -161c0 -98 -85 -133 -157 -138l-57 -65c18 12 37 20 60 20c41 0 70 -17 70 -56c0 -85 -122 -133 -197 -131l-2 6c92 11 148 73 148 118c0 24 -13 36 -44 36c-16 0 -31 -6 -43 -14l-21 19l56 66c-77 3 -156 37 -156 89
c0 34 25 51 50 51c80 0 44 -120 128 -120c43 0 84 22 84 73s-22 77 -80 126l-47 39c-43 36 -96 81 -96 141c0 81 78 118 165 118c78 0 156 -29 156 -70c0 -29 -21 -45 -44 -45c-43 0 -67 93 -133 93c-47 0 -68 -23 -68 -57c0 -39 30 -75 77 -111z" />
    <glyph glyph-name="scircumflex" unicode="&#x15d;" horiz-adv-x="443" 
d="M234 313l35 -27c63 -49 116 -102 116 -161c0 -106 -101 -139 -176 -139c-80 0 -167 35 -167 89c0 34 25 51 50 51c80 0 44 -120 128 -120c43 0 84 22 84 73s-22 77 -80 126l-47 39c-43 36 -96 81 -96 141c0 81 78 118 165 118c78 0 156 -29 156 -70
c0 -29 -21 -45 -44 -45c-43 0 -67 93 -133 93c-47 0 -68 -23 -68 -57c0 -39 30 -75 77 -111zM309 800l115 -244h-10l-126 147l-178 -147h-12l202 244h9z" />
    <glyph glyph-name="scommaaccent" unicode="&#x219;" horiz-adv-x="443" 
d="M234 313l35 -27c63 -49 116 -102 116 -161c0 -106 -101 -139 -176 -139c-80 0 -167 35 -167 89c0 34 25 51 50 51c80 0 44 -120 128 -120c43 0 84 22 84 73s-22 77 -80 126l-47 39c-43 36 -96 81 -96 141c0 81 78 118 165 118c78 0 156 -29 156 -70
c0 -29 -21 -45 -44 -45c-43 0 -67 93 -133 93c-47 0 -68 -23 -68 -57c0 -39 30 -75 77 -111zM251 -103c0 -81 -84 -142 -150 -169l-3 8c32 17 77 62 83 99c-28 1 -48 27 -48 54c0 37 27 63 66 63c33 0 52 -25 52 -55z" />
    <glyph glyph-name="tbar" unicode="&#x167;" horiz-adv-x="324" 
d="M17 319l5 26h76l18 110l-76 6l3 20h83l92 127h14l-20 -127h142l-4 -26h-142l-18 -110h144l-5 -26h-144l-33 -206c-9 -58 -5 -78 13 -78c19 0 56 17 102 65l11 -9c-48 -71 -102 -105 -156 -105c-56 0 -77 40 -64 118l35 215h-76z" />
    <glyph glyph-name="tcaron" unicode="&#x165;" horiz-adv-x="324" 
d="M58 104l58 351l-76 6l3 20h83l92 127h14l-20 -127h142l-4 -26h-142l-56 -342c-9 -58 -5 -78 13 -78c19 0 56 17 102 65l11 -9c-48 -71 -102 -105 -156 -105c-56 0 -77 40 -64 118zM399 728c0 -81 -84 -142 -150 -169l-3 8c32 17 77 62 83 99c-28 1 -48 27 -48 54
c0 37 27 63 66 63c33 0 52 -25 52 -55z" />
    <glyph glyph-name="uni0163" unicode="&#x163;" horiz-adv-x="324" 
d="M58 104l58 351l-76 6l3 20h83l92 127h14l-20 -127h142l-4 -26h-142l-56 -342c-9 -58 -5 -78 13 -78c19 0 56 17 102 65l11 -9c-48 -71 -102 -105 -156 -105c-56 0 -77 40 -64 118zM164 -103c0 -81 -84 -142 -150 -169l-3 8c32 17 77 62 83 99c-28 1 -48 27 -48 54
c0 37 27 63 66 63c33 0 52 -25 52 -55z" />
    <glyph glyph-name="tcommaaccent" unicode="&#x21b;" horiz-adv-x="324" 
d="M58 104l58 351l-76 6l3 20h83l92 127h14l-20 -127h142l-4 -26h-142l-56 -342c-9 -58 -5 -78 13 -78c19 0 56 17 102 65l11 -9c-48 -71 -102 -105 -156 -105c-56 0 -77 40 -64 118zM164 -103c0 -81 -84 -142 -150 -169l-3 8c32 17 77 62 83 99c-28 1 -48 27 -48 54
c0 37 27 63 66 63c33 0 52 -25 52 -55z" />
    <glyph glyph-name="ubreve" unicode="&#x16d;" horiz-adv-x="587" 
d="M367 156c-47 -118 -120 -170 -191 -170c-108 0 -103 95 -81 225l28 162c8 47 10 78 -10 78c-22 0 -61 -27 -85 -51l-11 12c67 73 125 91 147 91c66 0 66 -47 49 -144l-26 -150c-19 -111 -16 -162 39 -162c46 0 104 53 144 135l47 299h92l-58 -369c-10 -60 -2 -80 13 -80
c18 0 47 31 79 71l14 -10c-42 -61 -80 -107 -133 -107c-61 0 -83 44 -57 170zM468 749h43c-38 -140 -144 -160 -191 -160c-51 0 -145 20 -139 160h45c1 -82 39 -120 103 -120c62 0 112 38 139 120z" />
    <glyph glyph-name="uhungarumlaut" unicode="&#x171;" horiz-adv-x="587" 
d="M367 156c-47 -118 -120 -170 -191 -170c-108 0 -103 95 -81 225l28 162c8 47 10 78 -10 78c-22 0 -61 -27 -85 -51l-11 12c67 73 125 91 147 91c66 0 66 -47 49 -144l-26 -150c-19 -111 -16 -162 39 -162c46 0 104 53 144 135l47 299h92l-58 -369c-10 -60 -2 -80 13 -80
c18 0 47 31 79 71l14 -10c-42 -61 -80 -107 -133 -107c-61 0 -83 44 -57 170zM434 790l-200 -234h-13l123 234h90zM585 790l-200 -234h-13l123 234h90z" />
    <glyph glyph-name="umacron" unicode="&#x16b;" horiz-adv-x="587" 
d="M367 156c-47 -118 -120 -170 -191 -170c-108 0 -103 95 -81 225l28 162c8 47 10 78 -10 78c-22 0 -61 -27 -85 -51l-11 12c67 73 125 91 147 91c66 0 66 -47 49 -144l-26 -150c-19 -111 -16 -162 39 -162c46 0 104 53 144 135l47 299h92l-58 -369c-10 -60 -2 -80 13 -80
c18 0 47 31 79 71l14 -10c-42 -61 -80 -107 -133 -107c-61 0 -83 44 -57 170zM171 629l7 47h334l-7 -47h-334z" />
    <glyph glyph-name="uogonek" unicode="&#x173;" horiz-adv-x="587" 
d="M452 -206l2 -8c-28 -16 -65 -29 -99 -29c-45 0 -83 23 -83 71c0 70 65 115 143 159c-54 4 -73 49 -48 169c-47 -118 -120 -170 -191 -170c-108 0 -103 95 -81 225l28 162c8 47 10 78 -10 78c-22 0 -61 -27 -85 -51l-11 12c67 73 125 91 147 91c66 0 66 -47 49 -144
l-26 -150c-19 -111 -16 -162 39 -162c46 0 104 53 144 135l47 299h92l-58 -369c-10 -60 -2 -80 13 -80c18 0 47 31 79 71l14 -10c-39 -57 -75 -100 -123 -106c-48 -45 -87 -93 -87 -140c0 -41 32 -59 68 -59c12 0 26 2 37 6z" />
    <glyph glyph-name="uring" unicode="&#x16f;" horiz-adv-x="587" 
d="M367 156c-47 -118 -120 -170 -191 -170c-108 0 -103 95 -81 225l28 162c8 47 10 78 -10 78c-22 0 -61 -27 -85 -51l-11 12c67 73 125 91 147 91c66 0 66 -47 49 -144l-26 -150c-19 -111 -16 -162 39 -162c46 0 104 53 144 135l47 299h92l-58 -369c-10 -60 -2 -80 13 -80
c18 0 47 31 79 71l14 -10c-42 -61 -80 -107 -133 -107c-61 0 -83 44 -57 170zM356 781c51 0 90 -39 90 -88c0 -61 -57 -108 -117 -108c-51 0 -89 38 -89 86c0 62 54 110 116 110zM351 748c-41 0 -72 -33 -72 -73c0 -31 22 -57 55 -57c42 0 74 31 74 71c0 33 -26 59 -57 59z
" />
    <glyph glyph-name="utilde" unicode="&#x169;" horiz-adv-x="587" 
d="M367 156c-47 -118 -120 -170 -191 -170c-108 0 -103 95 -81 225l28 162c8 47 10 78 -10 78c-22 0 -61 -27 -85 -51l-11 12c67 73 125 91 147 91c66 0 66 -47 49 -144l-26 -150c-19 -111 -16 -162 39 -162c46 0 104 53 144 135l47 299h92l-58 -369c-10 -60 -2 -80 13 -80
c18 0 47 31 79 71l14 -10c-42 -61 -80 -107 -133 -107c-61 0 -83 44 -57 170zM485 708l53 47l6 -4l-65 -117h-258l-53 -47l-6 4l65 117h258z" />
    <glyph glyph-name="uni1EE5" unicode="&#x1ee5;" horiz-adv-x="587" 
d="M367 156c-47 -118 -120 -170 -191 -170c-108 0 -103 95 -81 225l28 162c8 47 10 78 -10 78c-22 0 -61 -27 -85 -51l-11 12c67 73 125 91 147 91c66 0 66 -47 49 -144l-26 -150c-19 -111 -16 -162 39 -162c46 0 104 53 144 135l47 299h92l-58 -369c-10 -60 -2 -80 13 -80
c18 0 47 31 79 71l14 -10c-42 -61 -80 -107 -133 -107c-61 0 -83 44 -57 170zM156 -160c0 38 30 68 68 68c39 0 69 -30 69 -68c0 -39 -30 -69 -69 -69c-38 0 -68 30 -68 69z" />
    <glyph glyph-name="wacute" unicode="&#x1e83;" horiz-adv-x="737" 
d="M419 -19l-43 359l-219 -359h-14l-57 441c-4 30 -22 39 -66 40l6 19h238l-6 -19c-54 0 -77 -12 -73 -45l35 -283l151 247l-5 41c-4 29 -22 39 -56 40l6 19h232l-6 -19c-54 0 -86 -12 -83 -45l28 -290l151 249c39 65 21 85 -33 86l6 19h206l-6 -19c-53 -7 -92 -6 -132 -72
l-246 -409h-14zM604 790l-220 -234h-13l143 234h90z" />
    <glyph glyph-name="wcircumflex" unicode="&#x175;" horiz-adv-x="737" 
d="M419 -19l-43 359l-219 -359h-14l-57 441c-4 30 -22 39 -66 40l6 19h238l-6 -19c-54 0 -77 -12 -73 -45l35 -283l151 247l-5 41c-4 29 -22 39 -56 40l6 19h232l-6 -19c-54 0 -86 -12 -83 -45l28 -290l151 249c39 65 21 85 -33 86l6 19h206l-6 -19c-53 -7 -92 -6 -132 -72
l-246 -409h-14zM416 800l115 -244h-10l-126 147l-178 -147h-12l202 244h9z" />
    <glyph glyph-name="wdieresis" unicode="&#x1e85;" horiz-adv-x="737" 
d="M419 -19l-43 359l-219 -359h-14l-57 441c-4 30 -22 39 -66 40l6 19h238l-6 -19c-54 0 -77 -12 -73 -45l35 -283l151 247l-5 41c-4 29 -22 39 -56 40l6 19h232l-6 -19c-54 0 -86 -12 -83 -45l28 -290l151 249c39 65 21 85 -33 86l6 19h206l-6 -19c-53 -7 -92 -6 -132 -72
l-246 -409h-14zM262 685c0 36 29 65 65 65s65 -29 65 -65s-29 -65 -65 -65s-65 29 -65 65zM474 685c0 36 29 65 65 65s65 -29 65 -65s-29 -65 -65 -65s-65 29 -65 65z" />
    <glyph glyph-name="wgrave" unicode="&#x1e81;" horiz-adv-x="737" 
d="M419 -19l-43 359l-219 -359h-14l-57 441c-4 30 -22 39 -66 40l6 19h238l-6 -19c-54 0 -77 -12 -73 -45l35 -283l151 247l-5 41c-4 29 -22 39 -56 40l6 19h232l-6 -19c-54 0 -86 -12 -83 -45l28 -290l151 249c39 65 21 85 -33 86l6 19h206l-6 -19c-53 -7 -92 -6 -132 -72
l-246 -409h-14zM453 556l-146 234h90l69 -234h-13z" />
    <glyph glyph-name="ycircumflex" unicode="&#x177;" horiz-adv-x="488" 
d="M-206 -191c60 0 37 -80 81 -80c41 0 171 92 290 206c33 151 -9 516 -85 516c-19 0 -41 -26 -59 -70l-16 8c40 114 101 114 129 114c116 0 147 -273 121 -474c72 85 129 178 152 263c27 102 -43 115 -43 169c0 20 16 42 45 42c39 0 54 -46 54 -102
c0 -136 -91 -291 -217 -425c-166 -176 -307 -279 -395 -279c-66 0 -106 25 -106 64c0 21 14 48 49 48zM342 800l115 -244h-10l-126 147l-178 -147h-12l202 244h9z" />
    <glyph glyph-name="ygrave" unicode="&#x1ef3;" horiz-adv-x="488" 
d="M-206 -191c60 0 37 -80 81 -80c41 0 171 92 290 206c33 151 -9 516 -85 516c-19 0 -41 -26 -59 -70l-16 8c40 114 101 114 129 114c116 0 147 -273 121 -474c72 85 129 178 152 263c27 102 -43 115 -43 169c0 20 16 42 45 42c39 0 54 -46 54 -102
c0 -136 -91 -291 -217 -425c-166 -176 -307 -279 -395 -279c-66 0 -106 25 -106 64c0 21 14 48 49 48zM279 556l-146 234h90l69 -234h-13z" />
    <glyph glyph-name="uni0233" unicode="&#x233;" horiz-adv-x="488" 
d="M-206 -191c60 0 37 -80 81 -80c41 0 171 92 290 206c33 151 -9 516 -85 516c-19 0 -41 -26 -59 -70l-16 8c40 114 101 114 129 114c116 0 147 -273 121 -474c72 85 129 178 152 263c27 102 -43 115 -43 169c0 20 16 42 45 42c39 0 54 -46 54 -102
c0 -136 -91 -291 -217 -425c-166 -176 -307 -279 -395 -279c-66 0 -106 25 -106 64c0 21 14 48 49 48zM116 629l7 47h334l-7 -47h-334z" />
    <glyph glyph-name="zacute" unicode="&#x17a;" horiz-adv-x="439" 
d="M481 790l-220 -234h-13l143 234h90zM472 472l-388 -390h250l54 78h12l-38 -160h-388l-4 9l383 389h-226l-53 -77h-12l38 160h368z" />
    <glyph glyph-name="zcaron" unicode="&#x17e;" horiz-adv-x="439" 
d="M478 805l-193 -244h-9l-124 244h11l132 -151l172 151h11zM472 472l-388 -390h250l54 78h12l-38 -160h-388l-4 9l383 389h-226l-53 -77h-12l38 160h368z" />
    <glyph glyph-name="zdotaccent" unicode="&#x17c;" horiz-adv-x="439" 
d="M472 472l-388 -390h250l54 78h12l-38 -160h-388l-4 9l383 389h-226l-53 -77h-12l38 160h368zM238 675c0 36 28 65 64 65s65 -29 65 -65s-29 -64 -65 -64s-64 28 -64 64z" />
    <glyph glyph-name="uni0259" unicode="&#x259;" 
d="M19 63c0 118 145 151 281 204c1 15 3 30 3 44c0 66 -16 145 -82 145c-59 0 -122 -70 -156 -125l-15 9c71 133 138 164 207 164c90 0 143 -52 143 -158c0 -191 -134 -359 -274 -359c-83 0 -107 46 -107 76zM156 12c59 0 125 123 142 241c-87 -37 -193 -105 -193 -179
c0 -45 24 -62 51 -62z" />
    <glyph glyph-name="pi" unicode="&#x3c0;" horiz-adv-x="718" 
d="M101 439l7 42h578l-7 -42h-92l-70 -439h-46l70 439h-302l-70 -439h-51l70 439h-87z" />
    <glyph glyph-name="ellipsis" unicode="&#x2026;" horiz-adv-x="635" 
d="M455 51c0 36 29 65 65 65s65 -29 65 -65s-29 -65 -65 -65s-65 29 -65 65zM252 51c0 36 29 65 65 65s65 -29 65 -65s-29 -65 -65 -65s-65 29 -65 65zM49 51c0 36 29 65 65 65s65 -29 65 -65s-29 -65 -65 -65s-65 29 -65 65z" />
    <glyph glyph-name="endash" unicode="&#x2013;" horiz-adv-x="514" 
d="M46 234l7 42h414l-7 -42h-414z" />
    <glyph glyph-name="emdash" unicode="&#x2014;" horiz-adv-x="761" 
d="M46 234l7 42h661l-7 -42h-661z" />
    <glyph glyph-name="guilsinglleft" unicode="&#x2039;" horiz-adv-x="275" 
d="M195 34l-180 207l1 8l245 206h12l-173 -211l106 -210h-11z" />
    <glyph glyph-name="guilsinglright" unicode="&#x203a;" horiz-adv-x="275" 
d="M239 241l-245 -207h-11l173 212l-107 209h12l179 -206z" />
    <glyph glyph-name="quoteleft" unicode="&#x2018;" horiz-adv-x="202" 
d="M124 721c30 -9 54 -32 54 -63c0 -37 -25 -67 -67 -67c-44 0 -64 36 -64 75c0 85 104 146 163 165l3 -7c-32 -19 -81 -62 -89 -103z" />
    <glyph glyph-name="quoteright" unicode="&#x2019;" horiz-adv-x="202" 
d="M116 701c-30 9 -54 32 -54 63c0 37 25 67 67 67c44 0 64 -36 64 -75c0 -85 -104 -146 -163 -165l-3 7c32 19 81 62 89 103z" />
    <glyph glyph-name="quotedblleft" unicode="&#x201c;" horiz-adv-x="382" 
d="M288 721c30 -9 54 -32 54 -63c0 -37 -25 -67 -67 -67c-44 0 -64 36 -64 75c0 85 104 146 163 165l3 -7c-32 -19 -81 -62 -89 -103zM124 721c30 -9 54 -32 54 -63c0 -37 -25 -67 -67 -67c-44 0 -64 36 -64 75c0 85 104 146 163 165l3 -7c-32 -19 -81 -62 -89 -103z" />
    <glyph glyph-name="quotedblright" unicode="&#x201d;" horiz-adv-x="382" 
d="M280 701c-30 9 -54 32 -54 63c0 37 25 67 67 67c44 0 64 -36 64 -75c0 -85 -104 -146 -163 -165l-3 7c32 19 81 62 89 103zM116 701c-30 9 -54 32 -54 63c0 37 25 67 67 67c44 0 64 -36 64 -75c0 -85 -104 -146 -163 -165l-3 7c32 19 81 62 89 103z" />
    <glyph glyph-name="quotesinglbase" unicode="&#x201a;" horiz-adv-x="242" 
d="M123 -14c-30 9 -54 32 -54 63c0 37 25 67 67 67c44 0 64 -36 64 -75c0 -85 -104 -146 -163 -165l-3 7c32 19 81 62 89 103z" />
    <glyph glyph-name="quotedblbase" unicode="&#x201e;" horiz-adv-x="382" 
d="M287 -14c-30 9 -54 32 -54 63c0 37 25 67 67 67c44 0 64 -36 64 -75c0 -85 -104 -146 -163 -165l-3 7c32 19 81 62 89 103zM123 -14c-30 9 -54 32 -54 63c0 37 25 67 67 67c44 0 64 -36 64 -75c0 -85 -104 -146 -163 -165l-3 7c32 19 81 62 89 103z" />
    <glyph glyph-name="bullet" unicode="&#x2022;" horiz-adv-x="426" 
d="M50 259c0 88 72 160 160 160c94 0 166 -72 166 -160c0 -94 -72 -166 -166 -166c-88 0 -160 72 -160 166z" />
    <glyph glyph-name="dagger" unicode="&#x2020;" horiz-adv-x="663" 
d="M385 818h46l-51 -319h277l-6 -42h-277l-100 -629h-46l100 629h-274l6 42h274z" />
    <glyph glyph-name="daggerdbl" unicode="&#x2021;" horiz-adv-x="663" 
d="M385 818h46l-48 -299h278l-7 -42h-277l-52 -326h277l-6 -42h-278l-44 -281h-46l44 281h-272l5 42h274l52 326h-274l7 42h273z" />
    <glyph glyph-name="perthousand" unicode="&#x2030;" horiz-adv-x="1286" 
d="M1016 28c89 0 141 81 141 161c0 66 -39 122 -114 122c-78 0 -142 -70 -142 -160c0 -62 34 -123 115 -123zM1014 -13c-108 0 -160 74 -160 159c0 121 80 205 193 205c110 0 159 -73 159 -155c0 -110 -80 -209 -192 -209zM823 817l-671 -817h-51l669 817h53zM246 456
c89 0 141 81 141 161c0 66 -39 122 -114 122c-78 0 -142 -70 -142 -160c0 -62 34 -123 115 -123zM244 415c-108 0 -160 74 -160 159c0 121 80 205 193 205c110 0 159 -73 159 -155c0 -110 -80 -209 -192 -209zM612 27c89 0 141 81 141 161c0 66 -39 122 -114 122
c-78 0 -142 -70 -142 -160c0 -62 34 -123 115 -123zM610 -14c-108 0 -160 74 -160 159c0 121 80 205 193 205c110 0 159 -73 159 -155c0 -110 -80 -209 -192 -209z" />
    <glyph glyph-name="trademark" unicode="&#x2122;" horiz-adv-x="1070" 
d="M199 415v380c-24 0 -42 0 -67 -1c-58 -3 -85 -31 -90 -84h-9v107h399v-107h-10c-5 53 -24 81 -83 84c-25 1 -48 1 -71 1v-380c0 -15 10 -22 28 -24l29 -2v-16h-179v16l23 2c24 2 30 10 30 24zM964 772l11 -245c3 -71 6 -100 8 -116c1 -15 10 -19 28 -20l29 -2v-17h-179
v17l24 2c24 2 29 5 29 20c-1 18 -2 59 -5 113l-9 235l-146 -385h-24l-146 386l-17 -338c-1 -15 4 -30 22 -31l30 -2v-16h-145v16l24 2c20 2 36 10 37 31l20 350c1 16 -14 26 -31 27l-30 2v16h143l126 -341l127 341h132v-16l-30 -2c-17 -2 -28 -11 -28 -27z" />
    <glyph glyph-name="lozenge" unicode="&#x25ca;" horiz-adv-x="563" 
d="M209 -50l-180 425l316 434l187 -434zM479 378l-145 342l-253 -347l141 -337z" />
    <glyph glyph-name="minus" unicode="&#x2212;" horiz-adv-x="554" 
d="M46 234l7 42h454l-7 -42h-454z" />
    <glyph glyph-name="lessequal" unicode="&#x2264;" horiz-adv-x="605" 
d="M54 282l7 43l533 178l-8 -51l-469 -150l419 -166l-8 -49zM21 0l6 42h494l-6 -42h-494z" />
    <glyph glyph-name="greaterequal" unicode="&#x2265;" horiz-adv-x="606" 
d="M567 325l-7 -43l-536 -195l8 53l473 165l-423 151l8 47zM511 42l-6 -42h-494l6 42h494z" />
    <glyph glyph-name="notequal" unicode="&#x2260;" horiz-adv-x="554" 
d="M60 323l7 42h245l70 125h49l-70 -125h160l-7 -42h-176l-77 -138h232l-7 -42h-249l-79 -143h-49l79 143h-156l7 42h173l77 138h-229z" />
    <glyph glyph-name="approxequal" unicode="&#x2248;" horiz-adv-x="659" 
d="M180 230c100 0 189 -99 276 -99c39 0 75 19 111 80l37 -16c-38 -77 -96 -108 -154 -108c-104 0 -191 98 -276 98c-39 0 -77 -22 -112 -84l-37 18c38 77 97 111 155 111zM210 410c100 0 189 -99 276 -99c39 0 75 19 111 80l37 -16c-38 -77 -96 -108 -154 -108
c-104 0 -191 98 -276 98c-39 0 -77 -22 -112 -84l-37 18c38 77 97 111 155 111z" />
    <glyph glyph-name="partialdiff" unicode="&#x2202;" horiz-adv-x="565" 
d="M270 503c103 0 190 -66 201 -195c1 15 2 30 2 45c0 181 -99 321 -277 375l21 41c203 -73 301 -211 301 -400c0 -180 -78 -383 -274 -383c-149 0 -229 117 -229 237c0 171 129 280 255 280zM270 460c-97 0 -201 -85 -201 -233c0 -113 80 -196 175 -196
c141 0 205 117 205 230c0 97 -57 199 -179 199z" />
    <glyph glyph-name="product" unicode="&#x220f;" horiz-adv-x="848" 
d="M138 775l6 42h708l-6 -42h-92l-137 -863h92l-7 -42h-225l7 42h87l137 863h-432l-137 -863h87l-7 -42h-224l6 42h92l137 863h-92z" />
    <glyph glyph-name="radical" unicode="&#x221a;" horiz-adv-x="691" 
d="M10 349l6 43h154l72 -326l378 813h244l-6 -43h-207l-427 -892l-90 405h-124z" />
    <glyph glyph-name="summation" unicode="&#x2211;" horiz-adv-x="704" 
d="M294 407l-203 410h592l-36 -230h-46l29 188h-462l184 -372l-311 -361h483l30 188h46l-36 -230h-618z" />
    <glyph glyph-name="integral" unicode="&#x222b;" horiz-adv-x="267" 
d="M42 -172l137 869c11 67 34 120 145 120h10l-6 -42c-67 0 -93 -16 -103 -78l-137 -869c-11 -67 -35 -120 -145 -120h-10l6 42c66 0 93 16 103 78z" />
    <glyph glyph-name="infinity" unicode="&#x221e;" horiz-adv-x="787" 
d="M223 376c68 0 124 -32 177 -107c67 71 126 107 198 107c86 0 141 -60 141 -137c0 -91 -72 -152 -174 -152c-70 0 -133 43 -176 113c-69 -71 -134 -112 -203 -112c-86 0 -138 60 -138 136c0 91 69 152 175 152zM196 130c56 0 107 35 168 102c-36 57 -82 102 -142 102
c-75 0 -124 -37 -124 -106c0 -47 36 -98 98 -98zM571 130c65 0 118 41 118 105c0 48 -37 99 -104 99c-52 0 -98 -33 -159 -99c37 -63 85 -105 145 -105z" />
    <glyph glyph-name="Delta" unicode="&#x2206;" horiz-adv-x="604" 
d="M347 588l210 -588h-603zM333 491l-302 -449h463z" />
    <glyph glyph-name="Omega" unicode="&#x2126;" horiz-adv-x="932" 
d="M485 0l6 41c152 34 343 166 343 400c0 231 -183 350 -353 350c-181 0 -388 -111 -388 -380c0 -192 141 -334 256 -369l-6 -42h-358l6 42h266c-114 54 -212 211 -212 367c0 265 195 423 432 423c255 0 405 -187 405 -381c0 -204 -130 -345 -287 -409h267l-6 -42h-371z" />
    <glyph glyph-name="Euro" unicode="&#x20ac;" horiz-adv-x="823" 
d="M-33 462l5 34h86c40 211 205 337 405 337c116 0 229 -36 308 -91l-16 -152h-11c-40 154 -159 214 -268 214c-144 0 -261 -114 -298 -308h237l-5 -34h-238c-5 -33 -7 -69 -7 -106v-3h227l-5 -34h-221c11 -195 109 -300 270 -300c113 0 201 21 282 188h11l-23 -145
c-86 -61 -159 -76 -261 -76c-239 0 -363 154 -390 333h-111l5 34h101c-1 14 -1 28 -1 42c0 23 1 45 4 67h-86z" />
    <glyph glyph-name="fi" unicode="&#xfb01;" horiz-adv-x="563" 
d="M51 455l7 26h78l10 71c30 215 159 272 247 272c60 0 139 -22 139 -72c0 -25 -16 -48 -50 -48c-61 0 -54 101 -105 101c-38 0 -110 -51 -135 -230l-13 -94h264l-66 -368c-4 -20 -10 -81 12 -81c18 0 47 31 79 71l14 -10c-42 -61 -80 -107 -133 -107c-61 0 -80 41 -66 119
l64 350h-172l-68 -491c-30 -214 -152 -269 -239 -269c-60 0 -133 21 -135 64c0 28 20 46 42 46c61 0 58 -90 109 -90c38 0 102 47 127 229l71 511h-81z" />
    <glyph glyph-name="fl" unicode="&#xfb02;" horiz-adv-x="582" 
d="M549 817l-100 -704c-7 -47 -16 -79 5 -79c13 0 46 22 85 72l13 -10c-41 -61 -77 -110 -131 -110c-56 0 -76 43 -66 112l90 635c-34 24 -33 72 -68 72c-38 0 -110 -51 -135 -230l-13 -94h140l-6 -26h-138l-68 -491c-30 -214 -152 -269 -239 -269c-60 0 -133 21 -135 64
c0 28 20 46 42 46c61 0 58 -90 109 -90c38 0 102 47 127 229l71 511h-81l7 26h78l10 71c30 215 159 272 247 272c30 0 57 -3 81 -7h75z" />
    <glyph glyph-name="c_t" horiz-adv-x="763" 
d="M40 144c0 162 109 359 274 359c21 0 48 -5 70 -15c-48 46 -75 102 -75 157c0 90 75 170 200 170c102 0 188 -44 163 -199l-22 -135h143l-4 -26h-143l-55 -342c-9 -58 -5 -78 13 -78c19 0 56 17 102 65l11 -9c-48 -71 -102 -105 -156 -105c-56 0 -77 40 -64 118l57 351
l-75 6l3 20h76l21 127c22 131 -32 169 -93 169c-85 0 -143 -64 -143 -149c0 -43 24 -92 49 -130c15 -22 44 -39 44 -69c0 -24 -19 -43 -41 -43c-65 0 -40 93 -109 93c-80 0 -146 -172 -146 -300c0 -90 31 -145 80 -145c48 0 106 43 155 123l15 -9
c-71 -133 -131 -162 -210 -162c-87 0 -140 52 -140 158z" />
    <glyph glyph-name="s_p" horiz-adv-x="967" 
d="M617 -293h-277l3 21h24c45 0 62 12 68 55l121 821c19 131 -39 173 -100 173c-85 0 -132 -63 -132 -148c0 -41 22 -98 46 -140c11 -21 32 -34 32 -57c0 -28 -21 -44 -44 -44c-43 0 -67 93 -133 93c-47 0 -68 -23 -68 -57c0 -39 30 -75 77 -111l35 -27
c63 -49 116 -102 116 -161c0 -106 -101 -139 -176 -139c-80 0 -167 35 -167 89c0 34 25 51 50 51c80 0 44 -120 128 -120c43 0 84 22 84 73s-22 77 -80 126l-47 39c-43 36 -96 81 -96 141c0 81 78 118 165 118c41 0 82 -8 112 -22c-41 53 -68 113 -68 164
c0 91 64 170 189 170c102 0 194 -47 171 -202l-38 -253c59 123 128 144 178 144c107 0 142 -88 142 -158c0 -162 -119 -360 -280 -360c-32 0 -63 10 -91 30l-33 -224c-8 -52 9 -64 67 -64h25zM749 462c-34 0 -85 -36 -141 -132l-36 -238c15 -52 47 -80 91 -80
c117 0 171 215 171 300c0 87 -28 150 -85 150z" />
    <glyph glyph-name="uniFB06" unicode="&#xfb06;" horiz-adv-x="763" 
d="M363 478c-37 53 -54 101 -54 152c0 92 75 184 200 184c102 0 188 -46 163 -201l-22 -132h143l-4 -26h-143l-55 -342c-9 -58 -5 -78 13 -78c19 0 56 17 102 65l11 -9c-48 -71 -102 -105 -156 -105c-56 0 -77 40 -64 118l57 351l-75 6l3 20h76l21 124
c22 131 -32 171 -93 171c-85 0 -143 -76 -143 -161c0 -41 11 -89 29 -127c10 -21 30 -33 30 -56c0 -28 -21 -44 -44 -44c-43 0 -67 93 -133 93c-47 0 -68 -23 -68 -57c0 -39 30 -75 77 -111l35 -27c63 -49 116 -102 116 -161c0 -106 -101 -139 -176 -139
c-80 0 -167 35 -167 89c0 34 25 51 50 51c80 0 44 -120 128 -120c43 0 84 22 84 73s-22 77 -80 126l-47 39c-43 36 -96 81 -96 141c0 81 78 118 165 118c41 0 86 -8 117 -25z" />
    <glyph glyph-name="s_t" horiz-adv-x="763" 
d="M363 478c-37 53 -54 101 -54 152c0 92 75 184 200 184c102 0 188 -46 163 -201l-22 -132h143l-4 -26h-143l-55 -342c-9 -58 -5 -78 13 -78c19 0 56 17 102 65l11 -9c-48 -71 -102 -105 -156 -105c-56 0 -77 40 -64 118l57 351l-75 6l3 20h76l21 124
c22 131 -32 171 -93 171c-85 0 -143 -76 -143 -161c0 -41 11 -89 29 -127c10 -21 30 -33 30 -56c0 -28 -21 -44 -44 -44c-43 0 -67 93 -133 93c-47 0 -68 -23 -68 -57c0 -39 30 -75 77 -111l35 -27c63 -49 116 -102 116 -161c0 -106 -101 -139 -176 -139
c-80 0 -167 35 -167 89c0 34 25 51 50 51c80 0 44 -120 128 -120c43 0 84 22 84 73s-22 77 -80 126l-47 39c-43 36 -96 81 -96 141c0 81 78 118 165 118c41 0 86 -8 117 -25z" />
    <glyph glyph-name="dot" horiz-adv-x="309" 
d="M136 692c0 38 30 68 68 68c39 0 69 -30 69 -68c0 -39 -30 -69 -69 -69c-38 0 -68 30 -68 69z" />
    <glyph glyph-name="breve" unicode="&#x2d8;" horiz-adv-x="390" 
d="M329 749h43c-38 -140 -144 -160 -191 -160c-51 0 -145 20 -139 160h45c1 -82 39 -120 103 -120c62 0 112 38 139 120z" />
    <glyph glyph-name="caron" unicode="&#x2c7;" horiz-adv-x="342" 
d="M347 805l-193 -244h-9l-124 244h11l132 -151l172 151h11z" />
    <glyph glyph-name="circumflex" unicode="&#x2c6;" horiz-adv-x="386" 
d="M221 800l115 -244h-10l-126 147l-178 -147h-12l202 244h9z" />
    <glyph glyph-name="dotaccent" unicode="&#x2d9;" horiz-adv-x="189" 
d="M30 675c0 36 28 65 64 65s65 -29 65 -65s-29 -64 -65 -64s-64 28 -64 64z" />
    <glyph glyph-name="dotaccent.low" horiz-adv-x="209" 
d="M36 -160c0 38 30 68 68 68c39 0 69 -30 69 -68c0 -39 -30 -69 -69 -69c-38 0 -68 30 -68 69z" />
    <glyph glyph-name="hungarumlaut" unicode="&#x2dd;" horiz-adv-x="397" 
d="M229 790l-200 -234h-13l123 234h90zM380 790l-200 -234h-13l123 234h90z" />
    <glyph glyph-name="commaaccent" horiz-adv-x="324" 
d="M164 -103c0 -81 -84 -142 -150 -169l-3 8c32 17 77 62 83 99c-28 1 -48 27 -48 54c0 37 27 63 66 63c33 0 52 -25 52 -55z" />
    <glyph glyph-name="ogonek" unicode="&#x2db;" horiz-adv-x="242" 
d="M210 -206l2 -8c-28 -16 -65 -29 -99 -29c-45 0 -83 23 -83 71c0 77 79 123 167 172h10c-55 -49 -102 -102 -102 -153c0 -41 32 -59 68 -59c12 0 26 2 37 6z" />
    <glyph glyph-name="ring" unicode="&#x2da;" horiz-adv-x="264" 
d="M145 781c51 0 90 -39 90 -88c0 -61 -57 -108 -117 -108c-51 0 -89 38 -89 86c0 62 54 110 116 110zM140 748c-41 0 -72 -33 -72 -73c0 -31 22 -57 55 -57c42 0 74 31 74 71c0 33 -26 59 -57 59z" />
    <glyph glyph-name="tilde" unicode="&#x2dc;" horiz-adv-x="417" 
d="M340 708l53 47l6 -4l-65 -117h-258l-53 -47l-6 4l65 117h258z" />
    <glyph glyph-name="one.pof" horiz-adv-x="296" 
d="M72 55l59 372c3 22 -13 34 -35 34h-30l4 21h231l-4 -21h-29c-22 0 -42 -12 -45 -34l-59 -372c-3 -22 13 -34 35 -34h30l-4 -21h-230l4 21h28c22 0 42 12 45 34z" />
    <glyph glyph-name="two.pof" horiz-adv-x="512" 
d="M427 0h-464c126 85 389 242 389 376c0 52 -36 79 -98 79c-38 0 -83 -11 -150 -71l-6 5c69 94 146 114 214 114c95 0 146 -46 146 -111c0 -130 -221 -243 -346 -312h231c36 0 75 7 104 78h5z" />
    <glyph glyph-name="three.pof" horiz-adv-x="433" 
d="M75 108l-4 10c134 61 233 149 233 254c0 62 -40 92 -98 92c-47 0 -87 -16 -125 -45l-5 7c61 59 133 77 186 77c80 0 141 -39 141 -118c0 -101 -132 -190 -222 -228c103 -11 168 -84 168 -166c0 -120 -114 -269 -314 -269c-47 0 -116 17 -152 62l9 8
c36 -29 80 -39 116 -39c115 0 238 84 238 219c0 70 -51 136 -153 136h-18z" />
    <glyph glyph-name="four.pof" horiz-adv-x="592" 
d="M373 0l-35 -217c-4 -22 13 -34 35 -34h30l-4 -21h-231l4 21h29c22 0 43 12 46 34l34 217h-296l-2 7l466 505h11l-71 -447h52c69 0 104 14 128 83h7l-24 -148h-179zM71 65h226l46 293z" />
    <glyph glyph-name="five.pof" horiz-adv-x="465" 
d="M39 114l-8 3l185 372h216l-13 -80h-212l-103 -203c47 33 89 38 118 38c107 0 159 -69 159 -169c0 -174 -200 -311 -451 -410l-4 12c236 127 348 227 348 381c0 68 -33 117 -103 117c-33 0 -77 -10 -132 -61z" />
    <glyph glyph-name="six.pof" horiz-adv-x="613" 
d="M563 285c0 -164 -127 -299 -291 -299c-151 0 -232 107 -232 245c0 304 311 535 560 605l3 -11c-175 -81 -338 -223 -415 -400c51 52 101 78 173 78c94 0 202 -68 202 -218zM324 462c-46 0 -100 -11 -146 -61c-23 -60 -36 -125 -36 -192c0 -94 41 -194 124 -194
c110 0 194 126 194 266c0 101 -55 181 -136 181z" />
    <glyph glyph-name="seven.pof" horiz-adv-x="551" 
d="M-50 -268l540 676h-255c-79 0 -116 -12 -140 -83h-14l27 166h473l-581 -796z" />
    <glyph glyph-name="eight.pof" horiz-adv-x="596" 
d="M135 633c0 107 87 202 236 202c146 0 205 -81 205 -156c0 -95 -83 -158 -212 -212l27 -24c90 -80 143 -145 143 -218c0 -122 -99 -239 -280 -239c-117 0 -219 88 -219 197c0 112 90 190 220 239l-17 16c-61 54 -103 125 -103 195zM122 176c0 -84 46 -162 144 -162
c108 0 165 74 165 163c0 52 -16 104 -90 170l-76 67c-99 -54 -143 -145 -143 -238zM491 681c0 64 -30 127 -119 127c-68 0 -139 -47 -139 -139c0 -67 53 -132 109 -182l11 -10c96 57 138 116 138 204z" />
    <glyph glyph-name="nine.pof" horiz-adv-x="613" 
d="M50 204c0 164 127 299 291 299c151 0 232 -107 232 -245c0 -304 -311 -535 -560 -605l-3 11c174 81 338 223 415 400c-51 -53 -101 -78 -173 -78c-94 0 -202 68 -202 218zM289 27c45 0 99 10 146 60c23 61 36 125 36 193c0 94 -41 194 -124 194
c-110 0 -194 -126 -194 -266c0 -101 55 -181 136 -181z" />
    <glyph glyph-name="zero.pof" horiz-adv-x="582" 
d="M535 266c0 -153 -110 -279 -263 -279c-144 0 -234 97 -234 236c0 151 100 280 260 280c153 0 237 -101 237 -237zM298 442c-109 0 -188 -98 -188 -213c0 -95 53 -180 165 -180c113 0 188 92 188 212c0 98 -59 181 -165 181z" />
    <glyph glyph-name="fraction" unicode="&#x2044;" horiz-adv-x="612" 
d="M662 817l-672 -817h-50l670 817h52z" />
    <glyph glyph-name="acute.case" horiz-adv-x="500" 
d="M366 1086l-220 -234h-13l143 234h90z" />
    <glyph glyph-name="breve.case" horiz-adv-x="500" 
d="M372 1041h43c-38 -140 -144 -160 -191 -160c-51 0 -145 20 -139 160h45c1 -82 39 -120 103 -120c62 0 112 38 139 120z" />
    <glyph glyph-name="caron.case" horiz-adv-x="500" 
d="M413 1097l-193 -244h-9l-124 244h11l132 -151l172 151h11z" />
    <glyph glyph-name="cedilla.case" horiz-adv-x="500" 
d="M254 -4h30l-65 -74c18 12 37 20 60 20c41 0 70 -17 70 -56c0 -85 -122 -133 -197 -131l-2 6c92 11 148 73 148 118c0 24 -13 36 -44 36c-16 0 -31 -6 -43 -14l-21 19z" />
    <glyph glyph-name="circumflex.case" horiz-adv-x="500" 
d="M297 1092l115 -244h-10l-126 147l-178 -147h-12l202 244h9z" />
    <glyph glyph-name="dieresis.case" horiz-adv-x="500" 
d="M49 971c0 36 29 65 65 65s65 -29 65 -65s-29 -65 -65 -65s-65 29 -65 65zM321 971c0 36 29 65 65 65s65 -29 65 -65s-29 -65 -65 -65s-65 29 -65 65z" />
    <glyph glyph-name="dotaccent.case" horiz-adv-x="500" 
d="M185 963c0 36 28 65 64 65s65 -29 65 -65s-29 -64 -65 -64s-64 28 -64 64z" />
    <glyph glyph-name="grave.case" horiz-adv-x="500" 
d="M316 848l-146 234h90l69 -234h-13z" />
    <glyph glyph-name="hungarumlaut.case" horiz-adv-x="500" 
d="M281 1082l-200 -234h-13l123 234h90zM432 1082l-200 -234h-13l123 234h90z" />
    <glyph glyph-name="macron.case" horiz-adv-x="500" 
d="M80 916l7 47h334l-7 -47h-334z" />
    <glyph glyph-name="ogonek.case" horiz-adv-x="500" 
d="M339 -205l2 -8c-28 -16 -65 -29 -99 -29c-45 0 -83 23 -83 71c0 77 79 123 167 172h10c-55 -49 -102 -102 -102 -153c0 -41 32 -59 68 -59c12 0 26 2 37 6z" />
    <glyph glyph-name="ring.case" horiz-adv-x="500" 
d="M263 1073c51 0 90 -39 90 -88c0 -61 -57 -108 -117 -108c-51 0 -89 38 -89 86c0 62 54 110 116 110zM258 1040c-41 0 -72 -33 -72 -73c0 -31 22 -57 55 -57c42 0 74 31 74 71c0 33 -26 59 -57 59z" />
    <glyph glyph-name="tilde.case" horiz-adv-x="500" 
d="M400 1004l53 47l6 -4l-65 -122h-298l-53 -47l-6 4l65 122h298z" />
    </font>
</defs>
</svg>
